VERSION	0.00.00	1.04.00
FES_MODE	0
BPM_DEF	115.000	115.000	115.000	115.000
MET_DEF	4	4
RESOLUTION	384
CLK_DEF	384
COMPATIBLE_CODE	MA2

BPM	0	0	115.000
MET	0	0	4	4

NMTTP	2	0	0	C	0	M1
NMHLD	2	192	4	1344
NMTTP	3	0	4	B	0	M1
NMTTP	3	0	5	E	0	M1
NMTTP	3	192	6	D	0	M1
NMTTP	3	288	7	E	0	M1
NMTTP	4	0	0	D	0	M1
NMTTP	4	192	5	B	0	M1
NMTTP	4	192	6	B	0	M1
NMSTR	5	0	7
NMSXR	5	0	7	96	192	0
NMTAP	6	0	7
NMHLD	6	192	3	960
NMTTP	7	0	3	B	0	M1
NMTTP	7	0	3	E	0	M1
NMTTP	7	192	2	D	0	M1
NMTTP	7	288	1	E	0	M1
NMTTP	8	0	0	D	0	M1
NMTTP	8	192	1	B	0	M1
NMTTP	8	192	2	B	0	M1
NMSTR	9	0	0
NMSCR	9	0	0	96	96	4
NMHLD	10	0	4	48
NMHLD	10	0	5	48
NMHLD	10	96	4	48
NMHLD	10	96	5	48
NMHLD	10	192	5	48
NMHLD	10	192	6	48
NMHLD	10	288	5	48
NMHLD	10	288	6	48
NMHLD	11	0	6	96
NMHLD	11	0	7	96
NMHLD	11	192	4	96
NMHLD	11	192	5	96
NMHLD	12	0	2	48
NMHLD	12	0	3	48
NMHLD	12	96	2	48
NMHLD	12	96	3	48
NMHLD	12	192	1	48
NMHLD	12	192	2	48
NMHLD	12	288	1	48
NMHLD	12	288	2	48
NMHLD	13	0	0	192
NMHLD	13	0	1	192
NMHLD	14	0	0	4992
NMTAP	14	0	1
NMSTR	14	96	1
NMSV_	14	96	1	96	96	2
NMTAP	15	0	2
NMSTR	15	96	2
NMSV_	15	96	2	96	96	3
NMTAP	16	0	3
NMSTR	16	96	3
NMSV_	16	96	3	96	96	2
NMTAP	17	0	2
NMSTR	17	96	2
NMSV_	17	96	2	96	96	1
NMTAP	18	0	1
NMTAP	18	96	1
NMTTP	18	192	1	E	0	M1
NMTTP	18	288	2	E	0	M1
NMTAP	19	0	2
NMTAP	19	96	2
NMTTP	19	192	2	E	0	M1
NMTTP	19	288	3	E	0	M1
NMTAP	20	0	3
NMTAP	20	96	3
NMTTP	20	192	3	E	0	M1
NMTTP	20	288	4	E	0	M1
NMTAP	21	0	4
NMTAP	21	96	4
NMTTP	21	192	4	E	0	M1
NMTTP	21	288	5	E	0	M1
NMTAP	22	0	5
NMTAP	22	96	5
NMTTP	22	192	5	E	0	M1
NMTTP	22	288	6	E	0	M1
NMTAP	23	0	6
NMTAP	23	96	6
NMTTP	23	192	6	E	0	M1
NMTTP	23	288	7	E	0	M1
NMTAP	24	0	7
NMTAP	24	96	7
NMTTP	24	192	7	E	0	M1
NMTTP	24	288	0	E	0	M1
NMTAP	25	0	7
NMTAP	25	96	7
NMTTP	25	192	7	E	0	M1
NMTTP	25	288	0	E	0	M1
NMHLD	26	0	7	384
NMTTP	27	96	0	E	0	M1
NMTTP	27	192	0	C	0	M1
NMHLD	28	0	3	96
NMHLD	28	0	4	96
NMHLD	28	192	2	1152
NMHLD	28	192	3	192
NMTTP	29	192	1	B	0	M1
NMTTP	29	192	2	B	0	M1
NMTAP	30	0	0
NMTAP	30	96	0
NMTAP	30	192	1
NMSTR	30	288	1
NMSXL	30	288	1	96	192	0
NMHLD	32	0	3	96
NMHLD	32	0	4	96
NMHLD	32	192	4	96
NMHLD	32	192	5	960
NMTTP	33	0	4	E	0	M1
NMTTP	33	96	5	E	0	M1
NMTTP	33	192	6	E	0	M1
NMTTP	33	288	7	E	0	M1
NMTTP	34	0	0	E	0	M1
NMTTP	34	192	6	B	0	M1
NMTTP	34	192	7	E	0	M1
NMSTR	35	0	0
NMSI_	35	0	0	96	48	6
CNSLL	35	144	6	0	144	2
NMHLD	36	0	2	48
NMHLD	36	0	3	48
NMHLD	36	96	2	48
NMHLD	36	96	3	48
NMHLD	36	192	1	48
NMHLD	36	192	2	48
NMHLD	36	288	1	48
NMHLD	36	288	2	48
NMHLD	37	0	0	96
NMHLD	37	0	1	96
NMHLD	37	192	2	96
NMHLD	37	192	3	96
NMHLD	38	0	4	48
NMHLD	38	0	5	48
NMHLD	38	96	4	48
NMHLD	38	96	5	48
NMHLD	38	192	5	48
NMHLD	38	192	6	48
NMHLD	38	288	5	48
NMHLD	38	288	6	48
NMHLD	39	0	6	192
NMHLD	39	0	7	192
NMSTR	40	0	4
NMSI_	40	0	4	96	48	6
NMHLD	40	0	6	1440
CNSCR	40	144	6	0	48	7
CNSUR	40	192	7	0	96	5
NMSTR	41	0	4
NMSI_	41	0	4	96	48	6
CNSCR	41	144	6	0	48	7
CNSUR	41	192	7	0	96	5
NMTAP	42	0	4
NMTAP	42	96	4
NMTAP	42	192	7
NMTAP	42	288	7
NMTAP	43	0	4
NMSTR	43	96	7
NMSCL	43	96	7	96	96	4
NMHLD	44	0	1	1344
NMSTR	44	0	3
NMSI_	44	0	3	96	48	1
CNSCL	44	144	1	0	48	0
CNSUL	44	192	0	0	96	2
NMSTR	45	0	3
NMSI_	45	0	3	96	48	1
CNSCL	45	144	1	0	48	0
CNSUL	45	192	0	0	96	2
NMTAP	46	0	3
NMTAP	46	96	3
NMTAP	46	192	0
NMTAP	46	288	0
NMTTP	47	0	2	E	0	M1
NMTTP	47	96	3	E	0	M1
NMTTP	47	192	0	B	0	M1
NMTTP	47	192	1	B	0	M1
NMTTP	47	288	1	A	0	M1
NMTTP	47	288	2	A	0	M1
NMTTP	47	288	2	D	0	M1
NMTTP	47	288	3	A	0	M1
NMTTP	47	288	3	D	0	M1
NMHLD	48	0	4	1440
NMTAP	48	0	5
NMSTR	48	96	6
NMSLL	48	96	6	96	96	2
NMTAP	49	0	6
NMSTR	49	96	7
NMSLL	49	96	7	96	96	3
NMTAP	50	0	1
NMSTR	50	96	0
NMSLL	50	96	0	96	96	3
NMTAP	51	0	2
NMSTR	51	96	1
NMSCR	51	96	1	96	96	5
EXTAP	52	0	6
NMHLD	52	0	7	1824
NMTAP	52	48	6
NMTAP	52	96	6
NMTAP	52	144	6
EXTAP	52	192	5
NMTAP	52	240	5
NMTAP	52	288	5
NMTAP	52	336	5
EXTAP	53	0	4
NMTAP	53	48	4
NMTAP	53	96	4
NMTAP	53	144	4
EXTAP	53	192	3
NMTAP	53	240	3
NMTAP	53	288	3
NMTAP	53	336	3
EXTAP	54	0	2
NMTAP	54	48	2
NMTAP	54	96	2
NMTAP	54	144	2
EXTAP	54	192	1
NMTAP	54	240	1
NMTAP	54	288	1
NMTAP	54	336	1
BXTAP	55	0	0
EXTAP	55	48	0
BRTAP	55	96	1
NMTAP	55	144	1
BXTAP	55	192	0
NMTAP	55	240	0
BRTAP	55	288	1
EXTAP	55	336	1
BRTAP	56	0	0
BRTAP	56	48	1
BXTAP	56	96	0
BXTAP	56	144	1
BRTAP	56	192	0
BXTAP	56	240	1
BRSTR	56	288	0
NMSV_	56	288	0	96	48	3
NMSV_	56	288	0	96	48	5
BXTAP	56	336	0

T_REC_TAP	57
T_REC_BRK	5
T_REC_XTP	8
T_REC_BXX	6
T_REC_HLD	60
T_REC_XHO	0
T_REC_BHO	0
T_REC_BXH	0
T_REC_STR	17
T_REC_BST	1
T_REC_XST	0
T_REC_XBS	0
T_REC_TTP	51
T_REC_THO	0
T_REC_SLD	19
T_REC_BSL	0
T_REC_ALL	224
T_NUM_TAP	133
T_NUM_BRK	12
T_NUM_HLD	60
T_NUM_SLD	19
T_NUM_ALL	224
T_JUDGE_TAP	145
T_JUDGE_HLD	816
T_JUDGE_SLD	19
T_JUDGE_ALL	980
TTM_EACHPAIRS	31
TTM_SCR_TAP	66500
TTM_SCR_BRK	31200
TTM_SCR_HLD	60000
TTM_SCR_SLD	28500
TTM_SCR_ALL	186200
TTM_SCR_S	179450
TTM_SCR_SS	185000
TTM_RAT_ACV	10064

