VERSION	0.00.00	1.04.00
FES_MODE	0
BPM_DEF	175.000	175.000	175.000	175.000
MET_DEF	4	4
RESOLUTION	384
CLK_DEF	384
COMPATIBLE_CODE	MA2

BPM	0	0	175.000
MET	0	0	4	4

NMHLD	2	0	2	576
NMHLD	2	0	4	336
NMHLD	4	0	3	336
NMHLD	4	0	5	576
NMHLD	6	0	2	288
NMTAP	6	96	3
NMTAP	6	192	4
NMTAP	6	288	5
NMHLD	7	0	5	384
NMTAP	7	96	4
NMTAP	7	192	3
NMTAP	7	288	2
NMTAP	8	0	1
NMTAP	8	144	6
NMTAP	8	192	6
NMTAP	8	240	0
NMTAP	8	288	0
NMSTR	8	336	7
NMSUL	8	336	7	96	240	4
NMTAP	10	0	2
NMTAP	10	48	3
NMSTR	10	96	4
NMSCR	10	96	4	96	48	6
NMTAP	10	144	2
NMTAP	10	192	1
NMHLD	10	240	0	96
NMHLD	10	336	6	192
NMTAP	11	48	4
NMTAP	11	96	3
NMTAP	11	144	2
NMSTR	11	192	1
NMSI_	11	192	1	96	48	4
NMTAP	11	288	1
NMTAP	12	0	5
NMTAP	12	48	4
NMSTR	12	96	3
NMSCL	12	96	3	96	48	1
NMTAP	12	144	5
NMTAP	12	192	6
NMHLD	12	240	7	96
NMHLD	12	336	1	192
NMTAP	13	48	3
NMTAP	13	96	4
NMTAP	13	144	5
NMSTR	13	192	6
NMSI_	13	192	6	96	48	3
NMTAP	13	288	6
NMTAP	14	0	2
NMTAP	14	48	1
NMSTR	14	96	0
NMSCR	14	96	0	96	48	2
NMTAP	14	144	7
NMTAP	14	192	6
NMHLD	14	240	5	96
NMHLD	14	336	3	192
NMTAP	15	48	4
NMTAP	15	96	5
NMTAP	15	144	6
NMSTR	15	192	7
NMSI_	15	192	7	96	48	3
NMTAP	15	288	7
NMTAP	16	0	1
NMTAP	16	48	2
NMSTR	16	96	3
NMSCL	16	96	3	96	48	1
NMTAP	16	144	5
NMTAP	16	192	6
NMHLD	16	240	7	96
NMHLD	16	336	1	144
NMTAP	17	48	5
NMTAP	17	96	5
NMTAP	17	144	1
NMTAP	17	144	6
NMSTR	17	192	0
NMSI_	17	192	0	96	48	3
NMSTR	17	192	7
NMSI_	17	192	7	96	48	4
BRTAP	17	288	0
BRTAP	17	288	7
NMTAP	18	0	2
NMTAP	18	96	1
NMTAP	18	96	3
NMTAP	18	192	2
NMTAP	18	240	2
NMTAP	18	288	3
NMSTR	18	336	1
NMSCR	18	336	1	96	48	3
NMTAP	19	144	4
NMTAP	19	192	4
NMTAP	19	240	3
NMTAP	19	288	3
NMTAP	19	288	5
NMTAP	20	0	6
NMTAP	20	48	6
NMTAP	20	96	4
NMTAP	20	144	4
EXTAP	20	192	5
EXTAP	20	264	4
EXTAP	20	264	6
EXSTR	20	336	5
NMSCR	20	336	5	96	48	7
NMTAP	21	144	0
NMTAP	21	192	0
NMTAP	21	240	1
NMTAP	21	288	1
NMTAP	21	336	2
NMHLD	22	0	2	192
NMTAP	22	96	3
NMTAP	22	192	3
NMTAP	22	288	3
NMTAP	22	288	4
NMTAP	22	336	3
NMTAP	22	336	4
NMTAP	23	48	4
NMTAP	23	96	5
NMTAP	23	144	6
NMHLD	23	192	6	192
NMSTR	23	288	7
NMSI_	23	288	7	96	48	5
NMTAP	24	0	7
NMTAP	24	96	6
NMTAP	24	144	6
NMTAP	24	192	1
NMTAP	24	240	1
NMTAP	24	288	7
NMTAP	24	336	7
NMSTR	25	0	0
NMSI_	25	0	0	96	96	3
NMSI_	25	0	0	96	96	5
CNSCL	25	192	3	0	96	1
CNSCR	25	192	5	0	96	7
NMHLD	26	0	2	48
NMHLD	26	0	4	48
NMHLD	26	96	3	48
NMHLD	26	96	5	48
NMSTR	26	192	2
NMSXR	26	192	2	96	192	7
NMTAP	26	192	4
NMTAP	26	288	4
NMTAP	27	0	5
NMTAP	27	96	6
NMTAP	27	192	0
NMTAP	27	192	6
EXTAP	27	240	7
EXTAP	27	288	7
NMHLD	28	0	3	48
NMHLD	28	0	5	48
NMHLD	28	96	2	48
NMHLD	28	96	4	48
NMTAP	28	192	3
NMSTR	28	192	5
NMSXL	28	192	5	96	192	0
NMTAP	28	288	3
NMTAP	29	0	2
NMTAP	29	96	1
NMTAP	29	192	1
NMTAP	29	192	7
EXTAP	29	240	0
EXTAP	29	288	0
NMHLD	30	0	1	48
NMHLD	30	0	4	48
NMHLD	30	96	3	48
NMHLD	30	96	6	48
NMSTR	30	192	1
NMSXL	30	192	1	96	192	7
NMTAP	30	192	4
NMTAP	30	288	4
NMTAP	31	0	6
NMTAP	31	96	4
NMTAP	31	192	0
NMTAP	31	192	6
BXTAP	31	240	7
BXTAP	31	288	7
NMHLD	32	0	2	96
NMHLD	32	0	3	96
NMHLD	32	192	4	96
NMHLD	32	192	5	96
NMTAP	33	0	2
NMTAP	33	24	3
NMTAP	33	48	2
NMTAP	33	96	5
NMTAP	33	120	4
NMTAP	33	144	5
NMTAP	33	192	1
NMTAP	33	216	3
NMTAP	33	240	1
NMTAP	33	288	6
NMTAP	33	312	4
NMTAP	33	336	6
NMTAP	34	0	3
NMTAP	34	0	7
NMTAP	34	72	1
NMTAP	34	72	5
NMTAP	34	144	0
NMTAP	34	144	4
NMTAP	34	192	2
NMTAP	34	192	6
BRTAP	35	0	0
BRTAP	35	0	7
NMTAP	35	48	2
NMTAP	35	72	3
NMTAP	35	96	1
NMTAP	35	144	5
NMTAP	35	168	4
NMTAP	35	192	6
NMSTR	35	240	6
NMSCL	35	240	6	96	48	3
NMTAP	35	336	6
NMTAP	35	336	7
NMTAP	36	0	0
NMTAP	36	48	1
NMSTR	36	96	2
NMSI_	36	96	2	96	48	7
NMSTR	36	144	6
NMSI_	36	144	6	96	48	3
NMTAP	36	192	2
NMTAP	36	240	6
EXTAP	36	336	0
EXTAP	36	360	1
EXSTR	37	0	2
NMSCL	37	0	2	96	48	7
NMTAP	37	48	4
NMTAP	37	96	5
NMTAP	37	144	6
NMSTR	37	192	6
NMSV_	37	192	6	96	48	3
NMTAP	37	240	2
NMTAP	37	288	1
NMSTR	37	336	0
NMSCR	37	336	0	96	96	6
NMTAP	38	48	7
NMTAP	38	96	7
NMTAP	38	144	7
NMSTR	38	192	7
NMSF_	38	192	7	96	48	3
BRTAP	38	288	7
NMTAP	39	0	0
NMTAP	39	0	7
NMTAP	39	48	1
NMTAP	39	72	3
NMTAP	39	96	2
NMTAP	39	144	6
NMTAP	39	168	4
NMHLD	39	192	5	144
NMTAP	39	240	3
NMTAP	39	288	1
NMTAP	39	336	7
NMTAP	40	0	5
NMTAP	40	48	6
NMTAP	40	48	7
EXSTR	40	96	0
NMSI_	40	96	0	96	48	4
NMTAP	40	144	5
NMSTR	40	192	0
NMSCR	40	192	0	96	48	3
NMTAP	40	240	5
NMTAP	40	288	0
NMTAP	40	336	5
NMTAP	41	48	2
NMTAP	41	48	6
NMTAP	41	96	2
NMTAP	41	96	6
NMTAP	41	144	2
NMTAP	41	144	6
NMTAP	41	192	3
NMTAP	41	192	7
NMTAP	41	240	3
NMTAP	41	240	7
NMTAP	41	288	3
NMTAP	41	288	7
NMTAP	41	336	0
NMTAP	41	336	4
NMHLD	42	0	0	288
NMHLD	42	0	4	288
NMSTR	43	0	0
NMSCL	43	0	0	96	48	6
NMSTR	43	0	4
NMSCL	43	0	4	96	48	2
NMTTP	43	192	1	E	0	M1
NMTTP	43	192	1	D	0	M1
NMTTP	43	240	2	E	0	M1
NMTTP	43	240	2	D	0	M1
NMTTP	43	288	3	E	0	M1
NMTTP	43	288	3	D	0	M1
NMTTP	43	336	4	E	0	M1
NMTTP	43	336	4	D	0	M1
NMTTP	44	0	0	E	0	M1
NMTTP	44	0	0	D	0	M1
NMTTP	44	48	7	E	0	M1
NMTTP	44	48	7	D	0	M1
NMTTP	44	96	6	E	0	M1
NMTTP	44	96	6	D	0	M1
NMTTP	44	144	5	E	0	M1
NMTTP	44	144	5	D	0	M1
NMTAP	44	192	1
NMTAP	44	216	3
NMTAP	44	240	1
NMTAP	44	264	3
NMTAP	44	288	1
NMTAP	44	312	3
NMTAP	44	336	2
NMTAP	45	0	6
NMTAP	45	24	4
NMTAP	45	48	5
NMTAP	45	72	4
NMTAP	45	96	6
NMTTP	45	192	0	B	0	M1
NMTTP	45	192	0	A	0	M1
NMTTP	45	240	7	B	0	M1
NMTTP	45	240	7	A	0	M1
NMTTP	45	288	6	B	0	M1
NMTTP	45	288	6	A	0	M1
NMTTP	45	336	5	B	0	M1
NMTTP	45	336	5	A	0	M1
NMTTP	46	0	4	B	0	M1
NMTTP	46	0	4	A	0	M1
NMTTP	46	48	3	B	0	M1
NMTTP	46	48	3	A	0	M1
NMTTP	46	96	2	B	0	M1
NMTTP	46	96	2	A	0	M1
BXTAP	46	192	7
NMTTP	46	216	3	A	0	M1
BXTAP	46	240	7
NMTTP	46	264	4	A	0	M1
BXTAP	46	288	7
NMTTP	46	312	5	A	0	M1
BXTAP	46	336	7
NMTTP	46	360	6	A	0	M1
BXTAP	47	0	7
NMTTP	47	96	3	B	0	M1
NMTTP	47	96	4	B	0	M1
NMTTP	47	96	4	E	1	M1
NMTAP	47	192	0
NMTAP	47	192	7
BRTAP	47	288	2
BRTAP	47	288	5
NMTAP	48	0	2
NMTAP	48	48	2
NMTAP	48	96	3
NMSTR	48	144	1
NMSCR	48	144	1	96	48	4
NMTAP	48	336	5
NMTAP	49	0	5
NMTAP	49	48	4
NMTAP	49	96	4
NMTAP	49	96	6
NMTAP	49	192	7
NMTAP	49	240	7
NMTAP	49	288	4
NMTAP	49	336	4
EXTAP	50	0	6
EXTAP	50	72	5
EXTAP	50	72	7
EXSTR	50	144	6
NMSCL	50	144	6	96	48	3
NMTAP	50	336	2
NMTAP	51	0	2
NMTAP	51	48	3
NMTAP	51	96	3
NMTAP	51	144	0
NMHLD	51	192	0	192
NMTAP	51	288	2
NMTAP	52	0	2
NMTAP	52	96	1
NMTAP	52	96	3
NMTAP	52	144	1
NMTAP	52	144	3
NMTAP	52	240	4
NMTAP	52	288	5
NMTAP	52	336	6
NMHLD	53	0	7	192
NMSTR	53	96	5
NMSI_	53	96	5	96	48	0
NMTAP	53	192	5
EXTAP	53	288	6
NMTAP	53	336	6
NMTAP	54	0	1
NMTAP	54	48	1
NMTAP	54	96	7
NMTAP	54	144	7
NMSTR	54	192	0
NMSXL	54	192	0	96	192	3
NMSXR	54	192	0	96	192	5
NMHLD	55	192	1	48
NMHLD	55	192	3	48
NMHLD	55	288	2	48
NMHLD	55	288	4	48
NMSTR	56	0	1
NMSI_	56	0	1	96	72	5
NMTAP	56	0	3
NMTAP	56	96	5
CNSCL	56	168	5	0	48	3
NMTAP	56	192	7
CNSI_	56	216	3	0	72	0
NMTAP	56	288	6
NMTAP	57	0	0
NMTAP	57	0	4
NMTAP	57	48	1
NMTAP	57	48	3
NMTAP	57	96	1
NMTAP	57	96	3
NMHLD	57	192	4	48
NMHLD	57	192	6	48
NMHLD	57	288	3	48
NMHLD	57	288	5	48
NMTAP	58	0	4
NMSTR	58	0	5
NMSV_	58	0	5	96	72	0
NMTAP	58	96	1
NMTAP	58	144	1
CNSLL	58	168	0	0	120	3
NMTAP	58	240	2
NMTAP	58	288	2
NMTAP	59	0	2
NMTAP	59	0	4
NMTAP	59	48	1
NMTAP	59	48	5
NMTAP	59	96	1
NMTAP	59	96	5
NMHLD	59	192	1	48
NMHLD	59	192	4	48
NMHLD	59	288	3	48
NMHLD	59	288	6	48
NMSTR	60	0	2
NMSI_	60	0	2	96	96	7
NMTAP	60	0	4
NMTAP	60	96	4
NMTAP	60	144	4
NMTAP	60	192	4
CNSI_	60	192	7	0	72	3
NMTAP	60	240	4
CNSLL	60	264	3	0	120	5
NMTAP	60	288	4
NMTAP	60	336	4
NMTAP	61	0	4
NMTAP	61	96	2
NMTAP	61	96	3
NMTAP	61	192	0
NMTAP	61	192	5
NMTAP	61	288	6
NMTAP	61	336	6
NMTAP	62	0	5
NMTAP	62	0	7
NMTAP	62	48	5
NMTAP	62	48	7
NMTAP	62	96	0
NMTAP	62	96	4
NMTAP	62	144	0
NMTAP	62	144	4
BRTAP	62	192	0
BRTAP	62	192	4
BRTAP	62	264	2
BRTAP	62	264	6
BRTAP	62	336	3
BRTAP	62	336	7
BXSTR	63	0	1
BRSCR	63	0	1	96	48	4
BXSTR	63	0	5
BRSCR	63	0	5	96	48	0
BRTAP	63	96	1
BRTAP	63	96	5
BXTAP	63	192	3
BXTAP	63	192	7
NMTAP	63	240	2
NMTAP	63	264	3
NMTAP	63	288	1
NMTAP	63	336	5
NMTAP	63	360	4
NMTAP	64	0	6
NMSTR	64	48	6
NMSI_	64	48	6	96	48	4
NMTAP	64	144	6
NMTAP	64	144	7
NMTAP	64	192	0
NMTAP	64	240	1
NMSTR	64	288	2
NMSI_	64	288	2	96	48	7
NMSTR	64	336	6
NMSI_	64	336	6	96	48	3
BRTAP	65	0	2
BRTAP	65	48	6
EXTAP	65	144	0
EXTAP	65	144	4
EXTAP	65	168	1
EXTAP	65	168	5
EXTAP	65	192	2
EXHLD	65	192	6	144
NMTAP	65	240	4
NMTAP	65	288	3
NMTAP	65	336	2
NMSTR	66	0	1
NMSLR	66	0	1	96	48	5
NMTAP	66	48	0
NMTAP	66	96	7
NMSTR	66	144	7
NMSCL	66	144	7	96	96	2
NMTAP	66	240	1
NMTAP	66	288	1
NMTAP	66	336	0
NMSTR	67	0	0
NMSF_	67	0	0	96	48	4
BRTAP	67	96	0
NMTAP	67	192	2
NMTAP	67	192	5
NMTAP	67	240	1
NMTAP	67	264	0
NMTAP	67	288	1
NMTAP	67	336	6
NMTAP	67	360	7
NMTAP	68	0	6
NMTAP	68	48	3
NMHLD	68	48	5	96
NMTAP	68	96	2
NMTAP	68	144	1
NMSTR	68	192	0
NMSI_	68	192	0	96	48	3
NMTAP	68	240	4
NMSTR	68	288	0
NMSI_	68	288	0	96	48	5
NMTAP	68	336	4
NMTAP	69	0	0
NMTAP	69	48	4
NMTAP	69	96	0
NMTAP	69	144	2
NMTAP	69	144	6
NMTAP	69	240	3
NMTAP	69	240	7
NMTAP	69	288	3
NMTAP	69	288	7
NMTAP	69	336	3
NMTAP	69	336	7
NMTAP	70	0	2
NMTAP	70	0	6
NMTAP	70	48	2
NMTAP	70	48	6
NMTAP	70	96	2
NMTAP	70	96	6
NMTAP	70	144	1
NMTAP	70	144	5
NMSTR	70	192	1
NMSI_	70	192	1	96	48	4
NMSTR	70	192	5
NMSI_	70	192	5	96	48	0
NMTAP	70	288	1
NMTAP	70	288	5
NMTHO	71	0	0	96	C	0	M1
NMTTP	71	0	3	B	0	M1
NMTTP	71	0	4	B	0	M1
NMTTP	71	0	5	B	0	M1
NMTTP	71	0	6	B	0	M1
NMSTR	71	192	0
NMSI_	71	192	0	96	48	4
NMSTR	71	192	7
NMSI_	71	192	7	96	48	3
BRTAP	71	288	0
NMTTP	71	288	0	C	1	M1
BRTAP	71	288	7
NMTAP	72	0	2
NMTAP	72	0	6
NMTAP	72	48	2
NMHLD	72	48	6	96
NMTAP	72	144	0
EXSTR	72	192	2
NMSI_	72	192	2	96	48	5
EXSTR	72	240	6
NMSI_	72	240	6	96	48	1
EXSTR	72	288	2
BRSI_	72	288	2	96	48	7
EXSTR	72	336	6
BRSI_	72	336	6	96	48	3
NMTAP	73	0	2
NMTAP	73	48	6
EXTAP	73	144	3
EXTAP	73	144	7
EXTAP	73	168	0
EXTAP	73	168	4
EXTAP	73	192	1
EXSTR	73	192	5
NMSI_	73	192	5	96	48	0
NMTAP	73	240	3
NMTAP	73	288	2
NMSTR	73	336	1
NMSCR	73	336	1	96	48	4
NMTAP	74	0	0
NMTAP	74	48	7
NMTAP	74	96	6
NMSTR	74	144	5
NMSCL	74	144	5	96	96	1
NMTAP	74	240	1
NMTAP	74	288	0
NMTAP	74	336	7
NMSTR	75	0	6
NMSF_	75	0	6	96	48	2
BRTAP	75	96	6
NMTAP	75	192	0
NMTAP	75	192	7
NMTAP	75	240	2
NMTAP	75	264	3
NMTAP	75	288	0
NMTAP	75	336	5
NMTAP	75	360	4
NMTAP	76	0	7
NMSTR	76	48	7
NMSI_	76	48	7	96	48	3
NMTAP	76	144	3
NMTAP	76	144	7
NMSTR	76	192	1
NMSI_	76	192	1	96	48	5
NMSTR	76	240	0
NMSI_	76	240	0	96	48	4
NMTAP	76	288	1
NMTAP	76	336	0
NMSTR	77	0	2
NMSCL	77	0	2	96	48	7
NMSTR	77	48	3
NMSCR	77	48	3	96	48	6
NMTAP	77	96	2
NMTAP	77	144	3
EXTAP	77	240	6
EXTAP	77	240	7
NMTAP	77	288	0
NMTAP	77	288	6
NMTAP	77	336	1
NMTAP	77	336	6
NMTAP	78	0	2
NMTAP	78	0	6
NMTAP	78	48	3
NMTAP	78	48	6
NMTAP	78	96	4
NMTAP	78	96	6
NMTAP	78	144	5
NMTAP	78	144	6
NMSTR	78	192	5
NMSCL	78	192	5	96	48	3
NMTAP	78	192	6
CNSI_	78	336	3	0	72	7
CNSCR	79	24	7	0	48	1
NMSTR	79	144	2
NMSUL	79	144	2	96	96	4
NMHLD	79	144	5	432
CNSCR	79	336	4	0	96	6
CNSLR	80	48	6	0	96	3
NMTTP	80	272	5	D	0	M1
NMTTP	80	280	4	A	0	M1
NMTTP	80	288	4	D	0	M1
NMTTP	80	296	3	A	0	M1
NMTTP	80	304	3	D	0	M1
NMTAP	81	0	1
NMTAP	81	48	2
NMSTR	81	96	3
NMSCR	81	96	3	96	48	6
NMTAP	81	144	2
NMTAP	81	192	1
NMSTR	81	240	0
NMSI_	81	240	0	96	48	4
NMHLD	81	336	6	192
NMTAP	82	48	5
NMTAP	82	96	4
NMTAP	82	144	3
NMSTR	82	192	2
NMSI_	82	192	2	96	48	7
NMTAP	82	288	2
NMTAP	82	288	3
NMTAP	83	0	6
NMTAP	83	48	5
NMSTR	83	96	4
NMSCL	83	96	4	96	48	1
NMTAP	83	144	5
NMTAP	83	192	6
NMSTR	83	240	7
NMSI_	83	240	7	96	48	3
NMHLD	83	336	1	192
NMTAP	84	48	2
NMTAP	84	96	3
NMTAP	84	144	4
NMSTR	84	192	5
NMSI_	84	192	5	96	48	0
NMTAP	84	288	4
NMTAP	84	288	5
NMTAP	85	0	1
NMTAP	85	48	0
NMSTR	85	96	7
NMSCL	85	96	7	96	48	4
NMTAP	85	144	2
NMTAP	85	192	1
NMSTR	85	240	0
NMSI_	85	240	0	96	48	5
NMHLD	85	336	6	192
NMTAP	86	48	4
NMTAP	86	96	2
NMTAP	86	144	0
NMSTR	86	192	7
NMSI_	86	192	7	96	48	3
BRTAP	86	288	3
BRTAP	86	288	7
NMSTR	87	0	1
NMSI_	87	0	1	96	48	4
NMSTR	87	48	6
NMSI_	87	48	6	96	48	3
NMTAP	87	96	1
NMTAP	87	144	6
BRSTR	87	192	0
BRSLR	87	192	0	96	48	6
BXTAP	87	264	5
BXTAP	87	336	3

T_REC_TAP	377
T_REC_BRK	23
T_REC_XTP	25
T_REC_BXX	11
T_REC_HLD	55
T_REC_XHO	1
T_REC_BHO	0
T_REC_BXH	0
T_REC_STR	64
T_REC_BST	1
T_REC_XST	9
T_REC_XBS	2
T_REC_TTP	47
T_REC_THO	1
T_REC_SLD	73
T_REC_BSL	5
T_REC_ALL	694
T_NUM_TAP	522
T_NUM_BRK	42
T_NUM_HLD	57
T_NUM_SLD	73
T_NUM_ALL	694
T_JUDGE_TAP	559
T_JUDGE_HLD	168
T_JUDGE_SLD	78
T_JUDGE_ALL	805
TTM_EACHPAIRS	111
TTM_SCR_TAP	261000
TTM_SCR_BRK	109200
TTM_SCR_HLD	57000
TTM_SCR_SLD	109500
TTM_SCR_ALL	536700
TTM_SCR_S	516550
TTM_SCR_SS	532500
TTM_RAT_ACV	10078

