VERSION	0.00.00	1.04.00
FES_MODE	0
BPM_DEF	175.000	175.000	175.000	175.000
MET_DEF	4	4
RESOLUTION	384
CLK_DEF	384
COMPATIBLE_CODE	MA2

BPM	0	0	175.000
MET	0	0	4	4
MET	43	0	4	2
MET	43	192	4	4
MET	80	192	4	2
MET	81	0	4	4

NMHLD	2	0	7	576
NMTAP	3	192	4
NMTAP	3	288	2
NMHLD	4	0	0	576
NMTAP	5	192	3
NMTAP	5	288	5
NMSTR	6	0	7
NMSI_	6	0	7	96	96	3
NMSTR	6	192	1
NMSI_	6	192	1	96	96	5
NMHLD	7	0	6	96
NMTAP	7	96	4
NMHLD	7	192	1	96
NMTAP	7	288	3
NMTAP	8	0	4
NMSTR	8	96	5
NMSUL	8	96	5	96	192	3
EXTAP	9	288	0
EXTAP	9	288	7
NMHLD	10	0	6	96
NMTAP	10	96	7
NMHLD	10	192	1	96
NMTAP	10	288	0
NMTAP	11	0	2
NMTAP	11	0	3
NMTAP	11	96	2
NMTAP	11	96	3
NMTAP	11	192	1
NMTAP	11	192	4
NMTAP	11	288	0
NMTAP	11	288	7
NMHLD	12	0	5	96
NMTAP	12	96	4
NMHLD	12	192	2	96
NMTAP	12	288	3
NMHLD	13	0	4	96
NMHLD	13	96	5	96
NMHLD	13	192	6	96
BRTAP	13	288	7
NMHLD	14	0	1	96
NMTAP	14	96	0
NMHLD	14	192	6	96
NMTAP	14	288	7
NMTAP	15	0	4
NMTAP	15	0	5
NMTAP	15	96	4
NMTAP	15	96	5
NMTAP	15	192	3
NMTAP	15	192	6
NMTAP	15	288	0
NMTAP	15	288	7
NMHLD	16	0	2	96
NMTAP	16	96	3
NMSTR	16	192	5
NMSCR	16	192	5	96	192	2
NMTAP	17	288	3
NMTAP	17	288	4
NMHLD	18	0	6	768
NMTAP	18	96	4
NMTAP	18	192	4
NMTAP	18	288	4
NMTAP	19	0	3
NMTAP	19	96	3
NMTAP	19	192	4
NMTAP	19	288	2
NMHLD	20	0	1	768
NMTAP	20	96	3
NMTAP	20	192	3
NMTAP	20	288	3
NMTAP	21	0	4
NMTAP	21	96	4
NMTAP	21	192	3
NMTAP	21	288	4
NMHLD	22	0	5	192
NMTAP	22	96	4
NMHLD	22	192	2	192
NMTAP	22	288	3
NMHLD	23	0	5	192
NMTAP	23	96	4
NMHLD	23	192	2	96
NMTAP	23	288	3
NMTAP	24	0	3
NMTAP	24	0	4
NMTAP	24	96	5
NMTAP	24	192	4
NMTAP	24	192	5
NMSTR	24	288	6
NMSXL	24	288	6	96	288	3
BXTAP	26	0	0
BXTAP	26	0	1
BXTAP	26	96	0
BXTAP	26	96	1
NMTAP	26	192	2
NMTAP	26	192	3
NMTAP	26	288	5
NMTAP	26	336	5
NMTAP	27	0	4
NMTAP	27	96	3
NMHLD	27	96	6	96
NMTAP	27	192	4
NMTTP	27	288	5	B	0	M1
NMTTP	27	288	6	E	0	M1
NMTTP	27	288	6	D	0	M1
BXTAP	28	0	6
BXTAP	28	0	7
BXTAP	28	96	6
BXTAP	28	96	7
NMTAP	28	192	4
NMTAP	28	192	5
NMTAP	28	288	2
NMTAP	28	336	2
NMTAP	29	0	3
NMHLD	29	96	1	96
NMTAP	29	96	4
NMTAP	29	192	3
NMTTP	29	288	2	B	0	M1
NMTTP	29	288	2	E	0	M1
NMTTP	29	288	2	D	0	M1
BXTAP	30	0	0
BXTAP	30	0	1
BXTAP	30	96	0
BXTAP	30	96	1
NMTAP	30	192	2
NMTAP	30	192	3
NMTAP	30	288	5
NMTAP	30	336	5
NMTAP	31	0	4
NMTAP	31	96	3
NMHLD	31	96	6	96
NMHLD	31	192	4	96
NMHLD	31	288	3	96
NMHLD	32	0	1	288
NMTAP	32	192	4
NMSTR	32	288	3
NMSCR	32	288	3	96	240	2
EXTAP	34	0	3
EXTAP	34	0	4
EXTAP	34	72	3
EXTAP	34	72	4
BXTAP	34	144	2
BXTAP	34	144	5
BXTAP	34	192	2
BXTAP	34	192	5
BXTAP	35	0	6
BXTAP	35	0	7
NMTAP	35	48	0
NMTAP	35	48	5
NMTAP	35	96	1
NMTAP	35	96	4
NMTAP	35	192	6
NMTAP	35	240	6
NMTAP	35	288	4
NMTAP	36	0	1
NMTAP	36	48	1
NMTAP	36	96	3
NMTAP	36	192	0
NMTAP	36	192	4
NMTAP	36	288	5
NMTAP	36	336	5
NMTAP	37	0	3
NMTAP	37	96	2
NMTAP	37	144	2
NMTAP	37	192	4
NMTAP	37	288	3
NMTAP	37	288	5
NMTAP	37	336	3
NMTAP	37	336	5
NMTAP	38	48	1
NMTAP	38	48	7
NMTAP	38	96	1
NMTAP	38	96	7
BRTAP	38	192	2
BRTAP	38	192	6
BRTAP	38	288	2
BRTAP	38	288	6
NMTAP	39	0	0
NMTAP	39	0	1
NMTAP	39	48	2
NMTAP	39	48	7
NMTAP	39	96	3
NMTAP	39	96	6
NMTAP	39	192	1
NMTAP	39	240	1
NMTAP	39	288	7
NMTAP	40	0	6
NMTAP	40	48	6
NMTAP	40	96	0
NMTAP	40	192	2
NMTAP	40	192	4
NMTAP	40	288	1
NMTAP	40	288	5
NMTAP	40	336	1
NMTAP	40	336	5
NMTAP	41	48	2
NMTAP	41	96	2
NMTAP	41	96	4
NMTAP	41	192	5
NMTAP	41	240	3
NMTAP	41	240	5
NMTAP	41	336	2
NMTAP	41	336	6
NMHLD	42	0	2	384
NMHLD	42	0	6	384
NMTTP	43	96	2	E	0	M1
NMTTP	43	192	3	E	0	M1
NMTTP	43	288	4	E	0	M1
NMTTP	44	0	5	E	0	M1
NMTTP	44	96	6	E	0	M1
NMHLD	44	192	6	96
NMTAP	44	288	4
NMTAP	45	0	3
NMTAP	45	48	3
NMTAP	45	96	2
NMTAP	45	96	4
NMHLD	45	192	1	96
NMHLD	45	288	3	96
NMHLD	46	0	4	96
NMHLD	46	96	6	96
NMTAP	46	192	3
NMTAP	46	240	3
NMTAP	46	288	5
NMTAP	46	336	5
NMSTR	47	0	1
NMSI_	47	0	1	96	48	5
BXHLD	47	96	7	192
BRTAP	47	288	0
NMHLD	48	0	1	480
NMTAP	48	96	3
NMTAP	48	192	3
NMTAP	48	288	3
NMTAP	49	0	4
NMTAP	49	96	5
NMHLD	49	192	6	768
NMTAP	49	288	4
NMTAP	50	0	4
NMTAP	50	96	4
NMTAP	50	192	3
NMTAP	50	288	3
NMTAP	51	0	4
NMTAP	51	96	3
NMHLD	51	192	2	192
NMTAP	51	288	3
NMHLD	52	0	5	192
NMTAP	52	96	4
NMHLD	52	192	2	192
NMTAP	52	288	3
NMHLD	53	0	5	96
NMTAP	53	96	4
NMTAP	53	192	3
NMTAP	53	192	4
NMTAP	53	288	2
NMTAP	54	0	2
NMTAP	54	0	3
NMSTR	54	96	1
NMSLR	54	96	1	96	192	0
CNSI_	55	0	0	0	96	4
BXTAP	55	192	6
BXTAP	55	192	7
BXTAP	55	288	6
BXTAP	55	288	7
NMTAP	56	0	5
NMTAP	56	48	5
NMTAP	56	96	3
NMTAP	56	144	3
NMTAP	56	192	4
NMHLD	56	288	1	96
NMTAP	56	288	5
NMTAP	57	0	3
NMTTP	57	96	2	B	0	M1
NMTTP	57	96	2	E	0	M1
NMTTP	57	96	2	D	0	M1
BXTAP	57	192	0
BXTAP	57	192	1
BXTAP	57	288	0
BXTAP	57	288	1
NMTAP	58	0	2
NMTAP	58	48	2
NMTAP	58	96	5
NMHLD	58	144	5	96
NMTAP	58	240	4
NMTAP	58	288	4
NMTAP	59	0	3
NMTAP	59	0	6
NMTTP	59	96	5	B	0	M1
NMTTP	59	96	6	E	0	M1
NMTTP	59	96	6	D	0	M1
BXTAP	59	192	6
BXTAP	59	192	7
BXTAP	59	288	6
BXTAP	59	288	7
NMTAP	60	0	5
NMTAP	60	48	5
NMTAP	60	96	3
NMTAP	60	144	3
NMTAP	60	192	4
NMTAP	60	240	4
NMTAP	60	288	2
NMTAP	61	0	0
NMTAP	61	0	6
NMTAP	61	96	0
NMTAP	61	96	6
NMTAP	61	192	1
NMHLD	61	192	5	288
NMTAP	62	0	3
NMTAP	62	96	3
NMTAP	62	192	2
NMTAP	62	192	4
NMTAP	62	264	2
NMTAP	62	264	4
BRTAP	62	336	1
BRTAP	62	336	5
BRHLD	63	0	1	96
BRTAP	63	0	5
BXTAP	63	96	7
NMSTR	63	192	0
NMSI_	63	192	0	96	48	4
NMSTR	63	192	1
NMSI_	63	192	1	96	48	4
NMSTR	64	0	6
NMSI_	64	0	6	96	48	3
NMSTR	64	0	7
NMSI_	64	0	7	96	48	3
NMTAP	64	192	2
NMTAP	64	240	2
NMTAP	64	288	4
EXTAP	65	0	1
EXTAP	65	0	5
NMTAP	65	96	2
NMTAP	65	96	4
NMHLD	65	192	5	96
NMHLD	65	288	7	96
NMHLD	66	0	0	96
NMTAP	66	96	2
NMTAP	66	144	2
NMTAP	66	240	3
NMTAP	66	240	7
NMTAP	66	288	3
NMTAP	66	288	7
BRTAP	67	0	0
BRTAP	67	0	6
BRTAP	67	96	1
BRTAP	67	96	7
NMSTR	67	192	6
NMSI_	67	192	6	96	48	3
NMSTR	67	192	7
NMSI_	67	192	7	96	48	3
NMSTR	68	0	0
NMSI_	68	0	0	96	48	4
NMSTR	68	0	1
NMSI_	68	0	1	96	48	4
NMTAP	68	192	5
NMTAP	68	240	5
NMTAP	68	288	3
EXTAP	69	0	2
EXTAP	69	0	6
EXTAP	69	96	1
EXTAP	69	96	7
NMTAP	69	192	2
NMTAP	69	192	4
NMTAP	69	288	0
NMTAP	69	288	6
NMTAP	70	0	1
NMTAP	70	0	5
NMTAP	70	96	2
NMTAP	70	144	2
NMTAP	70	192	4
BRTAP	70	288	5
BRTAP	70	336	5
BRTAP	71	0	3
NMSTR	71	96	1
BRSI_	71	96	1	96	48	3
NMSTR	71	96	6
BRSI_	71	96	6	96	48	4
BXTAP	71	288	0
BXTAP	71	288	7
NMTAP	72	0	1
NMTAP	72	48	1
NMTAP	72	96	3
NMTAP	72	192	6
NMTAP	72	240	6
NMTAP	72	288	4
NMTAP	73	0	3
NMTAP	73	0	7
NMTAP	73	96	6
NMTAP	73	144	6
NMTAP	73	192	0
NMTAP	73	288	1
NMTAP	73	336	1
NMTAP	74	0	7
NMTAP	74	96	2
NMTAP	74	96	4
NMTAP	74	144	2
NMTAP	74	144	4
NMTAP	74	240	0
NMTAP	74	240	6
NMTAP	74	288	0
NMTAP	74	288	6
BRTAP	75	0	1
BRTAP	75	0	5
BRTAP	75	96	2
BRTAP	75	96	6
BRTAP	75	192	0
BRTAP	75	192	1
NMTAP	75	240	2
NMTAP	75	240	7
NMTAP	75	288	3
NMTAP	75	288	6
EXSTR	76	0	5
NMSI_	76	0	5	96	48	2
NMTAP	76	192	1
EXSTR	76	288	3
NMSV_	76	288	3	96	96	1
EXSTR	76	288	7
NMSV_	76	288	7	96	96	5
NMTAP	77	240	2
NMTAP	77	288	2
NMTAP	77	288	4
NMTAP	78	0	5
NMTAP	78	48	3
NMTAP	78	48	5
NMTAP	78	144	2
NMTAP	78	144	6
NMHLD	78	192	2	288
NMHLD	78	192	6	288
NMHLD	79	144	1	336
NMHLD	79	144	5	336
NMSTR	80	192	0
BRSI_	80	192	0	96	48	4
BXTAP	80	288	7
NMTAP	81	0	5
NMTAP	81	96	4
NMTAP	81	96	6
NMTAP	81	192	2
NMTAP	81	288	1
NMTAP	81	288	3
NMHLD	82	0	5	96
NMHLD	82	96	7	96
NMHLD	82	192	0	96
NMTAP	82	288	2
NMTAP	83	0	7
NMTAP	83	96	4
NMTAP	83	96	6
NMTAP	83	192	0
NMTAP	83	288	1
NMTAP	83	288	3
NMHLD	84	0	5	96
NMTAP	84	96	3
NMTAP	84	192	2
NMTAP	84	192	6
NMTTP	84	288	3	B	0	M1
NMTTP	84	288	3	E	0	M1
NMTTP	84	288	4	B	1	M1
NMTTP	84	288	5	B	0	M1
NMTTP	84	288	6	E	0	M1
NMHLD	85	0	6	96
NMTAP	85	96	7
NMHLD	85	192	1	96
NMTAP	85	288	0
NMTAP	86	0	2
NMTAP	86	0	3
NMTAP	86	96	1
NMTAP	86	96	4
NMTAP	86	192	4
NMTAP	86	192	5
NMTAP	86	288	3
NMTAP	86	288	6
NMTAP	87	0	2
NMTAP	87	48	2
NMTAP	87	96	4
NMTAP	87	192	1
NMTAP	87	192	7
NMTAP	87	264	3
NMTAP	87	264	5
BRTAP	87	336	2
BRTAP	87	336	6

T_REC_TAP	281
T_REC_BRK	24
T_REC_XTP	12
T_REC_BXX	34
T_REC_HLD	55
T_REC_XHO	0
T_REC_BHO	1
T_REC_BXH	1
T_REC_STR	19
T_REC_BST	0
T_REC_XST	3
T_REC_XBS	0
T_REC_TTP	22
T_REC_THO	0
T_REC_SLD	19
T_REC_BSL	3
T_REC_ALL	474
T_NUM_TAP	337
T_NUM_BRK	63
T_NUM_HLD	55
T_NUM_SLD	19
T_NUM_ALL	474
T_JUDGE_TAP	395
T_JUDGE_HLD	236
T_JUDGE_SLD	22
T_JUDGE_ALL	653
TTM_EACHPAIRS	111
TTM_SCR_TAP	168500
TTM_SCR_BRK	163800
TTM_SCR_HLD	55000
TTM_SCR_SLD	28500
TTM_SCR_ALL	415800
TTM_SCR_S	397250
TTM_SCR_SS	409500
TTM_RAT_ACV	10153

