VERSION	0.00.00	1.04.00
FES_MODE	0
BPM_DEF	174.000	174.000	174.000	174.000
MET_DEF	4	4
RESOLUTION	384
CLK_DEF	384
COMPATIBLE_CODE	MA2

BPM	0	0	174.000
MET	0	0	4	4

NMSTR	2	0	7
NMSI_	2	0	7	96	288	3
NMSTR	3	0	0
NMSI_	3	0	0	96	288	4
NMSTR	4	0	5
NMSI_	4	0	5	96	288	3
CNSCL	5	0	3	0	288	6
NMTAP	6	0	3
NMTAP	6	96	3
NMTAP	6	192	3
NMTAP	6	288	3
NMTAP	7	0	5
NMTAP	7	96	5
NMTAP	7	192	5
NMTAP	7	288	5
NMTAP	8	0	0
NMTAP	8	48	0
NMTAP	8	96	7
NMTAP	8	144	7
NMTAP	8	192	1
NMTAP	8	240	1
NMTAP	8	288	6
NMTAP	8	336	6
NMTAP	9	0	0
NMTAP	9	24	7
NMTAP	9	48	0
NMTAP	9	72	7
NMTAP	9	96	1
NMTAP	9	120	6
NMTAP	9	144	1
NMTAP	9	168	6
NMTAP	9	192	2
NMTAP	9	216	5
NMTAP	9	240	2
NMTAP	9	264	5
NMSTR	9	288	3
NMSUR	9	288	3	96	384	4
NMTAP	9	312	4
NMTAP	9	336	3
NMTAP	9	360	4
BRTAP	10	0	3
CNSCR	11	0	4	0	384	3
EXTAP	13	288	2
EXTAP	13	288	4
NMTAP	14	0	3
NMTAP	14	48	3
NMTAP	14	96	3
NMTAP	14	144	3
NMTAP	14	192	3
NMTAP	14	240	3
NMTAP	14	288	3
NMTAP	14	336	3
NMTAP	15	0	2
NMTAP	15	0	4
NMTAP	15	48	2
NMTAP	15	48	4
NMTAP	15	96	2
NMTAP	15	96	4
NMTAP	15	144	2
NMTAP	15	144	4
NMTAP	15	192	1
NMTAP	15	192	5
NMTAP	15	240	1
NMTAP	15	240	5
NMTAP	15	288	1
NMTAP	15	288	5
NMTAP	15	336	1
NMTAP	15	336	5
EXSTR	16	0	0
BRSI_	16	0	0	96	48	3
EXSTR	16	0	6
BRSI_	16	0	6	96	48	3
EXTAP	16	96	0
EXTAP	16	96	6
EXSTR	16	192	7
BRSCL	16	192	7	96	48	3
EXTAP	16	288	7
EXTAP	17	0	1
EXTAP	17	48	2
EXTAP	17	48	6
EXSTR	17	96	1
NMSI_	17	96	1	96	48	5
EXTAP	17	192	1
BXHLD	17	288	7	576
NMSTR	19	192	7
NMSI_	19	192	7	96	48	3
NMTAP	19	288	7
NMHLD	20	0	1	72
NMHLD	20	72	2	72
NMTAP	20	144	3
NMTAP	20	240	2
NMTAP	20	240	4
NMTAP	20	336	3
NMTAP	20	336	5
NMTAP	21	48	2
NMTAP	21	48	4
NMTAP	21	96	2
NMTAP	21	96	4
NMSTR	21	144	3
NMSI_	21	144	3	96	48	6
NMSTR	21	192	3
NMSI_	21	192	3	96	48	0
NMHLD	22	0	6	72
NMHLD	22	72	5	72
NMTAP	22	144	4
NMTAP	22	240	3
NMTAP	22	240	6
NMTAP	22	336	1
NMTAP	22	336	4
NMTAP	23	48	2
NMTAP	23	48	5
NMTAP	23	96	2
NMTAP	23	96	5
NMSTR	23	144	1
NMSCR	23	144	1	96	48	4
NMTAP	23	192	4
NMSTR	23	240	5
NMSCR	23	240	5	96	48	0
NMTAP	23	336	2
NMHLD	24	0	1	72
NMHLD	24	72	2	72
NMTAP	24	144	3
NMTAP	24	240	2
NMTAP	24	240	4
NMTAP	24	336	0
NMTAP	24	336	7
NMTAP	25	48	3
NMTAP	25	48	5
NMTAP	25	96	3
NMHLD	25	96	5	96
NMTTP	25	192	0	A	0	M1
NMTTP	25	216	7	A	0	M1
NMTTP	25	240	6	A	0	M1
NMTTP	25	264	5	A	0	M1
NMTTP	25	288	4	A	0	M1
NMTTP	25	312	3	A	0	M1
NMTTP	25	336	2	A	0	M1
NMTTP	25	360	1	A	0	M1
NMHLD	26	0	6	72
NMHLD	26	72	5	72
NMTAP	26	144	4
NMTAP	26	240	6
NMTAP	26	240	7
NMTAP	26	336	0
NMTAP	26	336	1
NMTAP	27	48	2
NMTAP	27	48	5
NMTAP	27	96	2
NMTAP	27	96	5
NMSTR	27	144	6
NMSCL	27	144	6	96	48	3
NMTAP	27	192	3
NMSTR	27	240	2
NMSCL	27	240	2	96	48	7
NMTAP	27	336	5
NMHLD	28	0	6	72
NMHLD	28	72	5	72
NMTAP	28	144	4
NMTAP	28	240	2
NMTAP	28	240	3
NMTAP	28	336	0
NMTAP	28	336	1
NMTAP	29	48	3
NMTAP	29	48	5
NMTAP	29	96	3
NMTAP	29	96	5
NMSTR	29	144	4
NMSV_	29	144	4	96	48	1
NMSTR	29	192	4
NMSV_	29	192	4	96	48	7
NMHLD	30	0	1	72
NMHLD	30	72	2	72
NMTAP	30	144	3
NMTAP	30	240	0
NMTAP	30	240	1
NMTAP	30	336	6
NMTAP	30	336	7
NMTAP	31	48	2
NMTAP	31	48	5
NMTAP	31	96	2
NMTAP	31	96	5
NMSTR	31	144	1
NMSCR	31	144	1	96	48	4
NMTAP	31	192	4
NMSTR	31	240	5
NMSCR	31	240	5	96	48	0
NMTAP	31	336	2
NMHLD	32	0	1	72
NMHLD	32	72	2	72
NMTAP	32	144	3
NMSTR	32	240	1
NMSI_	32	240	1	96	48	4
NMTAP	32	240	4
NMSTR	32	336	5
NMSI_	32	336	5	96	48	0
NMTAP	33	48	2
NMHLD	33	96	2	72
NMTTP	33	192	7	D	0	M1
NMTTP	33	216	6	D	0	M1
NMTTP	33	240	5	D	0	M1
NMTTP	33	264	4	D	0	M1
NMTTP	33	288	3	D	0	M1
NMTTP	33	312	2	D	0	M1
NMTTP	33	336	1	D	0	M1
NMTTP	33	360	0	D	0	M1
NMTAP	34	0	2
NMTAP	34	48	2
NMTAP	34	96	1
NMTAP	34	96	3
NMTAP	34	192	0
NMTAP	34	192	7
NMTAP	34	264	4
NMTAP	34	264	6
NMTAP	34	336	2
NMTAP	34	360	3
NMTAP	35	0	1
NMTAP	35	48	0
NMSTR	35	96	2
NMSI_	35	96	2	96	24	4
NMHLD	35	96	7	192
CNSI_	35	216	4	0	24	7
CNSV_	35	240	7	0	96	1
NMTAP	36	0	5
NMTAP	36	48	5
NMTAP	36	96	4
NMTAP	36	96	6
NMTAP	36	192	0
NMTAP	36	192	7
NMTAP	36	264	1
NMTAP	36	264	3
NMTAP	36	336	5
NMTAP	36	360	4
NMTAP	37	0	6
NMTAP	37	48	7
NMTAP	37	96	0
NMSTR	37	144	1
NMSCR	37	144	1	96	48	4
NMTAP	37	144	5
NMTAP	37	192	1
NMHLD	37	192	5	96
CNSV_	37	288	4	0	48	7
NMTAP	38	0	6
NMTAP	38	48	6
NMTAP	38	96	4
NMTAP	38	96	5
NMTAP	38	192	0
NMTAP	38	192	7
NMTAP	38	264	1
NMTAP	38	264	3
NMTAP	38	336	5
NMTAP	38	360	4
NMTAP	39	0	6
NMTAP	39	48	7
NMTAP	39	96	0
NMTAP	39	144	1
NMSTR	39	144	5
NMSI_	39	144	5	96	48	7
NMHLD	39	192	1	96
NMTAP	39	192	5
CNSCR	39	288	7	0	24	0
CNSI_	39	312	0	0	24	4
NMTAP	40	0	2
NMTAP	40	48	2
NMTAP	40	96	1
NMTAP	40	96	3
NMTAP	40	168	0
NMTAP	40	168	7
NMTAP	40	216	6
NMTAP	40	240	4
NMTAP	40	288	3
NMTAP	40	288	4
NMTAP	40	336	2
NMTAP	40	360	3
NMTAP	41	24	3
NMTAP	41	48	2
NMTAP	41	96	2
NMTAP	41	96	4
EXSTR	41	144	1
NMSCR	41	144	1	96	48	4
EXTAP	41	144	5
EXTAP	41	192	1
EXHLD	41	192	5	96
CNSV_	41	288	4	0	48	7
NMHLD	42	0	6	72
NMHLD	42	72	5	72
NMSTR	42	144	4
NMSI_	42	144	4	96	48	1
NMSI_	42	144	4	96	48	7
NMSTR	42	336	0
NMSI_	42	336	0	96	48	3
NMSI_	42	336	0	96	48	5
NMSTR	43	144	2
NMSI_	43	144	2	96	48	7
NMTAP	43	144	6
NMSTR	43	240	6
NMSI_	43	240	6	96	48	3
NMHLD	44	0	1	72
NMHLD	44	72	2	72
NMSTR	44	144	3
NMSV_	44	144	3	96	48	0
NMSV_	44	144	3	96	48	6
NMSTR	44	336	7
NMSV_	44	336	7	96	48	2
NMSV_	44	336	7	96	48	4
NMTAP	45	144	1
NMSTR	45	144	5
NMSI_	45	144	5	96	48	0
NMSTR	45	192	1
NMSI_	45	192	1	96	48	4
NMTAP	45	192	5
NMHLD	46	0	6	72
NMHLD	46	72	5	72
NMSTR	46	144	4
NMSI_	46	144	4	96	48	7
NMSCL	46	144	4	96	48	1
NMSTR	46	336	0
NMSI_	46	336	0	96	48	3
NMSCL	46	336	0	96	48	5
NMTAP	47	144	2
NMTAP	47	144	6
NMTAP	47	192	2
NMHLD	47	192	6	96
NMSTR	47	288	4
NMSCR	47	288	4	96	192	3
NMSTR	48	288	1
NMSXL	48	288	1	96	192	4
NMSTR	48	288	5
NMSXL	48	288	5	96	192	0
NMTTP	49	288	4	E	0	M1
NMHLD	50	0	2	1536
NMTTP	50	96	3	E	0	M1
NMTTP	50	288	2	E	0	M1
NMTTP	51	96	1	E	0	M1
NMTTP	51	288	0	E	0	M1
NMTTP	52	96	7	E	0	M1
NMTTP	52	288	6	E	0	M1
NMTTP	53	96	5	E	0	M1
NMTTP	53	288	4	E	0	M1
NMHLD	54	0	5	1536
NMTTP	54	96	5	E	0	M1
NMTTP	54	288	6	E	0	M1
NMTTP	55	96	7	E	0	M1
NMTTP	55	288	0	E	0	M1
NMTTP	56	96	1	E	0	M1
NMTTP	56	288	2	E	0	M1
NMTTP	57	96	3	E	0	M1
NMTTP	57	288	4	E	0	M1
NMTAP	58	0	3
NMTAP	58	96	3
NMTAP	58	192	3
NMTAP	58	288	3
NMTAP	59	0	4
NMTAP	59	96	4
NMTAP	59	192	4
NMTAP	59	288	4
NMTAP	60	0	3
NMTAP	60	0	5
NMTAP	60	96	3
NMTAP	60	96	5
NMTAP	60	192	3
NMTAP	60	192	5
NMTAP	60	288	3
NMTAP	60	288	5
NMTAP	61	0	2
NMTAP	61	0	6
NMTAP	61	96	2
NMTAP	61	96	6
NMTAP	61	192	2
NMTAP	61	192	6
NMTAP	61	288	2
NMTAP	61	288	6
NMTAP	62	0	1
NMTAP	62	48	1
NMTAP	62	96	3
NMTAP	62	144	3
NMTAP	62	192	2
NMTAP	62	240	2
NMTAP	62	288	5
NMTAP	62	336	5
NMTAP	63	0	4
NMTAP	63	48	4
NMTAP	63	96	6
NMTAP	63	144	6
NMTAP	63	192	1
NMTAP	63	240	1
NMTAP	63	288	4
NMTAP	63	336	4
NMTAP	64	0	2
NMTAP	64	24	3
NMTAP	64	48	2
NMTAP	64	72	3
NMTAP	64	96	1
NMTAP	64	120	4
NMTAP	64	144	1
NMTAP	64	168	4
NMTAP	64	192	0
NMTAP	64	216	5
NMTAP	64	240	0
NMTAP	64	264	5
NMTAP	64	288	7
NMTAP	64	312	6
NMTAP	64	336	7
NMTAP	64	360	6
NMSTR	65	0	7
NMSI_	65	0	7	96	48	3
NMTAP	65	96	7
NMSTR	65	192	1
NMSCR	65	192	1	96	48	4
NMSTR	65	192	5
NMSCR	65	192	5	96	48	0
NMTAP	65	240	0
NMTAP	65	240	4
BXSTR	66	0	7
NMSUL	66	0	7	96	48	3
NMTAP	66	96	3
NMTAP	66	96	7
NMTAP	66	144	2
NMSTR	66	192	1
NMSI_	66	192	1	96	48	5
NMTAP	66	288	1
NMTAP	66	288	3
NMSTR	66	336	4
NMSCL	66	336	4	96	96	0
NMSTR	67	48	0
NMSCL	67	48	0	96	96	4
NMTAP	67	144	4
NMTAP	67	240	0
NMSTR	67	288	0
NMSI_	67	288	0	96	48	4
NMSTR	68	0	0
NMSI_	68	0	0	96	48	2
NMSI_	68	0	0	96	48	6
NMSTR	68	96	0
NMSXL	68	96	0	96	144	4
NMTAP	68	192	0
NMTAP	68	288	6
NMHLD	68	336	6	96
NMTAP	69	48	2
NMSTR	69	96	1
NMSI_	69	96	1	96	48	4
NMTAP	69	144	5
NMSTR	69	192	6
NMSI_	69	192	6	96	48	3
CNSI_	69	240	4	0	48	6
NMTAP	69	288	7
CNSI_	69	336	3	0	48	1
NMSTR	70	0	7
NMSCL	70	0	7	96	48	4
NMSTR	70	96	2
NMSCL	70	96	2	96	48	7
NMSTR	70	192	5
NMSCL	70	192	5	96	48	2
NMTAP	70	288	0
NMHLD	70	336	0	96
NMSTR	71	48	3
NMSI_	71	48	3	96	48	0
NMSI_	71	48	3	96	48	6
NMTAP	71	144	3
NMTAP	71	240	1
NMTAP	71	240	5
NMSTR	71	288	1
NMSI_	71	288	1	96	48	6
NMTAP	71	288	5
NMTAP	72	0	1
NMSTR	72	0	4
NMSI_	72	0	4	96	48	7
NMSTR	72	96	3
NMSI_	72	96	3	96	48	0
NMTAP	72	96	4
NMTAP	72	192	3
NMSTR	72	192	6
NMSXL	72	192	6	96	144	1
NMTAP	72	288	2
NMTAP	72	336	2
NMTAP	73	48	4
NMTAP	73	144	3
NMTAP	73	144	5
NMTAP	73	192	2
NMTAP	73	192	6
BRTAP	73	240	1
BRTAP	73	240	7
BRTAP	73	288	1
BRTAP	73	288	7
NMSTR	74	0	0
NMSUR	74	0	0	96	48	4
NMTAP	74	96	0
NMTAP	74	96	4
NMTAP	74	144	5
NMSTR	74	192	6
NMSCL	74	192	6	96	48	3
NMTAP	74	288	2
NMTAP	74	288	6
NMSTR	74	336	1
NMSI_	74	336	1	96	48	5
NMTAP	75	48	1
NMSTR	75	48	7
NMSI_	75	48	7	96	48	3
NMHLD	75	144	0	96
NMTAP	75	144	7
EXTAP	75	240	3
EXSTR	75	288	3
NMSCL	75	288	3	96	48	0
NMSCR	75	288	3	96	48	6
EXSTR	76	96	4
NMSCL	76	96	4	96	48	1
NMSCR	76	96	4	96	48	7
NMTAP	76	288	3
NMTAP	76	336	3
NMTAP	77	48	1
NMTAP	77	48	5
NMTAP	77	96	1
NMTAP	77	96	5
NMTAP	77	192	0
NMTAP	77	192	6
NMSTR	77	288	5
NMSI_	77	288	5	96	48	0
NMHLD	77	336	5	144
NMSTR	78	96	2
NMSI_	78	96	2	96	48	7
NMHLD	78	144	2	144
NMSTR	78	288	5
NMSI_	78	288	5	96	48	1
NMHLD	78	336	5	144
NMSTR	79	96	2
NMSI_	79	96	2	96	48	6
NMHLD	79	144	2	144
NMSTR	79	288	7
NMSCR	79	288	7	96	96	3
NMSTR	80	0	3
NMSCR	80	0	3	96	96	7
NMSTR	80	96	7
NMSLR	80	96	7	96	96	3
NMSTR	80	192	3
NMSLR	80	192	3	96	96	7
NMSTR	80	288	7
NMSLR	80	288	7	96	96	3
NMTAP	81	0	3
NMTAP	81	96	7
NMSTR	81	192	0
NMSI_	81	192	0	96	48	4
NMSTR	81	192	6
NMSI_	81	192	6	96	48	2
BRSTR	81	288	0
NMSCR	81	288	0	96	288	7
BRTAP	81	288	6
BRHLD	82	0	7	672
CNSUR	82	288	7	0	288	1
NMTAP	84	0	2
NMTAP	84	48	2
NMTAP	84	96	5
NMTAP	84	120	4
NMTAP	84	144	5
NMTAP	84	168	4
NMTAP	84	192	6
NMTAP	84	240	7
NMTAP	84	288	0
NMHLD	84	336	1	96
NMTAP	85	48	4
NMTAP	85	96	2
NMTAP	85	120	3
NMTAP	85	144	2
NMTAP	85	168	3
NMTAP	85	192	1
NMTAP	85	240	0
NMTAP	85	288	6
NMTAP	85	288	7
NMTAP	86	0	5
NMTAP	86	48	5
NMTAP	86	96	2
NMTAP	86	120	3
NMTAP	86	144	2
NMTAP	86	168	3
NMTAP	86	192	1
NMTAP	86	240	0
NMTAP	86	288	7
NMHLD	86	336	6	96
NMTAP	87	48	3
NMTAP	87	96	5
NMTAP	87	120	4
NMTAP	87	144	5
NMTAP	87	168	4
NMTAP	87	192	6
NMTAP	87	240	7
NMTAP	87	288	0
NMTAP	87	288	1
NMHLD	88	0	1	96
NMTAP	88	48	3
NMHLD	88	96	6	96
NMTAP	88	144	4
NMHLD	88	192	2	96
NMTAP	88	240	3
NMHLD	88	288	5	48
NMTAP	88	336	3
NMTAP	89	0	2
NMTAP	89	48	2
NMTAP	89	72	3
NMTAP	89	96	1
NMTAP	89	144	5
NMTAP	89	168	4
NMTAP	89	192	6
NMTAP	89	240	2
NMTAP	89	264	3
NMTAP	89	288	0
NMHLD	89	336	0	576
EXTAP	91	240	6
EXTAP	91	240	7
EXSTR	91	288	5
BRSI_	91	288	5	96	48	2
EXSTR	91	288	6
BRSI_	91	288	6	96	48	1
NMTTP	92	0	5	A	0	M1
NMTTP	92	0	6	E	1	M1
NMTTP	92	0	6	A	0	M1
NMTTP	92	0	6	D	0	M1
EXTAP	92	96	0
EXTAP	92	144	7
NMSTR	92	192	6
NMSI_	92	192	6	96	48	2
NMTAP	92	288	4
NMTAP	92	288	6
NMSTR	92	336	3
NMSCR	92	336	3	96	96	7
NMSTR	93	48	7
NMSCR	93	48	7	96	96	3
NMTAP	93	144	3
NMTAP	93	240	7
NMSTR	93	288	7
NMSI_	93	288	7	96	48	1
NMSI_	93	288	7	96	48	5
NMSTR	94	0	7
NMSI_	94	0	7	96	48	3
NMSTR	94	96	7
NMSCL	94	96	7	96	48	3
NMSCR	94	96	7	96	48	3
EXTAP	94	288	1
EXHLD	94	336	1	96
NMTAP	95	48	5
NMSTR	95	96	6
NMSI_	95	96	6	96	48	3
NMTAP	95	144	2
NMSTR	95	192	1
NMSI_	95	192	1	96	48	4
CNSI_	95	240	3	0	48	1
NMTAP	95	288	0
CNSI_	95	336	4	0	48	6
NMSTR	96	0	0
NMSSL	96	0	0	96	96	4
NMSTR	96	96	4
NMSSL	96	96	4	96	96	0
NMTAP	96	192	6
EXTAP	96	288	7
EXHLD	96	336	7	96
NMSTR	97	48	0
BRSF_	97	48	0	96	48	4
NMTAP	97	240	2
NMTAP	97	240	6
NMTAP	97	288	2
NMSTR	97	288	6
NMSI_	97	288	6	96	48	1
NMSTR	98	0	3
NMSI_	98	0	3	96	48	0
NMTAP	98	0	6
NMTAP	98	96	3
NMSTR	98	96	4
NMSI_	98	96	4	96	48	7
NMSTR	98	192	2
NMSXL	98	192	2	96	144	5
NMTAP	98	192	4
NMTAP	98	288	6
NMTAP	98	336	6
NMTAP	99	48	7
NMSTR	99	96	7
BRSSR	99	96	7	96	96	3
BXTAP	99	192	4
BXTAP	99	240	2
BXTAP	99	288	0
NMSTR	100	0	7
NMSUL	100	0	7	96	48	3
NMTAP	100	96	3
NMTAP	100	96	7
NMTAP	100	144	2
NMSTR	100	192	1
NMSCR	100	192	1	96	48	4
NMTAP	100	288	1
NMTAP	100	288	4
NMSTR	100	336	5
NMSI_	100	336	5	96	48	1
NMSTR	101	48	0
NMSI_	101	48	0	96	48	4
NMTAP	101	48	5
NMTAP	101	144	0
NMTAP	101	144	6
NMTAP	101	240	7
NMSTR	101	288	7
NMSSR	101	288	7	96	96	3
NMSTR	102	0	3
NMSSR	102	0	3	96	96	7
NMTAP	102	96	2
EXSTR	102	192	1
NMSCL	102	192	1	96	48	6
NMTAP	102	288	4
NMTAP	102	336	4
NMTAP	103	48	3
NMTAP	103	48	5
NMTAP	103	96	3
NMTAP	103	96	5
NMTAP	103	192	1
NMTAP	103	192	7
NMSTR	103	288	2
NMSCL	103	288	2	96	48	7
NMHLD	103	336	2	144
NMSTR	104	96	5
NMSCR	104	96	5	96	48	0
NMHLD	104	144	5	144
NMSTR	104	288	2
NMSUL	104	288	2	96	48	6
NMHLD	104	336	2	144
NMSTR	105	96	5
NMSUL	105	96	5	96	48	1
NMHLD	105	144	5	144
NMSTR	105	288	0
NMSCL	105	288	0	96	96	4
NMSTR	106	0	4
NMSCL	106	0	4	96	96	0
NMSTR	106	96	0
NMSLL	106	96	0	96	96	4
NMSTR	106	192	4
NMSLL	106	192	4	96	96	0
NMSTR	106	288	0
NMSLL	106	288	0	96	96	4
NMSTR	107	0	4
NMSLL	107	0	4	96	96	0
NMTAP	107	96	0
NMTAP	107	192	4
NMSTR	107	288	6
BRSI_	107	288	6	96	48	2
NMSTR	107	288	7
BRSI_	107	288	7	96	48	3
BRTAP	108	0	6
BRTAP	108	0	7

T_REC_TAP	372
T_REC_BRK	8
T_REC_XTP	18
T_REC_BXX	3
T_REC_HLD	46
T_REC_XHO	3
T_REC_BHO	1
T_REC_BXH	1
T_REC_STR	101
T_REC_BST	1
T_REC_XST	10
T_REC_XBS	1
T_REC_TTP	37
T_REC_THO	0
T_REC_SLD	116
T_REC_BSL	9
T_REC_ALL	727
T_NUM_TAP	538
T_NUM_BRK	24
T_NUM_HLD	49
T_NUM_SLD	116
T_NUM_ALL	727
T_JUDGE_TAP	551
T_JUDGE_HLD	203
T_JUDGE_SLD	125
T_JUDGE_ALL	879
TTM_EACHPAIRS	112
TTM_SCR_TAP	269000
TTM_SCR_BRK	62400
TTM_SCR_HLD	49000
TTM_SCR_SLD	174000
TTM_SCR_ALL	554400
TTM_SCR_S	535450
TTM_SCR_SS	552000
TTM_RAT_ACV	10043

