VERSION	0.00.00	1.04.00
FES_MODE	0
BPM_DEF	174.000	174.000	174.000	174.000
MET_DEF	4	4
RESOLUTION	384
CLK_DEF	384
COMPATIBLE_CODE	MA2

BPM	0	0	174.000
MET	0	0	4	4

EXSTR	2	0	2
NMSCR	2	0	2	96	288	5
EXSTR	3	0	6
NMSUL	3	0	6	96	288	2
BXHLD	4	0	0	384
NMTTP	5	0	0	C	0	M1
NMTTP	5	0	3	B	0	M1
NMTTP	5	0	4	B	0	M1
NMHLD	6	0	5	192
NMHLD	6	192	4	192
NMHLD	7	0	3	192
NMHLD	7	192	2	192
NMTAP	8	0	3
NMTAP	8	96	3
NMTAP	8	192	2
NMTAP	8	192	4
NMTAP	8	288	1
NMTAP	8	288	5
NMTAP	9	0	6
NMTAP	9	96	6
NMTAP	9	96	7
NMTAP	9	192	1
NMTAP	9	288	0
NMSTR	9	288	1
BRSCR	9	288	1	96	576	6
NMHLD	12	0	4	288
NMHLD	12	0	5	288
NMTAP	13	0	3
NMTAP	13	96	3
NMTAP	13	192	3
NMTAP	13	192	4
BXTAP	13	288	2
NMTAP	14	0	1
NMTAP	14	0	3
NMTAP	14	96	2
NMTAP	14	192	4
NMTAP	14	288	5
NMTAP	15	0	4
NMTAP	15	0	6
NMTAP	15	96	5
NMHLD	15	192	2	96
NMHLD	15	192	4	96
NMTAP	16	0	1
NMTAP	16	96	0
NMTAP	16	96	1
NMTAP	16	192	6
NMTAP	16	288	6
NMTAP	16	288	7
NMTAP	17	0	0
NMTAP	17	0	5
NMTAP	17	96	1
NMTAP	17	96	4
NMTAP	17	192	2
NMTAP	17	192	3
BRTAP	17	288	0
NMTAP	18	0	1
EXHLD	18	0	7	576
NMTAP	19	0	2
NMTAP	19	96	2
NMSTR	19	192	2
NMSI_	19	192	2	96	48	4
NMTAP	20	0	5
NMTAP	20	96	4
NMTAP	20	96	6
NMTAP	20	192	0
NMTAP	20	192	7
NMTAP	20	288	1
NMTAP	20	288	4
NMTAP	21	0	2
NMTAP	21	96	2
NMTAP	21	96	3
NMTAP	21	192	5
NMTAP	21	240	5
NMTAP	21	288	4
NMTAP	22	0	2
NMTAP	22	96	1
NMTAP	22	96	3
NMTAP	22	192	0
NMTAP	22	192	7
NMTAP	22	288	3
NMTAP	22	288	6
NMTAP	23	0	5
NMTAP	23	96	4
NMTAP	23	96	5
EXTAP	23	192	2
EXTAP	23	192	6
NMTAP	24	0	1
NMTAP	24	0	5
NMTAP	24	96	2
NMTAP	24	96	4
NMTAP	24	192	5
NMTAP	24	288	3
NMTAP	25	0	4
NMTAP	25	0	5
NMTAP	25	96	3
NMTAP	25	96	4
NMTAP	25	192	2
NMTAP	25	192	5
NMHLD	26	0	2	288
NMTAP	26	96	3
NMTAP	26	192	1
NMTAP	26	288	3
NMHLD	27	0	5	288
NMTAP	27	96	4
NMTAP	27	192	6
NMTAP	27	288	4
NMTAP	28	0	2
NMTAP	28	0	3
NMTAP	28	96	2
NMTAP	28	96	3
NMTAP	28	192	0
NMTAP	28	192	1
NMTAP	28	288	0
NMTAP	28	288	1
NMTAP	29	0	0
NMTAP	29	0	7
NMTAP	29	96	6
NMTAP	29	96	7
NMTAP	29	192	0
NMTAP	29	240	0
NMTAP	29	288	7
NMHLD	30	0	1	288
NMTAP	30	96	0
NMTAP	30	192	2
NMTAP	30	288	0
NMHLD	31	0	6	288
NMTAP	31	96	7
NMTAP	31	192	5
NMTAP	31	288	7
NMHLD	32	0	0	384
NMHLD	32	0	5	384
EXTAP	33	192	0
EXTAP	33	192	5
NMSTR	34	0	6
NMSCL	34	0	6	96	96	3
NMTAP	34	192	2
NMTAP	34	288	2
NMSTR	35	0	1
NMSCR	35	0	1	96	96	4
NMTAP	35	192	5
NMTAP	35	288	6
NMSTR	36	0	7
NMSCL	36	0	7	96	96	4
NMSTR	36	192	3
NMSCL	36	192	3	96	96	0
NMTAP	37	0	6
NMTAP	37	96	6
NMTAP	37	96	7
NMTAP	37	192	1
NMTAP	37	240	1
NMTAP	37	288	0
NMSTR	38	0	1
NMSCR	38	0	1	96	96	4
NMTAP	38	0	7
NMTAP	38	192	5
NMTAP	38	288	5
NMSTR	39	0	6
NMSCL	39	0	6	96	96	3
NMTAP	39	192	2
NMTAP	39	288	1
NMSTR	40	0	0
NMSCR	40	0	0	96	96	3
NMSTR	40	192	4
NMSCR	40	192	4	96	96	7
NMTTP	41	0	3	E	0	M1
NMTTP	41	96	2	E	0	M1
NMTTP	41	192	0	E	0	M1
NMTTP	41	192	1	E	0	M1
NMTAP	42	0	5
NMTAP	42	96	4
NMTAP	42	96	6
NMTAP	42	192	2
NMHLD	42	288	1	96
NMTAP	42	288	3
NMHLD	43	0	2	96
NMHLD	43	96	3	96
NMTAP	43	192	4
NMTAP	43	288	4
NMTAP	43	288	5
NMTAP	44	0	2
NMTAP	44	96	1
NMTAP	44	96	3
NMTAP	44	192	5
NMTAP	44	288	4
NMTAP	44	288	6
NMTAP	45	0	3
NMTAP	45	0	5
NMTAP	45	96	2
NMTAP	45	96	4
NMTAP	45	192	1
NMTAP	45	240	1
NMTAP	45	288	0
NMHLD	46	0	2	96
NMHLD	46	96	4	96
NMHLD	46	192	6	96
NMTAP	46	288	7
NMHLD	47	0	7	96
NMHLD	47	96	5	96
NMHLD	47	192	3	96
NMTAP	47	288	2
NMSTR	48	0	1
NMSCR	48	0	1	96	144	4
NMHLD	48	0	5	768
NMTHO	49	0	0	384	C	1	M1
NMSTR	52	0	7
NMSXR	52	0	7	96	576	3
NMSTR	54	0	1
NMSUR	54	0	1	96	480	4
NMSTR	56	0	6
NMSUL	56	0	6	96	480	3
NMTAP	58	0	2
NMTAP	58	96	3
NMTAP	58	192	5
NMTAP	58	288	4
NMTAP	58	288	6
NMTAP	59	0	2
NMTAP	59	96	3
NMTAP	59	192	5
NMTAP	59	288	4
NMTAP	59	288	6
NMTAP	60	0	2
NMTAP	60	96	3
NMTAP	60	192	5
NMTAP	60	288	4
NMTAP	60	288	6
NMTAP	61	0	2
NMTAP	61	96	3
NMTAP	61	192	5
NMTAP	61	288	4
NMTAP	61	288	6
NMTAP	62	0	3
NMTAP	62	0	5
NMTAP	62	96	2
NMTAP	62	96	4
NMTAP	62	192	1
NMTAP	62	192	3
NMTAP	62	288	1
NMTAP	62	288	3
NMTAP	63	0	0
NMTAP	63	0	4
NMTAP	63	96	1
NMTAP	63	96	5
NMTAP	63	192	2
NMTAP	63	192	6
NMTAP	63	288	3
NMSTR	63	288	7
NMSCL	63	288	7	96	288	1
EXTAP	65	0	0
EXTAP	65	96	0
EXTAP	65	192	1
EXTAP	65	192	7
BXTAP	65	288	1
BXTAP	65	288	7
NMTAP	66	0	3
NMTAP	66	0	4
NMTAP	66	96	6
NMTAP	66	144	6
NMTAP	66	192	7
NMTAP	66	288	0
NMTAP	66	288	5
NMTAP	66	336	0
NMTAP	66	336	5
NMTAP	67	48	2
NMTAP	67	48	3
NMTAP	67	144	0
NMTAP	67	144	1
NMTAP	67	240	2
NMTAP	67	240	6
NMTAP	67	288	2
NMHLD	67	288	6	96
NMHLD	68	0	4	96
NMHLD	68	96	3	96
NMTAP	68	192	2
NMTAP	68	288	1
NMTAP	68	336	0
NMTAP	68	336	1
NMTAP	69	48	6
NMTAP	69	96	6
NMTAP	69	96	7
BRTAP	69	192	1
BRTAP	69	192	5
BRTAP	69	288	1
BRTAP	69	288	5
NMTAP	70	0	2
NMTAP	70	0	4
NMTAP	70	96	0
NMTAP	70	96	1
NMTAP	70	192	6
NMTAP	70	192	7
NMTAP	70	288	5
NMHLD	70	336	5	96
NMTAP	71	48	3
NMTAP	71	144	1
NMTAP	71	144	7
NMTAP	71	240	2
NMHLD	71	288	2	96
BRTAP	72	0	3
BRTAP	72	96	5
BRTAP	72	96	6
EXTAP	72	192	0
EXTAP	72	192	1
NMTAP	72	288	2
NMTAP	72	288	7
NMTAP	72	336	2
NMTAP	72	336	7
NMTAP	73	48	0
NMTAP	73	48	4
NMTAP	73	144	5
NMTAP	73	192	5
EXTAP	73	240	6
EXTAP	73	240	7
EXTAP	73	288	6
EXTAP	73	288	7
BRTAP	74	0	2
BRTAP	74	0	5
NMTAP	74	96	1
NMTAP	74	144	1
NMTAP	74	192	0
NMTAP	74	288	2
NMTAP	74	288	7
NMTAP	74	336	2
NMTAP	74	336	7
NMTAP	75	48	4
NMTAP	75	48	5
NMTAP	75	144	6
NMTAP	75	144	7
NMTAP	75	240	1
NMTAP	75	240	5
NMHLD	75	288	1	96
NMTAP	75	288	5
NMHLD	76	0	3	96
NMHLD	76	96	4	96
NMTAP	76	192	5
NMTAP	76	288	6
NMTAP	76	336	6
NMTAP	76	336	7
NMTAP	77	48	1
NMTAP	77	96	0
NMTAP	77	96	1
NMTAP	77	192	3
NMTAP	77	192	7
NMTAP	77	288	3
NMTAP	77	288	7
NMHLD	78	0	2	96
NMTAP	78	0	5
NMTAP	78	96	3
NMTAP	78	144	3
NMTAP	78	192	2
NMTAP	78	288	0
NMTAP	78	336	0
NMTAP	79	0	7
NMTAP	79	96	6
NMTAP	79	144	6
NMTAP	79	192	4
NMTAP	79	288	2
NMTAP	79	336	2
NMTAP	80	0	3
NMTAP	80	96	1
NMTAP	80	96	5
EXTAP	80	192	4
NMTAP	80	288	2
NMTAP	80	288	6
BXTAP	81	0	1
BXTAP	81	0	3
BXTAP	81	96	0
BXTAP	81	96	7
BXTAP	81	192	4
BXTAP	81	192	6
BXSTR	81	288	2
NMSXR	81	288	2	96	480	7
BXSTR	81	288	3
NMSXL	81	288	3	96	480	6
NMTTP	84	0	7	E	0	M1
NMTTP	84	96	6	E	0	M1
NMTTP	84	192	5	E	0	M1
NMTTP	84	288	4	E	0	M1
NMTTP	85	0	2	B	0	M1
NMTTP	85	0	3	E	0	M1
NMTTP	85	96	0	C	0	M1
NMTTP	85	192	6	B	0	M1
NMTTP	85	192	7	E	0	M1
NMTTP	86	0	1	E	0	M1
NMTTP	86	96	2	E	0	M1
NMTTP	86	192	3	E	0	M1
NMTTP	86	288	4	E	0	M1
NMTTP	87	0	5	B	0	M1
NMTTP	87	0	5	E	0	M1
NMTTP	87	96	0	C	0	M1
NMTTP	87	192	1	B	0	M1
NMTTP	87	192	1	E	0	M1
NMHLD	88	0	7	96
NMHLD	88	96	6	96
NMHLD	88	192	5	96
NMHLD	88	288	4	96
NMHLD	89	0	3	96
NMHLD	89	96	2	96
NMHLD	89	192	1	96
NMHLD	89	288	0	96
NMTHO	90	0	0	336	C	0	M1
BXTAP	91	240	0
BXTAP	91	240	7
BXTAP	91	288	0
BXTAP	91	288	7
NMTAP	92	0	1
NMTAP	92	0	3
NMTAP	92	96	6
NMTAP	92	144	6
NMTAP	92	192	4
NMTAP	92	288	0
NMTAP	92	288	5
NMTAP	92	336	0
NMTAP	92	336	5
NMTAP	93	48	2
NMTAP	93	48	7
NMTAP	93	144	4
NMTAP	93	144	5
NMTAP	93	240	2
NMTAP	93	240	7
NMHLD	93	288	2	96
NMTAP	93	288	7
NMHLD	94	0	0	96
NMHLD	94	96	7	96
NMTAP	94	192	5
NMTAP	94	288	6
NMTAP	94	336	4
NMTAP	94	336	6
NMTAP	95	48	1
NMTAP	95	96	1
NMTAP	95	96	3
BRTAP	95	192	6
BRTAP	95	192	7
BRTAP	95	288	6
BRTAP	95	288	7
NMTAP	96	0	0
NMTAP	96	0	1
NMTAP	96	96	2
NMTAP	96	96	3
NMTAP	96	192	4
NMTAP	96	192	5
NMTAP	96	288	7
NMHLD	96	336	7	96
NMTAP	97	48	4
NMTAP	97	144	3
NMTAP	97	144	5
NMTAP	97	240	1
NMHLD	97	288	1	96
BRTAP	98	0	3
BRTAP	98	96	5
BRTAP	98	96	6
BRTAP	98	192	0
BRTAP	98	192	1
NMTAP	98	288	2
NMTAP	98	288	7
NMTAP	98	336	2
NMTAP	98	336	7
NMTAP	99	48	0
NMTAP	99	48	5
NMTAP	99	144	6
NMTAP	99	192	6
EXTAP	99	240	1
EXTAP	99	240	7
EXTAP	99	288	1
EXTAP	99	288	7
BRTAP	100	0	3
BRTAP	100	0	4
NMTAP	100	96	1
NMTAP	100	144	1
NMTAP	100	192	0
NMTAP	100	288	3
NMTAP	100	288	6
NMTAP	100	336	3
NMTAP	100	336	6
NMTAP	101	48	1
NMTAP	101	48	4
NMTAP	101	144	3
NMTAP	101	144	7
NMTAP	101	240	2
NMTAP	101	240	6
NMHLD	101	288	2	96
NMTAP	101	288	6
NMHLD	102	0	0	96
NMHLD	102	96	6	96
NMTAP	102	192	4
NMTAP	102	288	3
NMTAP	102	288	5
NMTAP	102	336	3
NMTAP	102	336	5
NMTAP	103	48	1
NMTAP	103	48	4
NMTAP	103	96	1
NMTAP	103	96	4
BRTAP	103	192	6
BRTAP	103	192	7
BRTAP	103	288	6
BRTAP	103	288	7
NMTAP	104	0	0
NMTAP	104	0	5
NMTAP	104	96	2
NMTAP	104	144	2
NMTAP	104	192	3
NMTAP	104	288	6
NMTAP	104	336	6
NMTAP	105	0	4
NMTAP	105	96	1
NMTAP	105	144	1
NMTAP	105	192	0
NMTAP	105	288	0
NMTAP	105	288	1
BRTAP	106	0	2
BRTAP	106	0	7
BRTAP	106	96	0
BRTAP	106	96	6
BRTAP	106	192	1
BRTAP	106	192	7
BRTAP	106	288	0
BRTAP	106	288	5
BRTAP	107	0	1
BRTAP	107	0	3
BRTAP	107	96	5
BRTAP	107	96	6
BRTAP	107	192	0
BRTAP	107	192	1
BRSTR	107	288	2
BRSI_	107	288	2	96	48	7
BRSTR	107	288	3
BRSI_	107	288	3	96	48	6

T_REC_TAP	335
T_REC_BRK	39
T_REC_XTP	19
T_REC_BXX	13
T_REC_HLD	49
T_REC_XHO	1
T_REC_BHO	0
T_REC_BXH	1
T_REC_STR	15
T_REC_BST	2
T_REC_XST	2
T_REC_XBS	2
T_REC_TTP	25
T_REC_THO	2
T_REC_SLD	18
T_REC_BSL	3
T_REC_ALL	526
T_NUM_TAP	396
T_NUM_BRK	60
T_NUM_HLD	52
T_NUM_SLD	18
T_NUM_ALL	526
T_JUDGE_TAP	452
T_JUDGE_HLD	191
T_JUDGE_SLD	21
T_JUDGE_ALL	664
TTM_EACHPAIRS	148
TTM_SCR_TAP	198000
TTM_SCR_BRK	156000
TTM_SCR_HLD	52000
TTM_SCR_SLD	27000
TTM_SCR_ALL	433000
TTM_SCR_S	414200
TTM_SCR_SS	427000
TTM_RAT_ACV	10140

