VERSION	0.00.00	1.04.00
FES_MODE	0
BPM_DEF	185.000	185.000	185.000	185.000
MET_DEF	4	4
RESOLUTION	384
CLK_DEF	384
COMPATIBLE_CODE	MA2

BPM	0	0	185.000
MET	0	0	4	4

NMHLD	3	0	2	96
NMTAP	3	96	3
NMHLD	3	192	3	96
NMTAP	3	288	4
NMHLD	4	0	4	96
NMTAP	4	96	5
NMTAP	4	192	3
NMTAP	4	192	6
NMTAP	4	288	4
NMTAP	4	288	5
NMHLD	5	0	5	96
NMTAP	5	96	4
NMHLD	5	192	4	96
NMTAP	5	288	3
EXTAP	6	0	3
EXTAP	6	0	4
EXTAP	6	72	2
EXTAP	6	72	5
BXSTR	6	144	1
BRSLR	6	144	1	96	96	7
BXSTR	6	144	6
BRSLL	6	144	6	96	96	0
NMSTR	7	0	1
NMSI_	7	0	1	96	48	4
NMTAP	7	48	0
EXTAP	7	96	1
NMTAP	7	144	7
NMSTR	7	192	6
NMSI_	7	192	6	96	48	3
NMTAP	7	240	7
EXTAP	7	288	6
NMTAP	7	336	0
NMSTR	8	0	1
NMSI_	8	0	1	96	48	4
NMTAP	8	48	0
EXTAP	8	96	1
NMTAP	8	144	7
NMSTR	8	192	7
NMSCL	8	192	7	96	48	4
NMTAP	8	240	3
EXTAP	8	288	2
NMTAP	8	336	1
NMSTR	9	0	0
NMSI_	9	0	0	96	48	4
NMTAP	9	48	5
EXTAP	9	96	0
NMTAP	9	144	6
NMSTR	9	192	7
NMSI_	9	192	7	96	48	3
NMTAP	9	240	2
EXTAP	9	288	7
NMTAP	9	336	2
NMTAP	10	0	2
NMTAP	10	0	4
NMTAP	10	48	2
NMTAP	10	48	4
NMTAP	10	96	1
NMTAP	10	96	5
NMTAP	10	144	1
NMTAP	10	144	5
NMSTR	10	192	0
NMSI_	10	192	0	96	48	3
NMSTR	10	192	6
NMSI_	10	192	6	96	48	3
NMHLD	11	0	5	96
NMTAP	11	96	4
NMTAP	11	192	6
NMTAP	11	240	6
NMTAP	11	288	4
NMHLD	12	0	2	96
NMTAP	12	96	3
NMTAP	12	192	1
NMTAP	12	240	1
NMTAP	12	288	3
NMHLD	13	0	6	96
NMTAP	13	96	4
NMTAP	13	192	5
NMTAP	13	240	5
NMTAP	13	288	7
NMHLD	14	0	1	96
NMTAP	14	96	3
NMTAP	14	192	2
NMTAP	14	240	2
NMTAP	14	288	0
NMTAP	15	0	6
NMTAP	15	48	6
NMTAP	15	96	6
NMTAP	15	96	7
NMTAP	15	192	1
NMTAP	15	240	1
NMTAP	15	288	0
NMTAP	15	288	1
NMSTR	16	0	2
NMSCL	16	0	2	96	96	6
NMSTR	16	96	6
NMSCR	16	96	6	96	96	2
NMHLD	16	192	4	96
NMTAP	17	0	2
NMTAP	17	0	6
NMTAP	17	96	1
NMTAP	17	96	5
NMSTR	17	144	1
NMSV_	17	144	1	96	96	3
NMSTR	17	144	5
NMSCR	17	144	5	96	96	1
BXTAP	18	0	2
BXTAP	18	0	4
NMTAP	18	192	1
NMTAP	18	240	0
NMTAP	18	288	7
NMTAP	18	336	6
NMHLD	19	0	2	96
NMTAP	19	0	5
NMTAP	19	96	3
NMTAP	19	192	1
NMTAP	19	240	1
NMTAP	19	288	3
NMHLD	20	0	5	96
NMTAP	20	96	4
NMTAP	20	192	6
NMTAP	20	240	6
NMTAP	20	288	4
NMHLD	21	0	1	96
NMTAP	21	96	3
NMTAP	21	192	2
NMTAP	21	240	2
NMTAP	21	288	0
NMHLD	22	0	6	96
NMTAP	22	96	4
NMTAP	22	192	5
NMTAP	22	240	5
NMTAP	22	288	7
NMTAP	23	0	2
NMTAP	23	48	2
NMTAP	23	96	1
NMTAP	23	96	3
NMTAP	23	192	5
NMTAP	23	240	5
NMTAP	23	288	4
NMTAP	23	288	6
NMHLD	24	0	1	96
NMHLD	24	96	3	96
NMHLD	24	192	5	96
NMSTR	24	288	7
NMSI_	24	288	7	96	48	3
NMSTR	25	0	0
NMSI_	25	0	0	96	48	4
NMSTR	25	96	6
NMSI_	25	96	6	96	48	3
NMSTR	25	192	1
NMSI_	25	192	1	96	48	4
NMTAP	25	288	6
NMTAP	26	0	1
NMTAP	26	0	3
NMTAP	26	96	4
NMTAP	26	96	6
NMTAP	26	192	3
NMTAP	26	192	4
NMTAP	26	240	2
NMTAP	26	240	5
BRTAP	26	288	1
BRTAP	26	288	6
NMSTR	27	0	6
NMSI_	27	0	6	96	48	3
NMTAP	27	48	7
EXTAP	27	96	6
NMTAP	27	144	0
NMSTR	27	192	1
NMSI_	27	192	1	96	48	4
NMTAP	27	240	0
EXTAP	27	288	1
NMTAP	27	336	7
NMSTR	28	0	6
NMSI_	28	0	6	96	48	3
NMTAP	28	48	7
EXTAP	28	96	6
NMTAP	28	144	0
NMSTR	28	192	0
NMSCR	28	192	0	96	48	3
NMTAP	28	240	4
EXTAP	28	288	5
NMTAP	28	336	6
NMSTR	29	0	7
NMSI_	29	0	7	96	48	3
NMTAP	29	48	2
EXTAP	29	96	7
NMTAP	29	144	1
NMSTR	29	192	0
NMSI_	29	192	0	96	48	4
NMTAP	29	240	5
EXTAP	29	288	0
NMTAP	29	336	5
NMTAP	30	0	3
NMTAP	30	0	5
NMTAP	30	48	3
NMTAP	30	48	5
NMTAP	30	96	2
NMTAP	30	96	6
NMTAP	30	144	2
NMTAP	30	144	6
NMSTR	30	192	1
NMSI_	30	192	1	96	48	4
NMSTR	30	192	7
NMSI_	30	192	7	96	48	4
NMTAP	31	0	3
NMHLD	31	0	5	96
NMTAP	31	96	4
NMTAP	31	192	2
NMHLD	31	192	6	96
NMTAP	31	240	3
NMTAP	31	288	4
NMHLD	32	0	2	96
NMTAP	32	0	4
NMTAP	32	96	3
NMHLD	32	192	1	96
NMTAP	32	192	5
NMTAP	32	240	4
NMTAP	32	288	3
NMTAP	33	0	4
NMHLD	33	0	6	96
NMTAP	33	96	7
NMHLD	33	192	5	96
NMTAP	33	192	7
NMTAP	33	240	0
NMTAP	33	288	1
NMHLD	34	0	1	96
NMTAP	34	0	3
NMTAP	34	96	0
NMTAP	34	192	0
NMHLD	34	192	2	96
NMTAP	34	240	7
NMTAP	34	288	6
NMTAP	35	0	5
NMTAP	35	48	4
NMTAP	35	96	3
NMTAP	35	96	6
NMTAP	35	192	2
NMTAP	35	240	3
NMTAP	35	288	1
NMTAP	35	288	4
NMSTR	36	0	5
NMSCR	36	0	5	96	96	1
NMSTR	36	96	1
NMSCL	36	96	1	96	96	5
NMHLD	36	192	3	96
NMTAP	37	0	1
NMTAP	37	0	5
NMTAP	37	96	2
NMTAP	37	96	6
NMSTR	37	144	2
NMSV_	37	144	2	96	96	4
NMSTR	37	144	6
NMSCR	37	144	6	96	96	2
BXTAP	38	0	3
BXTAP	38	0	5
NMTAP	38	192	1
NMTAP	38	240	0
NMTAP	38	288	7
NMTAP	38	336	6
NMHLD	39	0	2	96
NMTAP	39	0	5
NMTAP	39	96	3
NMHLD	39	192	1	96
NMTAP	39	192	4
NMTAP	39	240	3
NMTAP	39	288	2
NMTAP	40	0	3
NMHLD	40	0	5	96
NMTAP	40	96	4
NMTAP	40	192	3
NMHLD	40	192	6	96
NMTAP	40	240	4
NMTAP	40	288	5
NMHLD	41	0	1	96
NMTAP	41	0	3
NMTAP	41	96	0
NMTAP	41	192	0
NMHLD	41	192	2	96
NMTAP	41	240	7
NMTAP	41	288	6
NMTAP	42	0	4
NMHLD	42	0	6	96
NMTAP	42	96	7
NMHLD	42	192	5	96
NMTAP	42	192	7
NMTAP	42	240	0
NMTAP	42	288	1
NMTAP	43	0	3
NMTAP	43	0	4
NMTAP	43	48	2
NMTAP	43	96	2
NMTAP	43	96	3
NMTAP	43	144	5
NMTAP	43	192	4
NMTAP	43	192	6
NMTAP	43	240	2
NMTAP	43	288	1
NMTAP	43	288	3
NMTAP	43	336	4
NMTAP	44	0	3
NMTAP	44	0	5
NMTAP	44	96	1
NMTAP	44	96	7
NMTAP	44	144	2
NMTAP	44	144	6
NMTAP	44	192	3
NMTAP	44	192	5
NMTAP	44	288	2
NMTAP	44	288	4
NMTAP	45	0	3
NMTAP	45	24	4
NMTAP	45	48	3
NMTAP	45	72	4
NMTAP	45	96	2
NMTAP	45	120	5
NMTAP	45	144	2
NMTAP	45	168	5
NMTAP	45	192	1
NMTAP	45	216	6
NMTAP	45	240	1
NMTAP	45	264	6
NMHLD	45	288	0	96
BRTAP	46	0	7
BRTAP	46	96	1
BRTAP	46	96	3
BRTAP	46	192	4
BRTAP	46	192	6
NMTAP	46	288	3
NMTAP	46	288	4
BRTAP	47	0	0
BRTAP	47	0	7
NMHLD	47	96	2	48
NMTTP	47	144	3	B	0	M1
NMTTP	47	144	3	E	0	M1
NMHLD	47	192	5	48
NMTTP	47	240	4	B	0	M1
NMTTP	47	240	5	E	0	M1
NMHLD	47	288	1	48
NMTTP	47	336	0	B	0	M1
NMTTP	47	336	1	E	0	M1
NMHLD	48	0	6	48
NMTTP	48	48	7	B	0	M1
NMTTP	48	48	7	E	0	M1
NMTAP	48	96	3
NMTAP	48	144	3
NMTAP	48	192	3
NMTAP	48	192	5
NMTAP	48	288	0
NMTAP	48	288	6
NMTAP	48	336	0
NMTAP	48	336	6
NMSTR	49	0	1
NMSCL	49	0	1	96	48	6
NMTAP	49	0	7
NMSTR	49	96	5
NMSCL	49	96	5	96	48	2
NMTAP	49	144	5
NMSTR	49	192	1
NMSCL	49	192	1	96	48	6
NMTAP	49	240	1
NMSTR	49	288	5
NMSCL	49	288	5	96	48	2
NMTAP	49	336	5
NMSTR	50	0	1
NMSCL	50	0	1	96	48	6
NMTAP	50	48	1
NMTAP	50	96	5
NMTAP	50	144	5
NMTAP	50	192	3
NMTAP	50	192	5
NMTAP	50	288	1
NMTAP	50	288	7
NMTAP	50	336	1
NMTAP	50	336	7
NMTAP	51	0	0
NMTAP	51	0	6
BXTAP	51	96	2
BXTAP	51	96	4
BXTAP	51	144	2
BXTAP	51	144	4
BXTAP	51	192	0
BXTAP	51	192	6
BXTAP	51	240	0
BXTAP	51	240	6
BXTAP	51	288	3
BXTAP	51	288	5
BXTAP	51	336	3
BXTAP	51	336	5
BXTAP	52	0	1
BXTAP	52	0	7
BXTAP	52	48	1
BXTAP	52	48	7
BXTAP	52	96	2
BXTAP	52	96	5
BXTAP	52	144	2
BXTAP	52	144	5
BXTAP	52	192	0
BXTAP	52	192	7
BXTAP	52	288	1
BXTAP	52	288	6
BXTAP	52	336	2
BXTAP	52	336	5
BXTAP	53	0	3
BXSTR	53	0	4
NMSI_	53	0	4	96	48	6
NMSTR	53	96	4
NMSI_	53	96	4	96	48	2
NMSTR	53	192	4
NMSI_	53	192	4	96	48	0
NMSTR	53	288	4
NMSCR	53	288	4	96	192	3
NMTAP	54	288	3
NMTAP	54	288	4
BRTAP	55	0	1
BRTAP	55	0	6
NMSTR	55	96	0
NMSUR	55	96	0	96	48	4
NMTAP	55	144	7
NMTAP	55	192	0
NMTAP	55	240	7
NMSTR	55	288	0
NMSV_	55	288	0	96	48	5
NMTAP	55	336	6
NMTAP	56	0	0
NMTAP	56	48	6
NMSTR	56	96	0
NMSCR	56	96	0	96	48	4
NMSUR	56	96	0	96	48	4
NMTAP	56	192	0
NMTAP	56	288	5
NMTAP	56	336	5
NMTAP	57	0	4
NMTAP	57	0	6
NMSTR	57	96	7
NMSI_	57	96	7	96	48	3
NMTAP	57	144	7
NMSTR	57	192	0
NMSI_	57	192	0	96	48	4
NMTAP	57	240	0
NMSTR	57	288	6
NMSI_	57	288	6	96	48	2
NMTAP	57	336	6
NMSTR	58	0	1
NMSI_	58	0	1	96	48	5
NMTAP	58	48	1
NMTAP	58	96	6
NMTAP	58	144	6
NMTAP	58	192	6
NMTAP	58	192	7
NMTAP	58	288	0
NMTAP	58	288	5
NMTAP	58	336	1
NMTAP	58	336	4
NMTAP	59	0	2
NMTAP	59	0	3
NMTAP	59	96	4
NMTAP	59	96	5
NMTAP	59	144	6
NMTAP	59	192	0
NMTAP	59	192	7
NMTAP	59	240	1
NMTAP	59	288	2
NMTAP	59	288	3
NMTAP	59	336	4
NMSTR	60	0	4
NMSF_	60	0	4	96	48	0
NMTAP	60	0	5
NMTAP	60	192	2
NMSTR	60	192	3
NMSF_	60	192	3	96	48	7
EXTAP	61	0	6
EXTAP	61	0	7
NMTAP	61	96	2
NMTAP	61	96	3
NMTAP	61	192	0
NMTAP	61	192	1
NMTAP	61	288	4
NMTAP	61	288	5
NMTAP	62	0	2
NMTAP	62	0	7
NMSTR	62	96	0
NMSI_	62	96	0	96	48	4
NMSTR	62	144	1
NMSI_	62	144	1	96	48	3
NMSTR	62	192	0
NMSI_	62	192	0	96	48	6
NMSTR	62	240	1
NMSI_	62	240	1	96	48	5
NMTAP	62	288	0
NMTAP	62	336	1
BRTAP	63	0	0
NMTAP	63	96	2
NMTAP	63	96	7
NMSTR	63	144	2
NMSI_	63	144	2	96	48	7
NMSTR	63	144	7
NMSI_	63	144	7	96	48	3
NMTAP	63	240	2
NMTAP	63	240	7
NMTAP	63	336	0
NMTAP	63	336	4
NMTAP	64	0	0
NMTAP	64	0	4
NMTAP	64	96	1
NMTAP	64	144	1
NMTAP	64	192	1
NMTAP	64	192	3
NMTAP	64	240	2
NMTAP	64	288	3
NMTAP	64	288	4
NMTAP	64	336	5
NMTAP	65	0	6
NMTAP	65	0	7
NMTAP	65	96	0
NMTAP	65	96	5
NMSTR	65	144	0
NMSI_	65	144	0	96	48	4
NMHLD	65	144	5	96
NMTAP	65	192	1
NMTAP	65	240	0
NMTAP	65	336	3
NMTAP	65	336	7
NMTAP	66	0	3
NMTAP	66	0	7
NMTAP	66	96	4
NMTAP	66	96	6
NMHLD	66	144	4	96
NMTAP	66	144	6
NMTAP	66	240	3
NMHLD	66	288	3	96
NMTAP	67	0	1
NMTAP	67	96	2
NMTAP	67	96	6
NMSTR	67	144	2
NMSXR	67	144	2	96	144	7
NMSTR	67	144	6
NMSXR	67	144	6	96	144	3
NMTAP	68	96	0
NMTAP	68	144	0
NMTAP	68	192	1
NMTAP	68	192	5
NMTAP	68	240	1
NMTAP	68	240	5
NMTAP	68	288	6
NMTAP	68	336	6
NMTAP	69	0	3
NMTAP	69	0	7
NMSTR	69	96	0
NMSI_	69	96	0	96	48	5
NMSTR	69	96	1
NMSI_	69	96	1	96	48	4
BRTAP	69	192	0
BRTAP	69	192	1
NMSTR	69	288	6
NMSI_	69	288	6	96	48	3
NMSTR	69	288	7
NMSI_	69	288	7	96	48	2
BRTAP	70	0	6
BRTAP	70	0	7
NMTAP	70	144	5
NMTAP	70	192	6
NMTAP	70	240	7
NMTAP	70	288	0
NMTAP	70	336	1
NMTAP	71	0	2
NMTAP	71	0	3
NMTAP	71	48	2
NMTAP	71	48	3
NMSTR	71	144	1
NMSI_	71	144	1	96	48	4
NMSTR	71	144	4
NMSI_	71	144	4	96	48	0
NMTAP	71	240	1
NMTAP	71	240	4
NMTAP	71	336	3
NMTAP	71	336	7
NMTAP	72	0	3
NMTAP	72	0	7
NMTAP	72	96	6
NMTAP	72	144	6
NMTAP	72	192	4
NMTAP	72	192	6
NMTAP	72	240	5
NMTAP	72	288	3
NMTAP	72	288	4
NMTAP	72	336	2
NMTAP	73	0	0
NMTAP	73	0	1
NMTAP	73	48	0
NMTAP	73	48	1
NMSTR	73	144	2
NMSI_	73	144	2	96	48	7
NMSTR	73	144	7
NMSI_	73	144	7	96	48	3
NMTAP	73	240	2
NMTAP	73	240	7
NMTAP	73	336	0
NMTAP	73	336	4
NMTAP	74	0	0
NMTAP	74	0	4
NMTAP	74	96	1
NMTAP	74	96	3
NMTAP	74	144	1
NMHLD	74	144	3	96
NMTAP	74	240	4
NMHLD	74	288	4	96
NMTAP	75	0	6
NMTAP	75	96	1
NMTAP	75	96	5
NMSTR	75	144	1
NMSXL	75	144	1	96	144	4
NMSTR	75	144	5
NMSXL	75	144	5	96	144	0
NMTAP	76	96	7
NMTAP	76	144	7
NMTAP	76	192	2
NMTAP	76	192	6
NMTAP	76	240	2
NMTAP	76	240	6
NMTAP	76	288	1
NMTAP	76	336	1
NMTAP	77	0	0
NMTAP	77	0	4
NMSTR	77	96	6
NMSI_	77	96	6	96	48	3
NMSTR	77	96	7
NMSI_	77	96	7	96	48	2
BRTAP	77	192	6
BRTAP	77	192	7
NMSTR	77	288	0
NMSI_	77	288	0	96	48	5
NMSTR	77	288	1
NMSI_	77	288	1	96	48	4
BRTAP	78	0	0
BRTAP	78	0	1
NMSTR	78	96	0
NMSI_	78	96	0	96	48	3
NMSTR	78	96	7
NMSI_	78	96	7	96	48	4
BRTAP	78	192	0
BRTAP	78	192	7
NMTAP	78	288	2
NMTAP	78	288	5
NMTHO	79	0	0	960	C	0	M1
NMTTP	79	0	1	B	0	M1
NMTTP	79	0	2	B	0	M1
NMTTP	79	0	5	B	0	M1
NMTTP	79	0	6	B	0	M1
NMTAP	82	0	0
NMTAP	82	0	1
NMTAP	82	72	6
NMTAP	82	72	7
NMTAP	82	144	0
NMTAP	82	144	7
BRTAP	82	240	3
BRTAP	82	240	4
BRTAP	82	288	3
BRTAP	82	288	4
NMTAP	83	0	1
NMTAP	83	0	6
NMTAP	83	48	2
NMTAP	83	72	3
NMTAP	83	96	2
NMTAP	83	144	1
NMTAP	83	144	6
NMTAP	83	192	5
NMTAP	83	216	4
NMTAP	83	240	5
NMTAP	83	288	6
NMTAP	83	336	7
NMTAP	84	0	0
NMTAP	84	0	1
NMTAP	84	48	3
NMTAP	84	48	6
NMTAP	84	144	6
NMTAP	84	144	7
NMTAP	84	192	1
NMTAP	84	192	4
NMTAP	84	288	3
NMTAP	84	288	4
NMTAP	85	0	2
NMTAP	85	0	5
NMTAP	85	48	6
NMTAP	85	72	7
NMTAP	85	96	6
NMTAP	85	144	2
NMTAP	85	144	5
NMTAP	85	192	1
NMTAP	85	216	0
NMTAP	85	240	1
NMTAP	85	288	2
NMTAP	85	336	3
NMTAP	86	0	4
NMSTR	86	0	5
NMSI_	86	0	5	96	48	7
NMSTR	86	96	0
NMSCR	86	96	0	96	96	3
NMTAP	86	144	0
NMTAP	86	240	4
NMTAP	86	288	4
NMTTP	87	0	3	B	0	M1
NMTTP	87	32	2	B	0	M1
NMTTP	87	64	1	B	0	M1
NMTTP	87	96	7	B	0	M1
NMTTP	87	128	6	B	0	M1
NMTTP	87	160	5	B	0	M1
NMTTP	87	192	3	E	0	M1
NMTTP	87	224	2	E	0	M1
NMTTP	87	256	1	E	0	M1
NMTTP	87	288	7	E	0	M1
NMTTP	87	320	6	E	0	M1
NMTTP	87	352	5	E	0	M1
NMTTP	88	0	2	A	0	M1
NMTTP	88	32	1	A	0	M1
NMTTP	88	64	0	A	0	M1
NMTTP	88	96	6	A	0	M1
NMTTP	88	128	5	A	0	M1
NMTTP	88	160	4	A	0	M1
EXTAP	88	192	2
EXTAP	88	224	1
EXTAP	88	256	0
EXTAP	88	288	7
EXTAP	88	320	6
EXTAP	88	352	5
EXHLD	89	0	3	96
EXHLD	89	0	4	96
NMTAP	89	192	3
NMTAP	89	192	4
NMTAP	89	288	2
NMTAP	89	288	5
NMTAP	90	0	0
NMTAP	90	24	6
NMTAP	90	48	0
NMTAP	90	72	6
NMTAP	90	96	1
NMTAP	90	120	5
NMTAP	90	144	1
NMTAP	90	168	5
NMTAP	90	192	2
NMTAP	90	216	4
NMTAP	90	240	2
NMTAP	90	264	4
NMTAP	90	288	3
BXHLD	91	0	1	288
BXHLD	91	0	5	288
BXHLD	92	0	2	288
BXHLD	92	0	6	288
BXHLD	93	0	1	288
BXHLD	93	0	4	288
BXHLD	94	0	3	288
BXHLD	94	0	6	288
NMSTR	95	0	4
NMSCL	95	0	4	96	192	0
NMTAP	95	0	5
NMTAP	95	96	5
NMTAP	95	192	5
NMTAP	95	288	5
NMTAP	96	0	2
NMSTR	96	0	3
NMSCR	96	0	3	96	192	7
NMTAP	96	96	2
NMTAP	96	192	2
NMTAP	96	288	2
NMTAP	97	0	0
NMTAP	97	0	1
NMTAP	97	192	3
NMTAP	97	192	4
NMTAP	97	240	3
NMTAP	97	240	4
NMTAP	97	288	2
NMTAP	97	288	5
NMTAP	97	336	2
NMTAP	97	336	5
NMSTR	98	0	1
NMSLR	98	0	1	96	96	7
NMSTR	98	0	6
NMSLL	98	0	6	96	96	0
NMTAP	98	288	0
NMTAP	98	288	7
BRTAP	99	0	1
BRTAP	99	0	6
NMHLD	99	96	5	48
NMTTP	99	144	5	B	0	M1
NMTTP	99	144	5	E	0	M1
NMHLD	99	192	2	48
NMTTP	99	240	2	B	0	M1
NMTTP	99	240	3	E	0	M1
NMHLD	99	288	6	48
NMTTP	99	336	6	B	0	M1
NMTTP	99	336	7	E	0	M1
NMHLD	100	0	1	48
NMTTP	100	48	1	B	0	M1
NMTTP	100	48	1	E	0	M1
NMTAP	100	96	4
NMTAP	100	144	4
NMTAP	100	192	2
NMTAP	100	192	4
NMTAP	100	288	1
NMTAP	100	288	7
NMTAP	100	336	1
NMTAP	100	336	7
NMTAP	101	0	0
NMSTR	101	0	6
NMSCR	101	0	6	96	48	1
NMSTR	101	96	2
NMSCR	101	96	2	96	48	5
NMTAP	101	144	2
NMSTR	101	192	6
NMSCR	101	192	6	96	48	1
NMTAP	101	240	6
NMSTR	101	288	2
NMSCR	101	288	2	96	48	5
NMTAP	101	336	2
NMSTR	102	0	6
NMSCR	102	0	6	96	48	1
NMTAP	102	48	6
NMTAP	102	96	2
NMTAP	102	144	2
NMTAP	102	192	2
NMTAP	102	192	4
NMTAP	102	288	0
NMTAP	102	288	6
NMTAP	102	336	0
NMTAP	102	336	6
NMTAP	103	0	1
NMTAP	103	0	7
BXTAP	103	96	0
BXTAP	103	96	1
BXTAP	103	144	0
BXTAP	103	144	1
BXTAP	103	192	4
BXTAP	103	192	5
BXTAP	103	240	4
BXTAP	103	240	5
BXTAP	103	288	6
BXTAP	103	288	7
BXTAP	103	336	6
BXTAP	103	336	7
BXTAP	104	0	2
BXTAP	104	0	3
BXTAP	104	48	2
BXTAP	104	48	3
BXTAP	104	96	0
BXTAP	104	96	7
BXTAP	104	144	0
BXTAP	104	144	7
BXTAP	104	192	3
BXTAP	104	192	4
BXTAP	104	288	2
BXTAP	104	288	5
BXTAP	104	336	1
BXTAP	104	336	6
BXTAP	105	0	0
BXTAP	105	0	7
NMTAP	105	96	4
NMTAP	105	96	5
NMTAP	105	192	0
NMTAP	105	192	1
NMTAP	105	288	2
NMTAP	105	288	3
NMTAP	106	0	0
NMTAP	106	0	5
NMSTR	106	96	7
NMSI_	106	96	7	96	48	3
NMSTR	106	144	6
NMSI_	106	144	6	96	48	4
NMSTR	106	192	7
NMSI_	106	192	7	96	48	1
NMSTR	106	240	6
NMSI_	106	240	6	96	48	2
NMTAP	106	288	7
NMTAP	106	336	6
BRTAP	107	0	7
NMTAP	107	96	0
NMTAP	107	96	5
NMSTR	107	144	0
NMSI_	107	144	0	96	48	4
NMSTR	107	144	5
NMSI_	107	144	5	96	48	0
NMTAP	107	240	0
NMTAP	107	240	5
NMTAP	107	336	3
NMTAP	107	336	7
NMTAP	108	0	3
NMTAP	108	0	7
NMTAP	108	96	1
NMTAP	108	96	3
NMTAP	108	144	2
NMTAP	108	192	4
NMTAP	108	192	6
NMTAP	108	240	5
NMTAP	108	288	3
NMTAP	108	288	4
NMTAP	108	336	2
NMTAP	109	0	0
NMTAP	109	0	1
NMTAP	109	96	2
NMTAP	109	96	7
NMHLD	109	144	2	96
NMSTR	109	144	7
NMSI_	109	144	7	96	48	3
NMTAP	109	192	6
NMTAP	109	240	7
NMTAP	109	336	0
NMTAP	109	336	4
NMTAP	110	0	0
NMTAP	110	0	4
NMTAP	110	96	1
NMTAP	110	96	2
NMTAP	110	144	1
NMHLD	110	144	2	96
NMTAP	110	240	4
NMHLD	110	288	4	96
NMTAP	111	0	6
NMTAP	111	96	1
NMTAP	111	96	5
NMSTR	111	144	1
NMSXL	111	144	1	96	144	4
NMSTR	111	144	5
NMSXL	111	144	5	96	144	0
NMTAP	112	96	3
NMTAP	112	96	7
NMTAP	112	144	6
NMTAP	112	192	1
NMTAP	112	192	5
NMTAP	112	240	2
NMTAP	112	288	3
NMTAP	112	288	7
NMTAP	112	336	2
NMTAP	112	336	6
NMTAP	113	0	1
NMTAP	113	0	5
NMSTR	113	96	6
NMSI_	113	96	6	96	48	3
NMSTR	113	96	7
NMSI_	113	96	7	96	48	2
BRTAP	113	192	6
BRTAP	113	192	7
NMSTR	113	288	0
NMSI_	113	288	0	96	48	5
NMSTR	113	288	1
NMSI_	113	288	1	96	48	4
BRTAP	114	0	0
BRTAP	114	0	1
NMSTR	114	96	0
BRSCR	114	96	0	96	48	3
NMSTR	114	96	7
BRSCL	114	96	7	96	48	4
NMSTR	114	192	0
BRSI_	114	192	0	96	48	4
NMSTR	114	192	7
BRSI_	114	192	7	96	48	3
NMTAP	114	288	0
NMTAP	114	288	7
NMTTP	115	0	0	E	0	M1
NMTTP	115	6	0	B	0	M1
NMTTP	115	6	7	B	0	M1
NMTTP	115	12	0	C	1	M1
NMTTP	115	12	1	B	0	M1
NMTTP	115	12	2	B	0	M1
NMTTP	115	12	5	B	0	M1
NMTTP	115	12	6	B	0	M1
NMTTP	115	18	3	B	0	M1
NMTTP	115	18	4	B	0	M1
NMTTP	115	18	4	E	0	M1

T_REC_TAP	535
T_REC_BRK	33
T_REC_XTP	24
T_REC_BXX	59
T_REC_HLD	51
T_REC_XHO	2
T_REC_BHO	0
T_REC_BXH	8
T_REC_STR	98
T_REC_BST	0
T_REC_XST	0
T_REC_XBS	3
T_REC_TTP	49
T_REC_THO	1
T_REC_SLD	96
T_REC_BSL	6
T_REC_ALL	965
T_NUM_TAP	706
T_NUM_BRK	109
T_NUM_HLD	54
T_NUM_SLD	96
T_NUM_ALL	965
T_JUDGE_TAP	801
T_JUDGE_HLD	166
T_JUDGE_SLD	102
T_JUDGE_ALL	1069
TTM_EACHPAIRS	241
TTM_SCR_TAP	353000
TTM_SCR_BRK	283400
TTM_SCR_HLD	54000
TTM_SCR_SLD	144000
TTM_SCR_ALL	834400
TTM_SCR_S	798800
TTM_SCR_SS	823500
TTM_RAT_ACV	10132

