VERSION	0.00.00	1.04.00
FES_MODE	0
BPM_DEF	185.000	185.000	185.000	185.000
MET_DEF	4	4
RESOLUTION	384
CLK_DEF	384
COMPATIBLE_CODE	MA2

BPM	0	0	185.000
MET	0	0	4	4

NMTAP	3	96	5
NMTAP	3	288	5
NMTAP	4	96	4
NMTAP	4	288	4
NMTAP	5	96	2
NMTAP	5	96	4
NMTAP	5	288	2
NMTAP	5	288	4
BXTAP	6	0	3
BXTAP	6	72	2
BXSTR	6	144	0
NMSI_	6	144	0	96	48	4
BXSTR	6	144	1
NMSI_	6	144	1	96	48	3
NMHLD	7	0	5	96
NMTAP	7	96	4
NMHLD	7	192	2	96
NMTAP	7	288	3
NMHLD	8	0	6	96
NMTAP	8	96	7
EXTAP	8	192	1
EXTAP	8	240	1
NMTAP	8	288	0
NMHLD	9	0	6	96
NMTAP	9	96	4
NMHLD	9	192	1	96
NMTAP	9	288	3
NMTAP	10	0	4
NMTAP	10	0	6
NMTAP	10	96	4
NMTAP	10	96	6
NMTAP	10	192	3
NMTAP	10	192	5
BXTAP	10	288	2
BXTAP	10	288	3
NMTAP	11	0	2
NMTAP	11	96	1
NMTAP	11	192	7
NMTAP	11	288	0
NMTAP	11	288	6
NMTAP	12	0	5
NMTAP	12	96	6
NMTAP	12	192	0
NMTAP	12	288	1
NMTAP	12	288	7
NMTAP	13	0	2
NMTAP	13	96	3
NMTAP	13	192	4
NMTAP	13	192	6
NMTAP	13	288	4
NMTAP	13	288	6
NMTAP	14	0	5
NMTAP	14	96	4
NMTAP	14	192	1
NMTAP	14	192	3
NMTAP	14	288	1
NMTAP	14	288	3
NMHLD	15	0	1	96
NMHLD	15	96	0	96
NMHLD	15	192	7	96
NMTAP	15	288	6
NMHLD	16	0	6	96
NMHLD	16	96	7	96
NMHLD	16	192	0	96
NMTAP	16	288	1
NMTAP	17	0	2
NMTAP	17	0	3
NMTAP	17	96	2
NMTAP	17	96	3
NMTAP	17	192	0
NMTAP	17	192	1
NMSTR	17	288	6
NMSI_	17	288	6	96	96	2
NMSTR	17	288	7
NMSI_	17	288	7	96	96	3
NMTAP	18	192	1
NMTAP	18	288	0
NMHLD	19	0	7	576
NMSTR	19	192	4
NMSI_	19	192	4	96	48	6
CNSI_	19	336	6	0	96	3
CNSI_	20	48	3	0	48	0
CNSI_	20	96	0	0	96	2
NMTAP	21	0	6
NMTAP	21	96	5
NMTAP	21	192	2
NMTAP	21	192	4
NMTAP	21	288	1
NMTAP	21	288	3
NMTAP	22	0	1
NMTAP	22	96	2
NMTAP	22	192	3
NMTAP	22	192	5
NMTAP	22	288	4
NMTAP	22	288	6
NMHLD	23	0	6	96
NMHLD	23	96	7	96
NMHLD	23	192	0	96
NMTAP	23	288	1
NMHLD	24	0	1	96
NMHLD	24	96	0	96
NMHLD	24	192	7	96
NMTAP	24	288	6
NMTAP	25	0	5
NMTAP	25	48	5
NMTAP	25	96	4
NMTAP	25	192	3
NMHLD	25	288	3	96
BXTAP	26	0	2
BXTAP	26	96	1
BXTAP	26	192	0
BXTAP	26	288	7
NMHLD	27	0	6	96
NMTAP	27	96	7
NMHLD	27	192	1	96
NMTAP	27	288	0
NMHLD	28	0	6	96
NMTAP	28	96	7
NMTAP	28	192	1
NMTAP	28	240	1
NMTAP	28	288	0
NMTAP	28	288	2
NMHLD	29	0	2	96
NMTAP	29	96	3
NMHLD	29	192	5	96
NMTAP	29	288	4
NMTAP	30	0	4
NMTAP	30	0	5
NMTAP	30	96	6
NMTAP	30	96	7
BXTAP	30	192	0
BXTAP	30	192	1
NMHLD	31	0	2	288
NMSTR	31	0	3
NMSCL	31	0	3	96	192	5
NMTAP	32	0	5
NMTAP	32	96	4
NMTAP	32	192	3
NMTAP	32	288	3
NMHLD	33	0	4	192
NMTAP	33	0	5
NMSTR	33	96	5
NMSCL	33	96	5	96	96	0
NMHLD	34	0	0	192
NMTAP	34	0	1
NMSTR	34	96	1
NMSCL	34	96	1	96	96	5
NMHLD	35	0	6	96
NMHLD	35	96	7	96
NMHLD	35	192	0	96
NMTAP	35	288	1
NMHLD	36	0	1	96
NMHLD	36	96	0	96
NMHLD	36	192	7	96
NMTAP	36	288	6
NMTAP	37	0	4
NMTAP	37	0	5
NMTAP	37	96	4
NMTAP	37	96	5
NMTAP	37	192	6
NMTAP	37	192	7
NMSTR	37	288	0
NMSI_	37	288	0	96	96	4
NMSTR	37	288	1
NMSI_	37	288	1	96	96	5
NMTAP	38	192	6
NMTAP	38	288	7
NMSTR	39	0	0
NMSCR	39	0	0	96	192	6
NMHLD	39	0	1	288
NMTAP	40	0	6
NMTAP	40	96	7
NMTAP	40	192	0
NMTAP	40	288	0
NMTAP	41	0	6
NMHLD	41	0	7	192
NMSTR	41	96	6
NMSCR	41	96	6	96	96	3
NMTAP	42	0	2
NMHLD	42	0	3	192
NMSTR	42	96	2
NMSCR	42	96	2	96	96	6
NMTAP	43	0	6
NMTAP	43	0	7
NMTAP	43	96	6
NMTAP	43	96	7
NMTAP	43	192	0
NMTAP	43	192	1
NMTAP	43	288	0
NMTAP	43	288	1
NMTAP	44	0	2
NMTAP	44	0	3
NMTAP	44	96	2
NMTAP	44	96	3
NMTAP	44	192	4
NMTAP	44	192	5
NMTAP	44	288	4
NMTAP	44	288	5
EXTAP	45	0	6
EXTAP	45	48	6
EXTAP	45	96	1
EXTAP	45	144	1
EXTAP	45	192	7
EXTAP	45	240	7
EXTAP	45	288	0
EXTAP	45	336	0
NMTAP	46	0	1
NMTAP	46	0	7
NMTAP	46	96	0
NMTAP	46	96	6
NMTAP	46	192	1
NMTAP	46	192	7
BXTAP	46	288	2
BXTAP	46	288	5
NMSTR	47	0	6
NMSI_	47	0	6	96	48	3
NMHLD	47	0	7	96
NMHLD	47	192	0	96
NMSTR	47	192	1
NMSI_	47	192	1	96	48	4
NMSTR	48	0	6
NMSI_	48	0	6	96	48	3
NMHLD	48	0	7	96
NMTAP	48	192	2
NMTAP	48	288	2
NMHLD	49	0	2	96
NMSTR	49	0	3
NMSI_	49	0	3	96	48	7
NMSTR	49	192	4
NMSI_	49	192	4	96	48	0
NMHLD	49	192	5	96
NMHLD	50	0	2	96
NMSTR	50	0	3
NMSI_	50	0	3	96	48	7
NMTAP	50	192	0
NMTAP	50	288	0
NMHLD	51	0	0	96
NMSTR	51	0	1
NMSI_	51	0	1	96	48	4
NMSTR	51	192	6
NMSI_	51	192	6	96	48	3
NMHLD	51	192	7	96
NMHLD	52	0	0	96
NMSTR	52	0	1
NMSI_	52	0	1	96	48	4
NMTAP	52	192	5
NMHLD	52	288	5	384
NMSTR	53	0	3
NMSCR	53	0	3	96	192	1
NMTAP	54	0	6
NMTAP	54	96	5
NMTAP	54	192	3
NMTAP	54	288	2
NMTAP	54	288	4
NMHLD	55	0	0	96
NMSTR	55	0	1
NMSI_	55	0	1	96	48	4
NMSTR	55	192	6
NMSI_	55	192	6	96	48	3
NMHLD	55	192	7	96
NMHLD	56	0	0	96
NMSTR	56	0	1
NMSI_	56	0	1	96	48	4
NMTAP	56	192	5
NMTAP	56	288	5
NMSTR	57	0	4
NMSI_	57	0	4	96	48	0
NMHLD	57	0	5	96
NMHLD	57	192	2	96
NMSTR	57	192	3
NMSI_	57	192	3	96	48	7
NMSTR	58	0	4
NMSI_	58	0	4	96	48	0
NMHLD	58	0	5	96
NMTAP	58	192	7
NMTAP	58	288	7
NMSTR	59	0	6
NMSI_	59	0	6	96	48	3
NMHLD	59	0	7	96
NMHLD	59	192	0	96
NMSTR	59	192	1
NMSI_	59	192	1	96	48	4
NMSTR	60	0	6
NMSI_	60	0	6	96	48	3
NMHLD	60	0	7	96
NMTAP	60	192	2
NMTAP	60	288	2
NMSTR	61	0	4
NMSUR	61	0	4	96	192	3
NMSTR	61	0	5
NMSCR	61	0	5	96	192	2
NMTAP	62	0	2
NMTAP	62	0	3
NMTAP	62	96	0
NMTAP	62	96	1
BRTAP	62	192	0
BRTAP	62	192	6
NMHLD	63	0	3	96
NMTAP	63	0	5
NMTAP	63	96	4
NMTAP	63	144	4
NMHLD	63	240	1	96
NMTAP	63	240	3
EXTAP	63	336	2
EXTAP	64	0	2
NMTAP	64	96	0
NMTAP	64	96	1
NMTAP	64	192	6
NMTAP	64	192	7
NMTAP	64	288	4
NMTAP	64	288	5
NMTAP	65	0	2
NMHLD	65	0	4	96
NMTAP	65	96	3
NMTAP	65	144	3
NMTAP	65	240	4
NMHLD	65	240	6	96
EXTAP	65	336	5
EXTAP	66	0	5
NMTAP	66	96	6
NMTAP	66	96	7
NMTAP	66	192	0
NMTAP	66	192	1
NMTAP	66	288	2
NMTAP	66	288	3
NMHLD	67	0	3	96
NMTAP	67	0	5
NMTAP	67	96	4
NMTAP	67	144	4
NMHLD	67	240	1	96
NMTAP	67	240	3
EXTAP	67	336	2
NMSTR	68	0	2
NMSI_	68	0	2	96	48	6
NMTAP	68	192	7
NMTAP	68	288	7
EXTAP	69	0	1
EXTAP	69	0	5
NMSTR	69	96	1
NMSCR	69	96	1	96	48	3
NMSTR	69	96	5
NMSCR	69	96	5	96	48	7
NMSTR	69	288	3
NMSCL	69	288	3	96	48	1
NMSTR	69	288	7
NMSCL	69	288	7	96	48	5
NMTAP	70	192	1
NMTAP	70	192	5
BXTAP	70	288	1
BXTAP	70	288	5
NMTAP	71	0	2
NMHLD	71	0	4	96
NMTAP	71	96	3
NMTAP	71	144	3
NMTAP	71	240	4
NMHLD	71	240	6	96
EXTAP	71	336	5
EXTAP	72	0	5
NMTAP	72	96	6
NMTAP	72	96	7
NMTAP	72	192	0
NMTAP	72	192	1
NMTAP	72	288	2
NMTAP	72	288	3
NMHLD	73	0	3	96
NMTAP	73	0	5
NMTAP	73	96	4
NMTAP	73	144	4
NMHLD	73	240	1	96
NMTAP	73	240	3
EXTAP	73	336	2
EXTAP	74	0	2
NMTAP	74	96	0
NMTAP	74	96	1
NMTAP	74	192	6
NMTAP	74	192	7
NMTAP	74	288	4
NMTAP	74	288	5
NMTAP	75	0	2
NMTAP	75	48	2
NMTAP	75	96	3
NMTAP	75	192	5
NMTAP	75	240	5
NMTAP	75	288	4
NMTAP	76	0	1
NMTAP	76	48	1
NMTAP	76	96	2
NMTAP	76	144	2
NMTAP	76	192	0
NMTAP	76	240	0
NMTAP	76	288	6
NMTAP	76	336	6
BXTAP	77	0	7
NMSTR	77	96	1
NMSCR	77	96	1	96	48	3
NMSTR	77	96	5
NMSCR	77	96	5	96	48	7
NMSTR	77	288	3
NMSCL	77	288	3	96	48	1
NMSTR	77	288	7
NMSCL	77	288	7	96	48	5
BXTAP	78	96	1
BXTAP	78	96	5
NMSTR	78	192	3
NMSCL	78	192	3	96	768	4
NMSTR	78	192	4
NMSCR	78	192	4	96	768	3
NMTAP	81	0	6
NMTAP	81	96	5
NMTAP	81	192	2
NMTAP	81	192	4
NMTAP	81	288	2
NMTAP	81	288	4
BXTAP	82	0	3
BXTAP	82	72	2
BXSTR	82	144	0
NMSI_	82	144	0	96	48	4
BXSTR	82	144	1
NMSI_	82	144	1	96	48	3
NMHLD	83	0	5	576
NMTTP	83	96	4	E	0	M1
NMTTP	83	192	5	E	0	M1
NMTTP	83	288	6	E	0	M1
NMTTP	84	0	7	E	0	M1
NMTTP	84	96	0	E	0	M1
NMTTP	84	192	1	E	0	M1
NMHLD	85	0	0	576
NMTTP	85	96	7	E	0	M1
NMTTP	85	192	0	E	0	M1
NMTTP	85	288	1	E	0	M1
NMTTP	86	0	2	E	0	M1
NMTTP	86	96	3	E	0	M1
NMTTP	86	192	4	E	0	M1
NMTAP	87	0	0
NMTAP	87	0	7
NMTAP	87	96	2
NMTAP	87	96	3
NMTTP	87	192	5	E	0	M1
NMTTP	87	192	5	A	0	M1
NMTTP	87	192	6	E	0	M1
NMTAP	88	0	0
NMTAP	88	0	7
NMTAP	88	96	4
NMTAP	88	96	5
NMTTP	88	192	2	E	0	M1
NMTTP	88	192	2	A	0	M1
NMTTP	88	192	3	E	0	M1
NMTAP	89	0	0
NMTAP	89	0	7
NMTTP	89	96	5	E	0	M1
NMTTP	89	96	5	A	0	M1
NMTTP	89	96	6	E	0	M1
NMTAP	89	192	0
NMTAP	89	192	7
NMTTP	89	288	2	E	0	M1
NMTTP	89	288	2	A	0	M1
NMTTP	89	288	3	E	0	M1
NMTTP	90	0	6	A	0	M1
NMTTP	90	0	7	E	1	M1
NMTTP	90	0	7	A	0	M1
NMTTP	90	0	7	D	0	M1
NMTTP	90	96	0	A	0	M1
NMTTP	90	96	1	E	1	M1
NMTTP	90	96	1	A	0	M1
NMTTP	90	96	1	D	0	M1
NMTTP	90	192	3	B	0	M1
NMTTP	90	192	3	A	0	M1
NMTTP	90	192	4	B	0	M1
NMTTP	90	192	4	E	1	M1
NMTTP	90	192	4	A	0	M1
BXTAP	91	0	6
BXTAP	91	0	7
BXTAP	92	0	0
BXTAP	92	0	1
BXTAP	93	0	1
BXTAP	93	0	6
BXTAP	94	0	1
BXTAP	94	0	6
NMTAP	94	288	2
NMTAP	94	288	5
NMHLD	95	0	5	672
NMTAP	95	96	4
NMTAP	95	192	4
NMTAP	95	288	4
NMTAP	96	0	3
NMTAP	96	96	3
NMTAP	96	192	3
NMTAP	96	288	3
NMTHO	97	0	0	384	C	1	M1
EXTAP	98	288	0
EXTAP	98	288	6
NMHLD	99	0	0	96
NMSTR	99	0	1
NMSI_	99	0	1	96	48	4
NMSTR	99	192	6
NMSI_	99	192	6	96	48	3
NMHLD	99	192	7	96
NMHLD	100	0	0	96
NMSTR	100	0	1
NMSI_	100	0	1	96	48	4
NMTAP	100	192	5
NMTAP	100	288	5
NMSTR	101	0	4
NMSI_	101	0	4	96	48	0
NMHLD	101	0	5	96
NMHLD	101	192	2	96
NMSTR	101	192	3
NMSI_	101	192	3	96	48	7
NMSTR	102	0	4
NMSI_	102	0	4	96	48	0
NMHLD	102	0	5	96
NMTAP	102	192	7
NMTAP	102	288	7
NMSTR	103	0	6
NMSI_	103	0	6	96	48	3
NMHLD	103	0	7	96
NMHLD	103	192	0	96
NMSTR	103	192	1
NMSI_	103	192	1	96	48	4
NMSTR	104	0	6
NMSI_	104	0	6	96	48	3
NMHLD	104	0	7	96
NMTAP	104	192	2
NMHLD	104	288	2	288
NMSTR	105	0	4
NMSCL	105	0	4	96	192	6
NMTAP	106	0	5
NMTAP	106	96	5
NMTAP	106	192	4
NMTAP	106	288	3
NMTAP	107	0	2
NMHLD	107	0	4	96
NMTAP	107	96	3
NMTAP	107	144	3
NMTAP	107	240	4
NMHLD	107	240	6	96
EXTAP	107	336	5
EXTAP	108	0	5
NMTAP	108	96	6
NMTAP	108	96	7
NMTAP	108	192	0
NMTAP	108	192	1
NMTAP	108	288	2
NMTAP	108	288	3
NMHLD	109	0	3	96
NMTAP	109	0	5
NMTAP	109	96	4
NMTAP	109	144	4
NMHLD	109	240	1	96
NMTAP	109	240	3
EXTAP	109	336	2
EXTAP	110	0	2
NMTAP	110	96	0
NMTAP	110	96	1
NMTAP	110	192	6
NMTAP	110	192	7
NMTAP	110	288	4
NMTAP	110	288	5
NMTAP	111	0	2
NMHLD	111	0	4	96
NMTAP	111	96	3
NMTAP	111	144	3
NMTAP	111	240	4
NMHLD	111	240	6	96
EXTAP	111	336	5
NMSTR	112	0	5
NMSI_	112	0	5	96	48	1
NMTAP	112	192	0
NMTAP	112	288	0
NMTAP	113	0	1
NMTAP	113	0	5
NMSTR	113	96	1
NMSCR	113	96	1	96	48	3
NMSTR	113	96	5
NMSCR	113	96	5	96	48	7
NMSTR	113	288	3
NMSCL	113	288	3	96	48	1
NMSTR	113	288	7
NMSCL	113	288	7	96	48	5
BRTAP	114	192	2
BRTAP	114	192	5
NMSTR	114	288	0
NMSCR	114	288	0	96	384	7
NMSTR	114	288	7
NMSCL	114	288	7	96	384	0

T_REC_TAP	273
T_REC_BRK	4
T_REC_XTP	28
T_REC_BXX	27
T_REC_HLD	84
T_REC_XHO	0
T_REC_BHO	0
T_REC_BXH	0
T_REC_STR	60
T_REC_BST	0
T_REC_XST	0
T_REC_XBS	4
T_REC_TTP	37
T_REC_THO	1
T_REC_SLD	64
T_REC_BSL	0
T_REC_ALL	582
T_NUM_TAP	398
T_NUM_BRK	35
T_NUM_HLD	85
T_NUM_SLD	64
T_NUM_ALL	582
T_JUDGE_TAP	433
T_JUDGE_HLD	244
T_JUDGE_SLD	64
T_JUDGE_ALL	741
TTM_EACHPAIRS	142
TTM_SCR_TAP	199000
TTM_SCR_BRK	91000
TTM_SCR_HLD	85000
TTM_SCR_SLD	96000
TTM_SCR_ALL	471000
TTM_SCR_S	453500
TTM_SCR_SS	467500
TTM_RAT_ACV	10074

