VERSION	0.00.00	1.04.00
FES_MODE	0
BPM_DEF	148.000	148.000	148.000	148.000
MET_DEF	4	4
RESOLUTION	384
CLK_DEF	384
COMPATIBLE_CODE	MA2

BPM	0	0	148.000
MET	0	0	4	4

NMSTR	1	0	6
NMSCL	1	0	6	96	672	1
NMSTR	4	0	2
NMSUR	4	0	2	96	384	4
BRSTR	6	0	4
NMSCR	6	0	4	96	96	7
BRHLD	6	0	5	1536
NMTAP	6	288	7
NMSTR	7	0	7
NMSCL	7	0	7	96	96	4
NMTAP	7	288	4
NMSTR	8	0	3
NMSCL	8	0	3	96	96	0
NMTAP	8	288	0
NMSTR	9	0	0
NMSCR	9	0	0	96	96	3
NMTAP	9	288	3
NMHLD	10	0	2	1536
NMTTP	10	192	4	E	0	M1
NMTAP	10	288	3
NMSTR	11	0	3
NMSI_	11	0	3	96	96	0
NMTAP	11	288	0
NMSTR	12	0	0
NMSCR	12	0	0	96	96	3
NMTAP	12	288	5
NMSTR	13	0	7
NMSCL	13	0	7	96	96	4
NMTAP	13	288	3
NMTAP	13	336	4
NMHLD	14	0	5	384
NMTTP	14	192	4	E	0	M1
NMTAP	14	288	2
NMTAP	14	336	2
NMHLD	15	0	1	384
NMTTP	15	192	2	E	0	M1
NMTAP	15	288	0
NMTAP	15	336	0
NMHLD	16	0	7	384
NMTTP	16	192	6	E	0	M1
NMTAP	16	288	4
NMTAP	16	336	4
NMHLD	17	0	3	384
NMTTP	17	192	4	E	0	M1
NMTAP	17	288	5
NMTAP	17	336	5
NMHLD	18	0	6	96
NMTAP	18	48	4
NMHLD	18	96	4	192
NMTAP	18	192	5
NMTAP	18	240	5
NMHLD	18	288	5	96
NMHLD	19	0	1	96
NMTAP	19	48	4
NMHLD	19	96	3	192
NMTAP	19	192	2
NMTAP	19	240	2
NMHLD	19	288	2	96
NMHLD	20	0	6	96
NMTAP	20	48	3
NMHLD	20	96	4	192
NMTAP	20	192	5
NMTAP	20	240	6
NMHLD	20	288	7	432
NMSTR	21	0	2
NMSI_	21	0	2	96	48	4
BRTAP	21	192	1
NMSTR	21	288	0
NMSSL	21	288	0	96	96	4
NMHLD	21	336	0	384
NMTAP	22	144	5
NMTAP	22	192	5
NMSTR	22	288	7
NMSLL	22	288	7	96	96	3
NMHLD	22	336	7	384
NMTAP	23	144	2
NMTAP	23	192	2
NMSTR	23	288	0
NMSSL	23	288	0	96	96	4
NMHLD	23	336	0	384
NMTAP	24	144	5
NMTAP	24	192	5
NMSTR	24	288	7
NMSLL	24	288	7	96	96	3
NMHLD	24	336	7	384
NMTAP	25	144	1
NMTAP	25	192	1
NMSTR	25	288	2
NMSLL	25	288	2	96	96	4
NMHLD	25	336	2	384
NMTAP	26	144	5
NMTAP	26	192	5
NMSTR	26	288	6
NMSLL	26	288	6	96	96	0
NMHLD	26	336	6	384
NMTAP	27	144	7
NMTAP	27	192	7
NMSTR	27	288	0
NMSCR	27	288	0	96	96	4
NMHLD	27	336	0	384
NMTAP	28	144	6
NMTAP	28	192	6
NMSTR	28	288	4
NMSCR	28	288	4	96	96	0
NMHLD	28	336	4	432
CNSUR	29	96	0	0	144	1
BRTAP	29	288	0
BRTAP	29	336	0
NMHLD	30	0	0	48
NMHLD	30	48	2	48
NMHLD	30	96	3	48
NMHLD	30	144	5	48
NMHLD	30	192	0	48
NMHLD	30	240	2	48
NMHLD	30	288	3	48
NMHLD	30	336	5	48
NMHLD	31	0	0	48
NMHLD	31	48	2	48
NMHLD	31	96	3	48
EXHLD	31	144	5	240
NMSTR	31	192	4
NMSI_	31	192	4	96	48	0
BRTAP	31	288	4
EXHLD	32	0	0	48
NMHLD	32	48	2	48
NMHLD	32	96	3	48
NMHLD	32	144	5	48
NMHLD	32	192	0	48
NMHLD	32	240	2	48
NMHLD	32	288	3	48
NMHLD	32	336	5	48
NMHLD	33	0	0	48
NMHLD	33	48	2	48
NMHLD	33	96	3	48
EXHLD	33	144	5	1008
NMTAP	33	192	4
NMSTR	33	288	4
NMSI_	33	288	4	96	48	7
NMTAP	34	0	4
NMSTR	34	96	0
NMSI_	34	96	0	96	48	3
NMTAP	34	192	0
NMSTR	34	288	4
NMSI_	34	288	4	96	48	2
NMSTR	35	0	4
NMSI_	35	0	4	96	48	6
NMSTR	35	96	4
NMSUL	35	96	4	96	96	3
NMHLD	36	0	4	192
NMTAP	36	96	3
NMHLD	36	192	3	96
NMHLD	36	288	1	96
NMHLD	37	0	6	384
NMSTR	37	96	0
NMSI_	37	96	0	96	48	4
BRTAP	37	192	0
NMHLD	38	0	2	72
NMTAP	38	48	4
NMHLD	38	72	4	72
NMTAP	38	120	6
NMHLD	38	144	6	72
NMTAP	38	192	0
NMHLD	38	216	0	72
NMTAP	38	264	2
NMHLD	38	288	2	72
NMTAP	38	336	4
NMHLD	38	360	4	72
NMTAP	39	24	6
NMHLD	39	48	6	72
NMTAP	39	96	0
NMHLD	39	120	0	72
NMSTR	39	168	2
NMSUL	39	168	2	96	120	1
NMHLD	39	192	2	768
CNSCL	40	0	1	0	96	3
NMTTP	40	192	3	A	0	M1
NMSTR	40	336	4
BRSI_	40	336	4	96	48	7
NMTAP	41	0	5
NMHLD	41	192	7	72
NMHLD	41	264	5	72
NMHLD	41	336	4	768
NMSTR	42	0	3
NMSCL	42	0	3	96	48	0
NMSTR	42	192	3
NMSCR	42	192	3	96	48	6
NMSTR	43	0	3
NMSXL	43	0	3	96	144	2
NMHLD	43	336	1	48
NMHLD	44	0	5	48
NMHLD	44	48	2	48
NMHLD	44	96	6	48
NMHLD	44	144	3	48
NMHLD	44	192	6	48
NMHLD	44	240	3	48
NMHLD	44	288	5	48
NMHLD	44	336	2	48
NMHLD	45	0	4	48
NMHLD	45	48	1	144
NMHLD	45	96	3	192
BRHLD	45	288	0	96
NMHLD	46	0	7	72
NMTAP	46	48	5
NMHLD	46	72	5	72
NMTAP	46	120	3
NMHLD	46	144	3	72
NMTAP	46	192	1
NMHLD	46	216	1	72
NMTAP	46	264	7
NMHLD	46	288	7	72
NMTAP	46	336	5
NMHLD	46	360	5	72
NMTAP	47	24	3
NMHLD	47	48	3	72
NMTAP	47	96	1
NMHLD	47	120	1	72
NMSTR	47	168	7
NMSI_	47	168	7	96	48	1
NMHLD	47	192	7	384
CNSI_	47	312	1	0	48	6
CNSI_	47	360	6	0	48	2
CNSI_	48	24	2	0	48	5
CNSI_	48	72	5	0	48	3
NMHLD	48	192	2	384
NMSTR	48	336	6
BRSI_	48	336	6	96	48	3
NMTAP	49	0	7
NMHLD	49	192	5	72
NMHLD	49	264	6	72
NMHLD	49	336	7	624
NMSTR	50	0	0
NMSCR	50	0	0	96	48	3
NMSTR	50	192	0
NMSCL	50	192	0	96	48	5
NMSTR	51	0	0
NMSI_	51	0	0	96	48	4
NMHLD	51	192	1	384
NMTAP	51	336	3
NMSTR	52	0	2
NMSI_	52	0	2	96	48	5
NMHLD	52	192	6	144
NMTAP	52	264	2
NMHLD	52	336	0	240
BRHLD	53	0	7	384
NMHLD	54	0	2	24
NMHLD	54	24	3	24
NMHLD	54	48	2	24
NMHLD	54	72	3	24
EXHLD	54	96	1	48
NMHLD	54	144	5	24
NMHLD	54	168	4	24
NMHLD	54	192	5	24
NMHLD	54	216	4	24
EXHLD	54	240	6	48
NMHLD	54	288	2	24
NMHLD	54	312	3	24
NMHLD	54	336	2	24
NMHLD	54	360	3	24
EXHLD	55	0	1	48
NMHLD	55	48	5	24
NMHLD	55	72	4	24
NMHLD	55	96	5	24
NMHLD	55	120	4	24
EXHLD	55	144	6	48
NMHLD	55	192	1	24
NMHLD	55	216	3	24
NMHLD	55	240	1	24
NMHLD	55	264	3	24
EXHLD	55	288	0	48
NMHLD	55	336	6	24
NMHLD	55	360	4	24
NMHLD	56	0	6	24
NMHLD	56	24	4	24
EXHLD	56	48	7	48
NMHLD	56	96	1	24
NMHLD	56	120	3	24
NMHLD	56	144	1	24
NMHLD	56	168	3	24
EXHLD	56	192	0	48
NMHLD	56	240	6	24
NMHLD	56	264	4	24
NMHLD	56	288	6	24
NMHLD	56	312	4	24
EXHLD	56	336	7	48
NMHLD	57	0	1	24
NMHLD	57	24	3	24
NMHLD	57	48	2	24
NMHLD	57	72	3	24
EXHLD	57	96	0	48
NMHLD	57	144	6	24
NMHLD	57	168	4	24
NMHLD	57	192	5	24
NMHLD	57	216	4	24
EXHLD	57	240	7	48
NMHLD	57	288	1	24
NMHLD	57	312	3	24
NMHLD	57	336	2	24
NMHLD	57	360	3	24
EXHLD	58	0	0	48
NMHLD	58	48	6	24
NMHLD	58	72	4	24
NMHLD	58	96	5	24
NMHLD	58	120	4	24
EXHLD	58	144	7	48
NMHLD	58	192	1	24
NMHLD	58	216	3	24
NMHLD	58	240	1	24
NMHLD	58	264	3	24
EXHLD	58	288	7	48
NMHLD	58	336	6	24
NMHLD	58	360	4	24
NMHLD	59	0	6	24
NMHLD	59	24	4	24
EXHLD	59	48	0	48
NMHLD	59	96	1	24
NMHLD	59	120	3	24
NMHLD	59	144	1	24
NMHLD	59	168	3	24
EXHLD	59	192	7	48
NMHLD	59	240	6	24
NMHLD	59	264	4	24
NMHLD	59	288	6	24
NMHLD	59	312	4	24
EXHLD	59	336	0	48
NMHLD	60	0	2	24
NMHLD	60	24	3	24
NMHLD	60	48	2	24
NMHLD	60	72	3	24
EXHLD	60	96	1	48
NMHLD	60	144	5	24
NMHLD	60	168	4	24
NMHLD	60	192	5	24
NMHLD	60	216	4	24
EXHLD	60	240	6	48
NMHLD	60	288	1	24
NMHLD	60	312	3	24
NMHLD	60	336	1	24
NMHLD	60	360	3	24
EXHLD	61	0	0	48
NMHLD	61	48	6	24
NMHLD	61	72	4	24
NMHLD	61	96	6	24
NMHLD	61	120	4	24
EXHLD	61	144	7	48
NMHLD	61	192	2	24
NMHLD	61	216	3	24
NMHLD	61	240	2	24
NMHLD	61	264	3	24
BXHLD	61	288	0	96
NMHLD	62	0	6	24
NMHLD	62	24	7	24
NMHLD	62	48	6	24
NMHLD	62	72	7	24
EXHLD	62	96	5	48
NMHLD	62	144	1	24
NMHLD	62	168	0	24
NMHLD	62	192	1	24
NMHLD	62	216	0	24
EXHLD	62	240	2	48
NMHLD	62	288	6	24
NMHLD	62	312	7	24
NMHLD	62	336	6	24
NMHLD	62	360	7	24
EXHLD	63	0	5	48
NMHLD	63	48	1	24
NMHLD	63	72	0	24
NMHLD	63	96	1	24
NMHLD	63	120	0	24
EXHLD	63	144	2	48
NMHLD	63	192	6	24
NMHLD	63	216	7	24
NMHLD	63	240	6	24
NMHLD	63	264	7	24
EXHLD	63	288	4	48
NMHLD	63	336	1	24
NMHLD	63	360	0	24
NMHLD	64	0	1	24
NMHLD	64	24	0	24
EXHLD	64	48	3	48
NMHLD	64	96	6	24
NMHLD	64	120	7	24
NMHLD	64	144	6	24
NMHLD	64	168	7	24
EXHLD	64	192	4	48
NMHLD	64	240	1	24
NMHLD	64	264	0	24
NMHLD	64	288	1	24
NMHLD	64	312	0	24
EXHLD	64	336	3	48
NMHLD	65	0	5	24
NMHLD	65	24	7	24
NMHLD	65	48	6	24
NMHLD	65	72	7	24
EXHLD	65	96	4	48
NMHLD	65	144	2	24
NMHLD	65	168	0	24
NMHLD	65	192	1	24
NMHLD	65	216	0	24
EXHLD	65	240	3	48
NMHLD	65	288	5	24
NMHLD	65	312	7	24
NMHLD	65	336	6	24
NMHLD	65	360	7	24
EXHLD	66	0	4	48
BXHLD	66	48	1	24
NMHLD	66	72	0	24
NMHLD	66	96	1	24
NMHLD	66	120	0	24
BXHLD	66	144	3	24
BXHLD	66	168	4	24
BXHLD	66	192	7	24
NMHLD	66	216	6	24
NMHLD	66	240	7	24
NMHLD	66	264	6	24
BXHLD	66	288	3	24
BXHLD	66	312	4	24
BXHLD	66	336	1	24
NMHLD	66	360	0	24
NMHLD	67	0	1	24
NMHLD	67	24	0	24
BXHLD	67	48	3	24
BXHLD	67	72	4	24
BXHLD	67	96	7	24
NMHLD	67	120	6	24
NMHLD	67	144	7	24
NMHLD	67	168	6	24
BXHLD	67	192	3	24
BXHLD	67	216	4	24
BXHLD	67	240	1	24
NMHLD	67	264	0	24
NMHLD	67	288	1	24
NMHLD	67	312	0	24
BXHLD	67	336	3	24
BXHLD	67	360	4	24
NMHLD	68	0	2	24
NMHLD	68	24	4	24
NMHLD	68	48	2	24
NMHLD	68	72	4	24
NMHLD	68	96	1	24
NMHLD	68	120	5	24
NMHLD	68	144	2	24
NMHLD	68	168	4	24
NMHLD	68	192	2	24
NMHLD	68	216	4	24
NMHLD	68	240	1	24
NMHLD	68	264	5	24
NMHLD	68	288	2	24
NMHLD	68	312	4	24
NMHLD	68	336	1	24
NMHLD	68	360	5	24
BRHLD	69	0	0	4032
NMTTP	70	0	5	A	0	M1
NMTTP	70	72	6	A	0	M1
NMTTP	70	144	4	B	0	M1
NMTTP	70	216	6	B	0	M1
NMTTP	70	288	2	A	0	M1
NMTTP	70	360	1	A	0	M1
NMTTP	71	48	3	B	0	M1
NMTTP	71	120	1	B	0	M1
NMTHO	71	192	0	384	C	0	M1
NMTTP	73	0	7	A	0	M1
NMSTR	73	192	6
NMSCL	73	192	6	96	192	2
NMSTR	74	192	2
NMSCR	74	192	2	96	192	6
NMSTR	75	192	6
NMSCL	75	192	6	96	144	3
NMSTR	76	192	2
NMSCR	76	192	2	96	144	5
NMSTR	77	192	5
NMSUL	77	192	5	96	480	3

T_REC_TAP	62
T_REC_BRK	5
T_REC_XTP	0
T_REC_BXX	0
T_REC_HLD	246
T_REC_XHO	34
T_REC_BHO	4
T_REC_BXH	16
T_REC_STR	40
T_REC_BST	1
T_REC_XST	0
T_REC_XBS	0
T_REC_TTP	15
T_REC_THO	1
T_REC_SLD	39
T_REC_BSL	2
T_REC_ALL	465
T_NUM_TAP	117
T_NUM_BRK	28
T_NUM_HLD	281
T_NUM_SLD	39
T_NUM_ALL	465
T_JUDGE_TAP	123
T_JUDGE_HLD	699
T_JUDGE_SLD	41
T_JUDGE_ALL	863
TTM_EACHPAIRS	1
TTM_SCR_TAP	58500
TTM_SCR_BRK	72800
TTM_SCR_HLD	281000
TTM_SCR_SLD	58500
TTM_SCR_ALL	470800
TTM_SCR_S	454000
TTM_SCR_SS	468000
TTM_RAT_ACV	10059

