VERSION	0.00.00	1.04.00
FES_MODE	0
BPM_DEF	148.000	148.000	148.000	148.000
MET_DEF	4	4
RESOLUTION	384
CLK_DEF	384
COMPATIBLE_CODE	MA2

BPM	0	0	148.000
MET	0	0	4	4

NMHLD	1	0	2	1800
NMSTR	1	0	4
NMSUL	1	0	4	96	480	3
NMSTR	3	0	3
NMSUR	3	0	3	96	480	5
NMTHO	5	264	0	120	C	0	M1
EXHLD	6	0	1	384
NMTAP	6	192	0
NMHLD	7	0	3	384
NMTAP	7	192	4
NMHLD	8	0	4	192
NMTAP	8	192	6
NMTAP	9	0	6
NMTAP	9	96	6
NMTAP	9	192	6
NMTAP	9	192	7
NMHLD	10	0	5	384
NMTAP	10	192	7
NMHLD	11	0	7	384
NMTAP	11	192	0
NMHLD	12	0	0	192
NMTAP	12	192	2
NMTAP	13	0	3
NMTAP	13	0	4
NMTAP	13	96	3
NMTAP	13	96	4
BRSTR	13	192	1
BRSI_	13	192	1	96	48	5
BRTAP	13	192	6
NMTAP	14	0	6
NMTAP	14	96	5
NMTAP	14	192	2
NMTAP	14	192	4
NMTAP	15	0	1
NMTAP	15	96	2
NMTAP	15	192	3
NMTAP	15	192	5
NMTAP	16	0	7
NMTAP	16	96	6
NMTAP	16	192	4
NMTAP	16	192	5
NMTAP	17	0	0
NMTAP	17	96	1
NMTAP	17	192	2
NMTAP	17	192	3
NMHLD	18	0	4	384
NMTAP	18	192	6
NMTAP	18	288	5
NMHLD	19	0	3	384
NMTAP	19	192	1
NMTAP	19	288	2
NMHLD	20	0	4	288
NMTAP	20	192	5
NMTAP	20	288	6
NMTAP	21	0	6
NMTAP	21	0	7
NMTAP	21	96	6
NMTAP	21	96	7
NMTAP	21	192	0
NMTAP	21	192	7
NMTAP	21	288	0
NMTAP	21	288	7
NMSTR	22	0	0
NMSCR	22	0	0	96	192	3
NMTAP	22	0	1
NMSTR	23	0	4
NMSCR	23	0	4	96	192	7
NMTAP	23	0	5
NMSTR	24	0	0
NMSCR	24	0	0	96	192	3
NMHLD	24	0	1	288
NMSTR	25	0	4
NMSCR	25	0	4	96	192	7
NMHLD	25	0	5	288
NMHLD	26	0	0	384
NMSTR	26	96	7
NMSI_	26	96	7	96	96	1
NMHLD	27	0	7	384
NMSTR	27	96	0
NMSI_	27	96	0	96	96	6
NMHLD	28	0	1	384
NMSTR	28	96	0
NMSUL	28	96	0	96	192	2
NMTTP	29	192	0	E	1	M1
NMTTP	29	192	0	A	0	M1
NMTTP	29	192	0	D	0	M1
NMTTP	29	192	7	A	0	M1
EXTAP	30	0	3
EXHLD	30	0	5	672
EXTAP	30	96	4
EXTAP	30	144	4
EXTAP	30	192	4
EXTAP	30	288	3
EXTAP	30	336	3
EXTAP	31	0	3
EXTAP	31	96	4
EXTAP	31	144	4
EXTAP	31	192	4
EXHLD	31	288	2	672
NMTAP	32	0	4
NMTAP	32	96	3
NMTAP	32	144	3
NMTAP	32	192	3
NMTAP	32	288	4
NMTAP	32	336	4
NMTAP	33	0	4
NMTAP	33	96	3
NMTAP	33	144	3
NMTAP	33	192	3
NMTAP	33	288	2
NMTAP	33	288	3
NMTTP	34	0	1	B	0	M1
NMTTP	34	0	1	E	0	M1
NMTAP	34	96	4
NMTAP	34	96	5
NMTTP	34	192	6	B	0	M1
NMTTP	34	192	6	A	0	M1
NMTAP	34	288	2
NMHLD	34	288	3	96
NMTAP	35	0	0
NMHLD	35	96	4	96
NMTAP	35	96	5
NMTAP	35	192	7
NMHLD	35	288	2	96
NMHLD	36	0	3	96
NMTAP	36	96	4
NMHLD	36	192	2	288
NMHLD	36	192	5	288
BRTAP	37	192	0
EXTAP	38	0	1
EXSTR	38	48	1
NMSI_	38	48	1	96	48	4
EXTAP	38	144	6
EXSTR	38	192	6
NMSI_	38	192	6	96	48	3
EXTAP	38	288	0
EXSTR	38	336	0
NMSI_	38	336	0	96	48	4
EXTAP	39	48	7
EXSTR	39	96	7
NMSI_	39	96	7	96	48	3
EXTAP	39	192	1
EXSTR	39	240	1
NMSXR	39	240	1	96	240	4
EXTAP	40	336	4
EXSTR	41	0	4
NMSXL	41	0	4	96	192	4
NMSXR	41	0	4	96	192	4
EXHLD	42	0	5	192
NMHLD	42	192	7	192
NMTAP	43	0	0
NMSTR	43	96	2
NMSI_	43	96	2	96	96	5
NMTAP	44	0	4
NMTAP	44	0	6
NMTAP	44	96	1
NMTAP	44	96	3
NMTAP	44	192	4
NMTAP	44	192	6
NMTAP	44	288	1
NMSTR	44	288	3
BRSXL	44	288	3	96	192	4
BRSXR	44	288	3	96	192	2
BRTAP	45	288	0
BRTAP	45	288	7
EXTAP	46	0	6
EXSTR	46	48	6
NMSI_	46	48	6	96	48	3
EXTAP	46	144	1
EXSTR	46	192	1
NMSI_	46	192	1	96	48	4
EXTAP	46	288	7
EXSTR	46	336	7
NMSI_	46	336	7	96	48	3
EXTAP	47	48	0
EXSTR	47	96	0
NMSI_	47	96	0	96	48	4
EXTAP	47	192	6
EXSTR	47	240	6
NMSI_	47	240	6	96	96	4
CNSI_	48	48	4	0	96	7
CNSI_	48	144	7	0	96	3
EXTAP	48	336	0
EXTAP	48	336	5
EXSTR	49	0	0
NMSI_	49	0	0	96	96	3
EXSTR	49	0	5
NMSI_	49	0	5	96	96	2
EXTAP	49	288	1
EXTAP	49	288	4
NMHLD	50	0	2	192
NMHLD	50	192	3	192
NMHLD	51	0	4	192
NMHLD	51	192	5	192
NMHLD	52	0	6	192
NMHLD	52	192	7	1536
NMTTP	53	0	3	B	0	M1
NMTTP	53	0	4	B	0	M1
NMTTP	53	192	0	C	0	M1
NMTAP	54	0	0
NMTAP	54	48	0
NMTAP	54	96	0
NMTAP	54	144	6
NMTAP	54	192	6
NMTAP	54	240	6
NMTAP	54	288	1
NMTAP	54	336	1
NMTAP	55	0	1
NMTAP	55	48	5
NMTAP	55	96	5
NMTAP	55	144	5
NMTAP	55	192	2
NMTAP	55	240	2
NMTAP	55	288	2
NMTAP	55	336	4
NMTAP	56	0	4
NMTAP	56	48	4
NMTAP	56	96	3
NMTAP	56	144	3
NMHLD	56	192	3	1008
NMTAP	56	240	7
NMTAP	56	288	7
NMTAP	56	336	7
NMTAP	57	0	0
NMTAP	57	48	0
NMTAP	57	96	0
NMTAP	57	144	6
NMTAP	57	192	6
NMTAP	57	240	6
NMTAP	57	288	1
NMTAP	57	336	1
NMTAP	58	0	1
NMTAP	58	48	5
NMTAP	58	96	5
NMTAP	58	144	5
NMTAP	58	192	2
NMTAP	58	240	2
NMTAP	58	288	2
NMTAP	58	336	4
NMTAP	59	0	4
NMHLD	59	48	4	864
NMTAP	59	96	3
NMTAP	59	144	3
NMTAP	59	192	3
NMTAP	59	240	5
NMTAP	59	288	5
NMTAP	59	336	5
NMTAP	60	0	2
NMTAP	60	48	2
NMTAP	60	96	2
NMTAP	60	144	6
NMTAP	60	192	6
NMTAP	60	240	6
NMTAP	60	288	1
NMTAP	60	336	1
NMTAP	61	0	1
NMTAP	61	48	7
NMTAP	61	96	7
NMTAP	61	144	7
NMTAP	61	192	0
NMTAP	61	240	0
BRTAP	61	288	0
BRTAP	61	288	7
NMTAP	62	0	0
NMHLD	62	0	1	1104
NMTAP	62	48	0
NMTAP	62	96	0
NMTAP	62	144	2
NMTAP	62	192	2
NMTAP	62	240	2
NMTAP	62	288	4
NMTAP	62	336	4
NMTAP	63	0	4
NMTAP	63	48	6
NMTAP	63	96	6
NMTAP	63	144	6
NMTAP	63	192	0
NMTAP	63	240	0
NMTAP	63	288	0
NMTAP	63	336	3
NMTAP	64	0	3
NMTAP	64	48	3
NMTAP	64	96	5
NMTAP	64	144	5
NMTAP	64	192	5
NMTAP	64	240	7
NMTAP	64	288	7
NMHLD	64	336	7	1200
NMTAP	65	0	1
NMTAP	65	48	1
NMTAP	65	96	1
NMTAP	65	144	3
NMTAP	65	192	3
NMTAP	65	240	3
NMTAP	65	288	5
NMTAP	65	336	5
NMTAP	66	0	5
NMTAP	66	48	6
NMTAP	66	96	6
NMTAP	66	144	6
NMTAP	66	192	0
NMTAP	66	240	0
NMTAP	66	288	0
NMTAP	66	336	2
NMTAP	67	0	2
NMTAP	67	48	2
NMTAP	67	96	4
NMTAP	67	144	4
NMTAP	67	192	4
NMTAP	67	240	6
NMTAP	67	288	6
NMTAP	67	336	6
NMTAP	68	0	0
NMTAP	68	48	0
NMTAP	68	96	0
NMTAP	68	144	7
NMTAP	68	192	7
NMTAP	68	240	7
BRSTR	68	288	0
BRSCR	68	288	0	96	288	7
BRSTR	68	288	7
BRSCL	68	288	7	96	288	0
NMTTP	70	0	0	E	0	M1
NMTTP	71	0	0	A	0	M1
NMTTP	71	0	1	A	0	M1
NMTTP	71	0	1	D	0	M1
NMTTP	71	0	6	A	0	M1
NMTTP	71	0	7	A	0	M1
NMTTP	71	0	7	D	0	M1
NMTTP	72	0	2	B	0	M1
NMTTP	72	0	2	E	0	M1
NMTTP	72	0	5	B	0	M1
NMTTP	72	0	6	E	0	M1
NMTTP	73	0	3	B	0	M1
NMTTP	73	0	4	B	0	M1
NMTTP	73	0	4	E	0	M1
NMSTR	74	0	3
NMSXR	74	0	3	96	288	3
NMSTR	75	0	4
BRSXL	75	0	4	96	288	4
NMSTR	76	0	3
NMSUL	76	0	3	96	288	4
NMTAP	77	192	3
NMTAP	77	192	4
NMHLD	78	0	2	588
NMTAP	78	0	5
NMTHO	79	204	0	84	C	0	M1

T_REC_TAP	189
T_REC_BRK	6
T_REC_XTP	25
T_REC_BXX	0
T_REC_HLD	32
T_REC_XHO	4
T_REC_BHO	0
T_REC_BXH	0
T_REC_STR	14
T_REC_BST	3
T_REC_XST	13
T_REC_XBS	0
T_REC_TTP	25
T_REC_THO	2
T_REC_SLD	26
T_REC_BSL	6
T_REC_ALL	345
T_NUM_TAP	266
T_NUM_BRK	15
T_NUM_HLD	38
T_NUM_SLD	26
T_NUM_ALL	345
T_JUDGE_TAP	275
T_JUDGE_HLD	349
T_JUDGE_SLD	32
T_JUDGE_ALL	656
TTM_EACHPAIRS	36
TTM_SCR_TAP	133000
TTM_SCR_BRK	39000
TTM_SCR_HLD	38000
TTM_SCR_SLD	39000
TTM_SCR_ALL	249000
TTM_SCR_S	240100
TTM_SCR_SS	247500
TTM_RAT_ACV	10060

