VERSION	0.00.00	1.04.00
FES_MODE	0
BPM_DEF	180.000	180.000	180.000	180.000
MET_DEF	4	4
RESOLUTION	384
CLK_DEF	384
COMPATIBLE_CODE	MA2

BPM	0	0	180.000
MET	0	0	4	4

EXTAP	1	336	0
EXTAP	1	336	6
EXTAP	1	352	1
EXTAP	1	352	5
EXTAP	1	368	2
EXTAP	1	368	4
EXSTR	2	0	3
NMSCL	2	0	3	96	2784	3
NMSCR	2	0	3	96	2784	3
EXTAP	9	336	1
EXTAP	9	336	7
EXTAP	9	352	2
EXTAP	9	352	6
EXTAP	9	368	3
EXTAP	9	368	5
EXSTR	10	0	4
NMSCR	10	0	4	96	2976	3
NMTTP	10	192	4	E	0	M1
NMTTP	11	0	3	E	0	M1
NMTTP	11	192	2	E	0	M1
NMTTP	12	0	1	E	0	M1
NMTTP	12	192	0	E	0	M1
NMTTP	13	0	7	E	0	M1
NMTTP	13	192	6	E	0	M1
NMTTP	14	0	5	E	0	M1
NMTTP	14	192	3	B	0	M1
NMTTP	15	0	2	B	0	M1
NMTTP	15	192	1	B	0	M1
NMTTP	16	0	0	B	0	M1
NMTTP	16	192	7	B	0	M1
NMTTP	17	0	6	B	0	M1
NMTTP	17	192	5	B	0	M1
NMTTP	18	0	4	B	0	M1
NMTTP	18	288	0	C	1	M1
NMTAP	19	0	2
NMTAP	19	0	3
NMTAP	19	96	0
NMTAP	19	96	6
NMTAP	19	240	4
NMTAP	19	288	3
NMTAP	19	288	5
NMTAP	20	0	7
NMTAP	20	48	7
NMTAP	20	96	0
NMTAP	20	96	6
NMTAP	20	144	5
NMTAP	20	168	4
NMTAP	20	216	4
NMTAP	20	240	5
NMTAP	20	288	3
NMTAP	20	288	6
NMTAP	21	0	4
NMTAP	21	0	5
NMTAP	21	96	1
NMTAP	21	96	7
NMTAP	21	240	3
NMTAP	21	288	2
NMTAP	21	288	4
NMTAP	22	0	0
NMTAP	22	48	0
NMTAP	22	96	1
NMTAP	22	96	7
NMTAP	22	144	2
NMTAP	22	168	3
NMTAP	22	216	3
NMTAP	22	240	2
NMTAP	22	288	1
NMTAP	22	288	4
NMTAP	23	0	6
NMTAP	23	24	4
NMTAP	23	48	5
NMTAP	23	72	4
NMTAP	23	96	6
NMTAP	23	144	2
NMTAP	23	168	3
NMTAP	23	216	1
NMTAP	23	240	0
NMTAP	23	288	2
NMTAP	23	312	3
NMTAP	23	360	1
NMTAP	24	0	0
NMTAP	24	48	5
NMTAP	24	72	4
NMTAP	24	120	6
NMTAP	24	144	7
NMTAP	24	192	5
NMTAP	24	216	4
NMTAP	24	264	6
NMTAP	24	288	7
NMTAP	24	336	0
NMTAP	24	336	5
NMTAP	25	0	1
NMTAP	25	24	3
NMTAP	25	48	2
NMTAP	25	72	3
NMTAP	25	96	1
NMTAP	25	144	5
NMTAP	25	168	4
NMTAP	25	216	2
NMTAP	25	240	3
NMTAP	25	288	5
NMTAP	25	312	4
NMTAP	25	360	2
NMTAP	26	0	3
NMTAP	26	48	1
NMTAP	26	72	0
NMTAP	26	120	6
NMTAP	26	144	7
NMTAP	26	192	1
NMTAP	26	216	0
NMTAP	26	264	6
NMTAP	26	288	7
NMTAP	26	336	0
NMTAP	26	336	5
NMTAP	27	0	2
NMTAP	27	0	3
NMTAP	27	96	0
NMTAP	27	96	6
NMTAP	27	240	3
NMTAP	27	288	0
NMTAP	27	288	6
NMTAP	28	0	1
NMTAP	28	48	1
NMTAP	28	96	0
NMTAP	28	96	2
NMTAP	28	144	3
NMTAP	28	168	4
NMTAP	28	216	6
NMTAP	28	240	4
NMTAP	28	288	3
NMTAP	28	288	5
NMTAP	29	0	4
NMTAP	29	0	6
NMTAP	29	96	1
NMTAP	29	96	7
NMTAP	29	240	4
NMTAP	29	288	1
NMTAP	29	288	7
NMTAP	30	0	6
NMTAP	30	48	6
NMTAP	30	96	5
NMTAP	30	96	7
NMTAP	30	144	4
NMTAP	30	168	3
NMTAP	30	216	1
NMTAP	30	240	3
NMTAP	30	288	2
NMTAP	30	288	4
NMTAP	31	0	1
NMTAP	31	24	3
NMTAP	31	48	2
NMTAP	31	72	3
NMTAP	31	96	1
NMTAP	31	144	6
NMTAP	31	168	7
NMTAP	31	216	5
NMTAP	31	240	4
NMTAP	31	288	2
NMTAP	31	312	3
NMTAP	31	360	1
NMTAP	32	0	0
NMTAP	32	48	6
NMTAP	32	72	7
NMTAP	32	120	5
NMTAP	32	144	4
NMTAP	32	192	2
NMTAP	32	216	3
NMTAP	32	264	1
NMTAP	32	288	0
NMTAP	32	336	2
NMTAP	32	336	7
NMTAP	33	0	6
NMTAP	33	24	4
NMTAP	33	48	5
NMTAP	33	72	4
NMTAP	33	96	6
NMTAP	33	144	2
NMTAP	33	168	3
NMTAP	33	216	6
NMTAP	33	240	7
NMTAP	33	288	5
NMTAP	33	312	4
NMTAP	33	360	1
NMTAP	34	0	0
NMTAP	34	48	2
NMTAP	34	72	3
NMTAP	34	120	6
NMTAP	34	144	7
NMTAP	34	192	5
NMTAP	34	216	4
NMTAP	34	264	1
NMTAP	34	288	0
NMTAP	34	336	2
NMTAP	34	336	7
EXSTR	35	0	1
NMSI_	35	0	1	96	48	4
NMTAP	35	48	1
NMTAP	35	96	1
NMSTR	35	192	5
NMSI_	35	192	5	96	48	0
NMSTR	36	0	7
NMSCL	36	0	7	96	192	3
EXTAP	36	72	0
NMTAP	36	144	1
NMTAP	36	192	1
NMTAP	36	288	2
EXSTR	37	0	2
NMSI_	37	0	2	96	48	6
NMTAP	37	48	2
NMTAP	37	96	2
NMSTR	37	192	4
NMSI_	37	192	4	96	48	7
NMSTR	38	0	6
NMSCR	38	0	6	96	192	2
NMTAP	38	72	5
NMTAP	38	144	4
NMTAP	38	192	4
NMTAP	38	288	3
EXSTR	39	0	4
NMSI_	39	0	4	96	48	0
NMTAP	39	48	4
EXTAP	39	96	4
NMSTR	39	192	2
NMSI_	39	192	2	96	48	7
NMSTR	40	0	0
NMSUR	40	0	0	96	192	3
NMTAP	40	72	7
NMTAP	40	144	6
NMTAP	40	192	6
NMTAP	40	288	5
NMSTR	41	0	3
NMSI_	41	0	3	96	48	0
NMSTR	41	0	5
NMSI_	41	0	5	96	48	0
NMTAP	41	48	3
NMTAP	41	48	5
NMTAP	41	96	3
NMTAP	41	96	5
EXSTR	41	192	2
NMSI_	41	192	2	96	48	4
EXSTR	41	192	6
NMSI_	41	192	6	96	48	4
NMTAP	42	0	6
NMTAP	42	0	7
NMTAP	42	48	6
NMTAP	42	48	7
NMTAP	42	96	0
NMTAP	42	96	5
NMTAP	42	144	1
NMTAP	42	144	4
NMTAP	42	192	2
NMTAP	42	216	3
NMTAP	42	240	2
NMTAP	42	288	1
NMTAP	42	288	4
NMTAP	43	0	0
NMHLD	43	0	6	96
NMTAP	43	24	1
NMTAP	43	48	2
NMTAP	43	72	3
BRTAP	43	96	4
NMHLD	43	192	0	96
NMTAP	43	192	6
NMTAP	43	216	5
NMTAP	43	240	4
NMTAP	43	264	3
BRTAP	43	288	2
NMTAP	44	0	1
NMHLD	44	0	7	96
NMTAP	44	24	2
NMTAP	44	48	3
NMTAP	44	72	4
BRTAP	44	96	5
NMHLD	44	192	1	96
NMTAP	44	192	7
NMTAP	44	216	6
NMTAP	44	240	5
NMTAP	44	264	4
BRTAP	44	288	3
NMTAP	45	0	6
NMTAP	45	24	7
NMTAP	45	48	6
NMTAP	45	72	7
NMHLD	45	96	6	72
NMHLD	45	168	5	72
NMHLD	45	240	4	72
NMHLD	45	312	3	72
NMHLD	46	0	1	72
NMHLD	46	72	0	72
NMHLD	46	144	7	72
NMHLD	46	216	6	72
NMTAP	46	288	5
NMTAP	47	0	0
NMTAP	47	0	6
NMTAP	47	24	1
NMTAP	47	48	2
NMTAP	47	72	3
BRTAP	47	96	4
NMTAP	47	96	5
NMTAP	47	192	1
NMTAP	47	192	7
NMTAP	47	216	6
NMTAP	47	240	5
NMTAP	47	264	4
NMTAP	47	288	2
BRTAP	47	288	3
NMTAP	48	0	0
NMTAP	48	0	1
NMTAP	48	24	2
NMTAP	48	48	3
NMTAP	48	72	4
BRTAP	48	96	5
NMTAP	48	96	6
NMTAP	48	192	0
NMTAP	48	192	7
NMTAP	48	216	6
NMTAP	48	240	5
NMTAP	48	264	4
NMTAP	48	288	2
BRTAP	48	288	3
NMTAP	49	0	1
NMTAP	49	24	7
NMTAP	49	48	1
NMTAP	49	72	7
NMHLD	49	96	1	72
NMHLD	49	168	3	72
NMHLD	49	240	5	72
NMHLD	49	312	3	72
NMHLD	50	0	1	72
NMHLD	50	72	7	72
NMHLD	50	144	5	72
NMHLD	50	216	7	72
NMTAP	50	288	1
NMTTP	51	0	0	B	0	M1
NMTTP	51	0	1	B	0	M1
NMTTP	51	192	6	B	0	M1
NMTTP	51	192	7	B	0	M1
NMTTP	52	0	3	B	0	M1
NMTTP	52	0	4	B	0	M1
NMTTP	52	0	4	E	0	M1
NMTTP	52	72	3	E	0	M1
NMTTP	52	144	2	E	0	M1
NMTTP	52	192	1	E	0	M1
NMTTP	52	264	0	B	0	M1
NMTTP	52	264	0	E	0	M1
NMTTP	52	264	7	B	0	M1
NMTTP	52	336	7	E	0	M1
NMTTP	53	0	6	E	0	M1
NMTTP	53	192	0	C	0	M1
NMTTP	53	192	2	E	0	M1
NMTTP	53	192	6	E	0	M1
NMTTP	53	288	0	E	0	M1
NMTTP	53	336	0	C	0	M1
NMTTP	54	0	4	E	0	M1
NMTAP	54	192	3
NMTAP	54	216	4
NMTAP	54	240	3
NMTAP	54	288	2
NMTAP	54	288	5
NMTAP	55	0	1
NMTAP	55	0	5
NMTAP	55	48	1
NMTAP	55	96	1
NMTAP	55	144	2
NMTAP	55	144	3
NMTAP	55	192	2
NMTAP	55	240	2
NMTAP	55	288	0
NMTAP	55	288	1
NMTAP	55	336	1
NMTAP	55	336	7
NMTAP	56	0	1
NMTAP	56	0	6
NMTAP	56	48	6
NMTAP	56	96	6
NMTAP	56	144	4
NMTAP	56	144	5
NMTAP	56	192	5
NMTAP	56	240	5
NMTAP	56	288	6
NMTAP	56	288	7
NMTAP	56	336	0
NMTAP	56	336	6
EXHLD	57	0	1	192
EXTAP	57	0	5
EXTAP	57	24	4
EXTAP	57	48	3
EXTAP	57	72	2
EXTAP	57	96	0
EXTAP	57	120	7
EXTAP	57	144	6
EXTAP	57	168	5
EXHLD	57	192	4	192
EXTAP	57	216	2
EXTAP	57	240	3
EXTAP	57	264	5
EXTAP	57	288	6
EXTAP	57	312	7
EXTAP	57	336	0
EXTAP	57	360	1
EXSTR	58	0	2
NMSI_	58	0	2	96	48	6
NMTAP	58	96	2
NMSTR	58	96	5
NMSI_	58	96	5	96	48	1
NMTAP	58	192	1
NMTAP	58	192	5
NMTAP	58	288	0
EXTAP	58	300	1
NMTAP	58	312	2
EXTAP	58	324	3
NMTAP	58	336	4
EXTAP	58	348	5
NMTAP	58	360	6
EXTAP	58	372	7
EXSTR	59	0	0
BRSF_	59	0	0	96	48	4
BXTAP	59	96	0
NMTAP	59	192	1
NMTAP	59	192	6
NMSTR	59	240	1
NMSI_	59	240	1	96	48	6
NMTAP	59	288	0
NMTAP	59	336	1
NMSTR	59	336	5
NMSI_	59	336	5	96	48	2
NMTAP	60	0	4
NMSTR	60	48	0
NMSI_	60	48	0	96	48	4
NMTAP	60	48	5
NMTAP	60	96	1
NMTAP	60	144	0
NMSTR	60	144	7
NMSI_	60	144	7	96	48	3
NMTAP	60	192	6
NMTAP	60	240	3
NMTAP	60	240	7
NMTAP	60	288	2
NMTAP	60	336	4
NMSTR	61	0	1
NMSI_	61	0	1	96	48	5
NMTAP	61	0	5
BRTAP	61	96	1
NMTAP	61	96	7
NMTAP	61	192	2
NMTAP	61	192	6
NMSTR	61	240	2
NMSI_	61	240	2	96	48	5
NMTAP	61	288	1
NMTAP	61	336	2
NMSTR	61	336	6
NMSI_	61	336	6	96	48	1
NMTAP	62	0	7
NMSTR	62	48	3
NMSV_	62	48	3	96	48	0
NMTAP	62	48	6
NMTAP	62	96	2
NMTAP	62	144	3
NMSTR	62	144	4
NMSV_	62	144	4	96	48	7
NMTAP	62	192	5
NMTAP	62	240	3
NMTAP	62	240	4
NMTAP	62	288	2
NMSTR	63	0	0
NMSI_	63	0	0	96	48	4
NMTAP	63	24	7
NMTAP	63	48	1
NMTAP	63	72	7
BRTAP	63	96	0
EXTAP	63	192	4
EXTAP	63	192	5
NMTAP	63	240	3
NMTAP	63	240	6
NMTAP	63	288	1
NMTAP	63	288	5
EXSTR	63	336	0
NMSCL	63	336	0	96	48	4
NMTAP	63	360	1
NMTAP	64	0	2
NMTAP	64	24	3
EXTAP	64	48	0
EXTAP	64	48	4
EXSTR	64	144	7
NMSCL	64	144	7	96	48	3
NMTAP	64	168	0
NMTAP	64	192	1
NMTAP	64	216	2
EXTAP	64	240	3
EXTAP	64	240	7
EXTAP	64	288	1
EXTAP	64	336	1
NMSTR	65	0	0
NMSI_	65	0	0	96	48	4
NMTAP	65	24	7
NMTAP	65	48	1
NMTAP	65	72	6
BRTAP	65	96	0
NMTAP	65	192	2
EXTAP	65	216	4
NMTAP	65	240	2
NMTAP	65	264	4
NMTAP	65	288	3
NMTAP	65	312	5
NMTAP	65	336	3
NMTAP	65	360	5
NMTAP	66	0	1
NMTAP	66	24	0
NMTAP	66	48	2
NMTAP	66	72	7
NMTAP	66	96	3
NMTAP	66	120	6
NMTAP	66	144	4
NMTAP	66	168	5
NMTAP	66	192	2
NMTAP	66	216	3
NMTAP	66	240	1
NMTAP	66	264	4
EXTAP	66	288	0
EXTAP	66	300	7
EXTAP	66	312	6
EXTAP	66	324	5
EXTAP	66	336	4
EXTAP	66	348	3
EXTAP	66	360	2
EXTAP	66	372	1
EXSTR	67	0	0
NMSI_	67	0	0	96	48	4
EXTAP	67	0	5
NMTAP	67	96	7
NMSTR	67	192	3
NMSV_	67	192	3	96	48	0
EXTAP	67	192	5
NMTAP	67	240	5
NMTAP	67	336	6
NMSTR	68	0	1
NMSV_	68	0	1	96	48	4
NMTAP	68	0	7
NMTAP	68	48	6
NMTAP	68	96	5
NMTAP	68	192	3
NMSTR	68	192	5
NMSV_	68	192	5	96	48	0
NMTAP	68	240	2
NMTAP	68	288	1
NMTAP	69	0	7
NMTAP	69	24	6
NMTAP	69	48	5
NMTAP	69	72	4
NMTAP	69	96	3
NMTAP	69	96	7
EXTAP	69	192	0
EXTAP	69	192	7
NMTAP	69	240	2
BRTAP	69	264	1
BRTAP	69	264	3
NMTAP	69	312	5
BRTAP	69	336	4
BRTAP	69	336	6
EXTAP	70	0	0
EXTAP	70	0	7
NMTAP	70	48	1
BRTAP	70	72	0
BRTAP	70	72	2
NMTAP	70	120	6
BRTAP	70	144	5
BRTAP	70	144	7
NMTAP	70	240	0
NMTAP	70	240	7
NMTAP	70	336	1
NMTAP	70	336	3
NMTAP	71	0	2
NMTAP	71	24	3
NMTAP	71	48	1
NMTAP	71	96	5
NMTAP	71	120	4
NMTAP	71	144	6
NMTAP	71	192	2
NMTAP	71	216	3
NMTAP	71	240	1
NMTAP	71	288	5
NMTAP	71	312	4
NMTAP	71	336	6
NMTAP	72	0	2
NMTAP	72	24	3
NMTAP	72	48	0
NMTAP	72	96	5
NMTAP	72	120	4
NMTAP	72	144	7
NMTAP	72	192	2
NMTAP	72	216	4
NMTAP	72	240	0
NMTAP	72	288	5
NMTAP	72	312	3
NMTAP	72	336	7
NMTAP	73	0	2
NMTAP	73	24	0
NMTAP	73	48	2
NMTAP	73	72	0
NMTAP	73	96	2
NMTAP	73	120	7
NMTAP	73	144	2
NMTAP	73	168	6
NMTAP	73	192	3
NMTAP	73	216	6
NMTAP	73	240	4
NMTAP	73	264	6
NMTAP	73	288	5
NMTAP	73	312	6
NMTAP	73	336	7
NMTAP	73	360	6
NMTAP	74	0	0
NMTAP	74	24	6
NMTAP	74	48	0
NMTAP	74	72	6
NMTAP	74	96	0
NMTAP	74	120	6
NMTAP	74	144	0
NMTAP	74	168	6
NMTAP	74	192	1
NMTAP	74	204	2
NMTAP	74	216	3
NMTAP	74	228	4
NMTAP	74	240	5
NMTAP	74	252	6
NMTAP	74	264	7
NMTAP	74	276	0
NMTAP	74	288	1
NMTAP	74	300	2
NMTAP	74	312	3
NMTAP	74	324	4
NMTAP	74	336	5
NMTAP	74	348	6
NMTAP	74	360	7
NMTAP	74	372	0
EXHLD	75	0	1	1152
EXTAP	75	0	5
NMTTP	75	192	0	B	0	M1
NMTTP	75	204	1	B	0	M1
NMTTP	76	0	2	B	0	M1
NMTTP	76	144	3	B	0	M1
NMTTP	76	168	4	B	0	M1
NMTTP	76	192	5	E	0	M1
NMTTP	77	0	5	B	0	M1
NMTTP	77	0	6	B	0	M1
NMTTP	77	192	6	E	0	M1
NMTTP	77	200	5	B	0	M1
NMTTP	77	208	4	B	0	M1
NMTTP	77	216	4	E	0	M1
NMTTP	78	0	1	B	0	M1
NMTTP	78	0	2	B	0	M1
NMTTP	78	0	2	E	0	M1
NMTAP	78	192	4
NMTAP	78	192	5
NMTAP	78	240	4
NMTAP	78	240	5
NMTAP	78	288	3
NMTAP	78	288	6
BRTAP	79	0	2
NMTAP	79	32	2
NMTAP	79	64	2
NMTAP	79	96	1
NMTAP	79	128	1
NMTAP	79	160	1
BRTAP	79	192	0
NMTAP	79	224	0
NMTAP	79	256	0
NMTAP	79	288	7
NMTAP	79	320	7
NMTAP	79	352	7
BRTAP	80	0	6
NMTAP	80	32	6
NMTAP	80	64	6
NMTAP	80	96	5
NMTAP	80	128	5
NMTAP	80	160	5
BRTAP	80	192	4
NMTAP	80	224	4
NMTAP	80	256	4
NMTAP	80	288	3
NMTAP	80	320	3
NMTAP	80	352	3
NMHLD	81	0	2	288
NMHLD	81	192	4	96
NMSTR	82	0	3
NMSI_	82	0	3	96	48	7
NMTAP	82	48	3
EXSTR	82	192	0
NMSV_	82	192	0	96	48	3
EXSTR	82	192	6
NMSV_	82	192	6	96	48	3
NMTAP	82	208	1
NMTAP	82	208	5
NMTAP	82	224	2
NMTAP	82	224	4
NMTAP	82	240	3
BRTAP	82	288	0
BRTAP	82	288	6
NMTAP	83	0	5
NMTAP	83	48	5
NMTAP	83	96	4
NMTAP	83	96	6
NMTAP	83	144	5
NMSTR	83	192	1
NMSI_	83	192	1	96	48	4
NMTAP	83	216	0
NMTAP	83	240	2
NMTAP	83	264	0
BRTAP	83	288	1
EXTAP	84	0	2
NMTAP	84	48	2
NMTAP	84	96	1
NMTAP	84	96	3
NMTAP	84	144	2
NMSTR	84	192	6
NMSI_	84	192	6	96	48	3
NMTAP	84	216	7
NMTAP	84	240	5
NMTAP	84	264	7
BRTAP	84	288	6
NMTAP	85	0	0
BRTAP	85	0	1
EXTAP	85	12	2
EXTAP	85	24	3
NMTAP	85	96	6
BRTAP	85	144	6
NMTAP	85	144	7
EXTAP	85	156	5
EXTAP	85	168	4
NMTAP	85	240	0
NMTAP	85	288	0
BRTAP	85	336	0
NMTAP	85	336	7
EXTAP	85	348	1
EXTAP	85	360	2
EXTAP	85	372	3
BRTAP	86	48	7
EXTAP	86	60	0
EXTAP	86	60	6
EXTAP	86	72	1
EXTAP	86	72	5
EXTAP	86	84	2
EXTAP	86	84	4
BXTAP	86	96	3
EXTAP	86	144	0
BRTAP	86	192	0
EXTAP	86	204	1
EXTAP	86	204	7
EXTAP	86	216	2
EXTAP	86	216	6
EXTAP	86	228	3
EXTAP	86	228	5
BXTAP	86	240	4
EXTAP	86	288	6
BRTAP	86	336	6
EXTAP	86	348	5
EXTAP	86	348	7
EXTAP	86	360	0
EXTAP	86	360	4
EXTAP	86	372	1
EXTAP	86	372	3
BXSTR	87	0	2
BRSCL	87	0	2	96	1344	4
NMSTR	90	288	3
NMSI_	90	288	3	96	48	7

T_REC_TAP	481
T_REC_BRK	33
T_REC_XTP	85
T_REC_BXX	3
T_REC_HLD	22
T_REC_XHO	3
T_REC_BHO	0
T_REC_BXH	0
T_REC_STR	27
T_REC_BST	0
T_REC_XST	14
T_REC_XBS	1
T_REC_TTP	53
T_REC_THO	0
T_REC_SLD	41
T_REC_BSL	2
T_REC_ALL	765
T_NUM_TAP	660
T_NUM_BRK	39
T_NUM_HLD	25
T_NUM_SLD	41
T_NUM_ALL	765
T_JUDGE_TAP	697
T_JUDGE_HLD	80
T_JUDGE_SLD	43
T_JUDGE_ALL	820
TTM_EACHPAIRS	115
TTM_SCR_TAP	330000
TTM_SCR_BRK	101400
TTM_SCR_HLD	25000
TTM_SCR_SLD	61500
TTM_SCR_ALL	517900
TTM_SCR_S	498600
TTM_SCR_SS	514000
TTM_RAT_ACV	10075

