VERSION	0.00.00	1.04.00
FES_MODE	0
BPM_DEF	180.000	180.000	180.000	180.000
MET_DEF	4	4
RESOLUTION	384
CLK_DEF	384
COMPATIBLE_CODE	MA2

BPM	0	0	180.000
MET	0	0	4	4

BXSTR	2	0	0
NMSXR	2	0	0	96	672	1
BXHLD	2	0	4	2880
CNSI_	4	0	1	0	768	3
CNSUR	6	0	3	0	384	5
CNSCR	7	0	5	0	960	3
NMHLD	10	0	2	144
NMTAP	10	144	3
NMTTP	10	192	3	E	0	M1
NMHLD	10	288	3	96
NMTAP	11	0	2
NMTAP	11	96	3
NMTAP	11	192	1
NMTAP	11	192	4
NMHLD	12	0	2	144
NMTAP	12	144	3
NMTTP	12	192	3	E	0	M1
NMHLD	12	288	4	96
NMTAP	13	0	3
NMTAP	13	96	4
NMTAP	13	192	2
NMTAP	13	192	5
NMHLD	14	0	5	144
NMTAP	14	144	4
NMTTP	14	192	5	E	0	M1
NMHLD	14	288	4	96
NMTAP	15	0	5
NMTAP	15	96	4
NMTAP	15	192	3
NMTAP	15	192	6
NMHLD	16	0	5	144
NMTAP	16	144	4
NMTTP	16	192	5	E	0	M1
NMHLD	16	288	3	96
NMTAP	17	0	4
NMTAP	17	96	3
NMTAP	17	96	5
NMSTR	17	192	2
NMSXL	17	192	2	96	288	4
NMSTR	17	192	6
NMSXL	17	192	6	96	288	0
EXTAP	18	288	3
EXTAP	18	288	7
EXSTR	19	0	1
NMSI_	19	0	1	96	48	3
EXTAP	19	0	5
NMTAP	19	96	3
NMTAP	19	240	4
NMTAP	19	288	2
NMTAP	19	288	4
NMSTR	20	0	5
NMSI_	20	0	5	96	48	3
NMTAP	20	96	4
NMTAP	20	240	2
NMTAP	20	288	2
NMTAP	20	288	4
NMHLD	21	0	1	96
NMTAP	21	96	3
NMTAP	21	144	3
NMTAP	21	240	2
NMTAP	21	240	4
NMTAP	21	336	3
NMTAP	21	336	5
NMTAP	22	48	2
NMTAP	22	48	4
NMTAP	22	144	1
NMTAP	22	144	3
NMTAP	22	240	0
NMTAP	22	288	0
NMTAP	22	288	7
NMTAP	23	0	2
NMSTR	23	0	6
NMSI_	23	0	6	96	48	4
NMTAP	23	96	4
NMTAP	23	240	3
NMTAP	23	288	3
NMTAP	23	288	5
NMSTR	24	0	2
NMSI_	24	0	2	96	48	4
NMTAP	24	96	3
NMTAP	24	240	5
NMTAP	24	288	3
NMTAP	24	288	5
NMHLD	25	0	6	96
NMTAP	25	96	4
NMTAP	25	144	4
NMTAP	25	240	3
NMTAP	25	240	5
NMTAP	25	336	2
NMTAP	25	336	4
NMTAP	26	48	3
NMTAP	26	48	5
NMTAP	26	144	4
NMTAP	26	144	6
NMTAP	26	240	7
NMTAP	26	288	0
NMTAP	26	288	7
EXSTR	27	0	1
NMSI_	27	0	1	96	48	7
EXTAP	27	0	5
NMHLD	27	96	3	144
NMTAP	27	240	0
NMTAP	27	288	0
NMTAP	27	288	4
NMTAP	28	0	1
NMSTR	28	0	5
NMSI_	28	0	5	96	48	3
NMHLD	28	96	2	144
NMTAP	28	240	4
NMTAP	28	288	1
NMTAP	28	288	4
NMTAP	29	0	0
NMHLD	29	0	5	96
NMTAP	29	96	4
NMTAP	29	144	4
NMHLD	29	240	4	96
NMTAP	29	240	6
NMTAP	29	336	3
NMTAP	30	48	2
NMTAP	30	48	3
NMTAP	30	144	1
NMTAP	30	144	4
NMTAP	30	240	0
NMTAP	30	288	0
NMTAP	30	288	7
NMTAP	31	0	2
NMSTR	31	0	6
NMSI_	31	0	6	96	48	0
NMHLD	31	96	4	144
NMTAP	31	240	7
NMTAP	31	288	3
NMTAP	31	288	7
NMSTR	32	0	2
NMSI_	32	0	2	96	48	4
NMTAP	32	0	6
NMHLD	32	96	5	144
NMTAP	32	240	3
NMTAP	32	288	3
NMTAP	32	288	6
NMHLD	33	0	2	96
NMTAP	33	0	7
NMTAP	33	96	3
NMTAP	33	144	3
NMTAP	33	240	1
NMHLD	33	240	3	96
NMTAP	33	336	4
NMTAP	34	48	4
NMTAP	34	48	5
NMTAP	34	144	3
NMTAP	34	144	6
NMTAP	34	240	7
NMTAP	34	288	0
NMTAP	34	288	7
EXHLD	35	0	1	192
EXTAP	35	0	6
NMTAP	35	144	3
NMHLD	35	192	3	192
NMTAP	35	336	5
NMHLD	36	0	5	192
NMTAP	36	144	7
NMHLD	36	192	7	576
NMTAP	36	336	1
NMSTR	37	0	1
NMSCL	37	0	1	96	192	3
NMHLD	38	0	2	192
NMTAP	38	144	0
NMHLD	38	192	0	192
NMTAP	38	336	6
NMHLD	39	0	6	192
NMTAP	39	144	1
NMHLD	39	192	1	576
NMTAP	39	336	4
NMSTR	40	0	4
NMSUR	40	0	4	96	192	5
NMHLD	41	0	5	192
NMTAP	41	144	7
NMHLD	41	192	7	192
NMTAP	41	336	1
NMHLD	42	0	1	192
NMTAP	42	144	3
NMTAP	42	192	3
BXTAP	42	288	0
BXTAP	42	288	4
NMTAP	43	0	2
NMTAP	43	24	3
NMTAP	43	48	2
NMTAP	43	72	3
NMTAP	43	96	2
NMTAP	43	192	5
NMTAP	43	216	4
NMTAP	43	240	5
NMTAP	43	264	4
NMTAP	43	288	5
NMTAP	44	0	1
NMTAP	44	24	0
NMTAP	44	48	1
NMTAP	44	72	0
NMTAP	44	96	1
NMTAP	44	192	6
NMTAP	44	216	7
NMTAP	44	240	6
NMTAP	44	264	7
NMTAP	44	288	6
NMTAP	45	0	3
NMTAP	45	0	4
BXSTR	45	96	1
NMSCR	45	96	1	96	48	4
BXTAP	45	96	7
BXSTR	45	240	5
NMSCR	45	240	5	96	48	0
BXSTR	46	0	2
NMSV_	46	0	2	96	48	7
BXSTR	46	144	6
NMSV_	46	144	6	96	48	3
BXTAP	46	288	0
NMTAP	47	0	2
NMTAP	47	24	3
NMTAP	47	48	2
NMTAP	47	72	3
NMTAP	47	96	2
NMTAP	47	192	6
NMTAP	47	216	7
NMTAP	47	240	6
NMTAP	47	264	7
NMTAP	47	288	6
NMTAP	48	0	1
NMTAP	48	24	0
NMTAP	48	48	1
NMTAP	48	72	0
NMTAP	48	96	1
NMTAP	48	192	5
NMTAP	48	216	4
NMTAP	48	240	5
NMTAP	48	264	4
NMTAP	48	288	5
NMTAP	49	0	3
NMTAP	49	0	4
BXTAP	49	96	0
BXSTR	49	96	6
NMSCL	49	96	6	96	48	3
BXSTR	49	240	2
NMSCL	49	240	2	96	48	7
BXSTR	50	0	5
NMSV_	50	0	5	96	48	0
BXSTR	50	144	1
NMSV_	50	144	1	96	48	4
BXTAP	50	288	7
BXSTR	51	0	2
NMSCL	51	0	2	96	480	6
BXSTR	51	0	6
NMSCL	51	0	6	96	480	2
NMHLD	53	0	4	144
NMTAP	53	144	3
NMTAP	53	240	2
NMTAP	53	288	3
NMTAP	53	336	4
NMSTR	54	0	5
NMSI_	54	0	5	96	72	2
NMTAP	54	48	5
CNSI_	54	168	2	0	72	4
BRTAP	54	288	3
BRTAP	54	288	5
NMTAP	55	0	2
NMTAP	55	48	2
NMTAP	55	96	3
NMTAP	55	144	3
NMTAP	55	192	4
NMTAP	55	240	4
NMTAP	55	288	5
NMTAP	55	336	5
NMTAP	56	0	4
NMTAP	56	0	6
NMTAP	56	48	4
NMTAP	56	48	6
NMTAP	56	96	3
NMTAP	56	96	5
NMTAP	56	144	3
NMTAP	56	144	5
NMTAP	56	192	2
NMTAP	56	192	4
NMTAP	56	240	2
NMTAP	56	240	4
NMTAP	56	288	1
NMTAP	56	288	5
NMTAP	56	336	1
NMTAP	56	336	5
EXTAP	57	0	0
NMTAP	57	24	7
NMTAP	57	48	0
NMTAP	57	72	7
NMTAP	57	96	0
NMTAP	57	120	7
NMTAP	57	144	0
NMTAP	57	168	7
EXTAP	57	192	1
NMTAP	57	216	6
NMTAP	57	240	1
NMTAP	57	264	6
NMTAP	57	288	1
NMTAP	57	312	6
NMTAP	57	336	1
NMTAP	57	360	6
BXSTR	58	0	2
NMSCL	58	0	2	96	192	3
NMTTP	58	288	0	C	0	M1
NMHLD	59	0	3	48
NMHLD	59	0	4	48
BXTAP	59	96	0
BXTAP	59	96	7
NMTAP	59	192	1
NMTAP	59	192	6
EXSTR	59	240	1
NMSI_	59	240	1	96	48	5
EXTAP	59	240	6
NMSTR	59	336	7
NMSI_	59	336	7	96	48	3
NMSTR	60	48	4
NMSCL	60	48	4	96	48	1
NMSTR	60	144	0
NMSCL	60	144	0	96	48	5
NMTAP	60	240	2
NMTAP	60	336	4
NMTAP	60	336	5
NMHLD	61	0	4	48
NMHLD	61	0	5	48
BXTAP	61	96	1
BXTAP	61	96	7
NMTAP	61	192	2
NMTAP	61	192	6
EXTAP	61	240	2
EXSTR	61	240	6
NMSI_	61	240	6	96	48	2
NMSTR	61	336	0
NMSI_	61	336	0	96	48	4
NMSTR	62	48	3
NMSCR	62	48	3	96	48	6
NMSTR	62	144	7
NMSCR	62	144	7	96	48	2
NMTAP	62	240	5
NMTAP	62	336	2
NMTAP	62	336	3
NMHLD	63	0	2	48
NMHLD	63	0	3	48
BXTAP	63	96	0
BXTAP	63	96	6
NMTAP	63	192	1
NMTAP	63	192	5
EXSTR	63	240	1
NMSI_	63	240	1	96	48	5
EXTAP	63	240	5
NMSTR	63	336	7
NMSI_	63	336	7	96	48	3
NMSTR	64	48	4
NMSCL	64	48	4	96	48	1
NMSTR	64	144	0
NMSCL	64	144	0	96	48	5
NMTAP	64	240	2
NMTAP	64	336	4
NMTAP	64	336	5
NMTAP	65	0	6
NMTAP	65	24	7
NMTAP	65	48	6
NMTAP	65	72	7
BXTAP	65	96	6
NMTAP	65	192	1
NMTAP	65	216	0
NMTAP	65	240	1
NMTAP	65	264	0
BXTAP	65	288	1
NMTAP	66	0	3
NMTAP	66	0	5
NMTAP	66	48	3
NMTAP	66	48	5
NMTAP	66	96	2
NMTAP	66	96	6
NMTAP	66	144	2
NMTAP	66	144	6
NMTAP	66	192	7
NMTAP	66	216	0
NMTAP	66	240	7
NMTAP	66	264	0
BXTAP	66	288	1
BXTAP	66	288	6
EXHLD	67	0	2	288
NMTAP	67	144	0
NMHLD	67	192	0	288
NMTAP	67	336	6
NMHLD	68	0	6	288
NMTAP	68	144	1
NMHLD	68	192	1	96
NMSTR	69	0	3
NMSI_	69	0	3	96	48	7
NMSTR	69	0	4
NMSI_	69	0	4	96	48	0
EXTAP	69	192	0
EXTAP	69	192	7
EXTAP	69	264	1
EXTAP	69	264	2
EXTAP	69	336	3
EXTAP	69	336	4
EXTAP	70	0	3
EXTAP	70	0	4
EXTAP	70	72	5
EXTAP	70	72	6
EXTAP	70	144	0
EXTAP	70	144	7
BXTAP	70	240	2
BXTAP	70	240	6
NMTAP	70	336	3
NMTAP	70	336	4
NMTAP	71	0	1
NMHLD	71	48	1	48
NMTAP	71	96	3
NMHLD	71	144	3	48
NMTAP	71	192	5
NMHLD	71	240	5	48
NMTAP	71	288	7
NMHLD	71	336	7	48
NMTAP	72	0	0
NMHLD	72	48	0	48
NMTAP	72	96	6
NMHLD	72	144	6	48
NMTAP	72	192	4
NMHLD	72	240	4	48
NMTAP	72	288	2
NMTAP	72	336	2
NMTAP	73	0	1
NMTAP	73	0	3
NMTAP	73	48	1
NMTAP	73	48	3
NMTAP	73	96	4
NMTAP	73	96	5
NMTAP	73	144	4
NMTAP	73	144	5
NMTAP	73	192	6
NMTAP	73	192	7
NMTAP	73	240	6
NMTAP	73	240	7
NMTAP	73	288	4
NMTAP	73	288	5
NMTAP	73	336	2
NMTAP	73	336	3
BRTAP	74	0	0
BRTAP	74	0	4
NMSTR	74	96	3
NMSF_	74	96	3	96	96	7
BXSTR	75	0	1
NMSUL	75	0	1	96	288	0
BXHLD	75	0	6	1152
CNSCL	76	0	0	0	768	2
NMTAP	78	96	2
NMTAP	78	144	3
NMTAP	78	192	4
NMTAP	78	240	3
EXTAP	78	288	2
EXTAP	78	288	5
BRSTR	79	0	1
NMSI_	79	0	1	96	48	4
BRSTR	79	0	5
NMSI_	79	0	5	96	48	0
BRSTR	79	192	2
NMSI_	79	192	2	96	48	7
BRSTR	79	192	6
NMSI_	79	192	6	96	48	3
BRSTR	80	0	0
NMSI_	80	0	0	96	48	3
BRSTR	80	0	4
NMSI_	80	0	4	96	48	7
BRSTR	80	192	2
NMSI_	80	192	2	96	48	5
BRSTR	80	192	6
NMSI_	80	192	6	96	48	1
NMHLD	81	0	0	288
NMHLD	81	0	4	96
NMHLD	81	192	2	192
NMSTR	82	0	6
NMSI_	82	0	6	96	72	1
NMTAP	82	48	6
CNSI_	82	168	1	0	72	7
BRTAP	82	288	0
BRTAP	82	288	6
NMTAP	83	0	2
NMTAP	83	48	3
NMTAP	83	96	1
NMTAP	83	96	4
NMTAP	83	144	2
NMTAP	83	168	3
NMTAP	83	192	2
NMTAP	83	240	1
NMTAP	83	240	4
NMTAP	83	288	0
NMTAP	83	288	5
NMTAP	84	0	5
NMTAP	84	48	4
NMTAP	84	96	3
NMTAP	84	96	6
NMTAP	84	144	5
NMTAP	84	168	4
NMTAP	84	192	5
NMTAP	84	240	3
NMTAP	84	240	6
NMTAP	84	288	2
NMSTR	84	288	7
NMSI_	84	288	7	96	48	3
BXTAP	85	0	3
NMTAP	85	96	1
BXSTR	85	144	1
NMSI_	85	144	1	96	48	5
BXTAP	85	144	5
BXSTR	85	240	7
NMSI_	85	240	7	96	48	3
BXTAP	85	336	3
BXTAP	86	48	1
BXTAP	86	48	5
NMTAP	86	144	2
NMTAP	86	168	3
NMTAP	86	192	2
EXTAP	86	240	0
EXTAP	86	240	4
BXSTR	86	336	1
NMSI_	86	336	1	96	336	7
BXSTR	86	336	5
BRSI_	86	336	5	96	336	3
CNSI_	88	0	3	0	384	6
CNSI_	88	0	7	0	384	2
CNSI_	89	0	2	0	384	4
CNSI_	89	0	6	0	384	0
CNSUL	90	0	0	0	384	4
CNSUL	90	0	4	0	384	0

T_REC_TAP	295
T_REC_BRK	6
T_REC_XTP	26
T_REC_BXX	23
T_REC_HLD	48
T_REC_XHO	2
T_REC_BHO	0
T_REC_BXH	2
T_REC_STR	25
T_REC_BST	8
T_REC_XST	5
T_REC_XBS	17
T_REC_TTP	5
T_REC_THO	0
T_REC_SLD	54
T_REC_BSL	1
T_REC_ALL	517
T_NUM_TAP	356
T_NUM_BRK	57
T_NUM_HLD	50
T_NUM_SLD	54
T_NUM_ALL	517
T_JUDGE_TAP	410
T_JUDGE_HLD	236
T_JUDGE_SLD	55
T_JUDGE_ALL	701
TTM_EACHPAIRS	113
TTM_SCR_TAP	178000
TTM_SCR_BRK	148200
TTM_SCR_HLD	50000
TTM_SCR_SLD	81000
TTM_SCR_ALL	457200
TTM_SCR_S	438000
TTM_SCR_SS	451500
TTM_RAT_ACV	10126

