VERSION	0.00.00	1.04.00
FES_MODE	0
BPM_DEF	200.000	200.000	200.000	200.000
MET_DEF	4	4
RESOLUTION	384
CLK_DEF	384
COMPATIBLE_CODE	MA2

BPM	0	0	200.000
MET	0	0	4	4

NMHLD	2	0	0	96
NMHLD	2	192	1	96
NMHLD	3	0	2	96
EXHLD	3	192	3	96
NMTHO	4	0	0	576	C	0	M1
NMHLD	4	0	4	96
NMHLD	4	192	5	96
NMHLD	5	0	6	96
NMHLD	5	192	7	96
NMTAP	6	0	0
NMTAP	6	0	7
NMHLD	6	96	5	144
NMTAP	6	240	4
NMTAP	6	288	3
NMTAP	6	288	6
NMTAP	7	0	0
NMTAP	7	0	7
NMHLD	7	96	2	144
NMTAP	7	240	3
NMTAP	7	288	1
NMTAP	7	288	4
NMTAP	8	0	7
NMHLD	8	96	5	144
NMTAP	8	240	4
NMTAP	8	288	3
NMSTR	8	288	6
NMSI_	8	288	6	96	96	4
NMTAP	9	0	1
NMTAP	9	96	1
CNSI_	9	96	4	0	96	7
NMTAP	9	192	0
CNSI_	9	192	7	0	96	3
NMTAP	9	288	0
BRTAP	10	0	0
NMTAP	10	96	0
NMTAP	10	144	4
NMTAP	10	192	0
NMTAP	10	240	4
NMTAP	10	288	0
NMTAP	10	336	4
NMTAP	11	0	0
NMTAP	11	48	2
NMTAP	11	96	0
NMTAP	11	144	5
NMSTR	11	192	0
NMSI_	11	192	0	96	48	4
NMTAP	11	240	4
EXTAP	11	288	0
NMTAP	12	0	7
NMTAP	12	96	7
NMTAP	12	144	4
NMTAP	12	192	7
NMTAP	12	240	4
NMTAP	12	288	7
NMTAP	12	336	4
NMTAP	13	0	7
NMTAP	13	48	3
NMTAP	13	96	7
NMTAP	13	144	5
NMSTR	13	192	7
NMSI_	13	192	7	96	48	3
NMTAP	13	240	2
EXTAP	13	288	7
BXHLD	14	0	1	48
NMHLD	14	96	1	48
NMHLD	14	192	2	48
NMTAP	14	192	3
NMHLD	14	288	2	48
NMTAP	14	288	4
BXHLD	15	0	3	48
NMTAP	15	0	4
NMHLD	15	96	3	48
NMTAP	15	96	6
BXHLD	15	192	4	48
NMTAP	15	192	5
NMHLD	15	288	4	48
NMTAP	15	288	6
BXHLD	16	0	3	48
NMTAP	16	0	6
BXHLD	16	96	2	48
BXHLD	16	96	4	48
BXHLD	16	192	1	48
BXHLD	16	192	5	48
BXSTR	16	288	0
NMSI_	16	288	0	96	48	5
NMHLD	17	0	4	288
NMSTR	17	288	3
NMSCL	17	288	3	96	240	4
NMTTP	18	0	0	C	1	M1
NMTAP	19	0	4
NMTAP	19	48	4
NMTAP	19	96	3
NMTAP	19	144	3
NMTAP	19	192	2
NMTAP	19	192	4
NMTAP	19	240	1
NMTAP	19	264	3
BXSTR	19	288	1
NMSI_	19	288	1	96	48	6
NMSTR	20	0	5
NMSI_	20	0	5	96	48	2
NMSTR	20	96	3
NMSI_	20	96	3	96	48	0
NMSTR	20	192	7
NMSI_	20	192	7	96	48	4
NMSTR	20	288	2
NMSI_	20	288	2	96	48	5
NMSTR	21	0	6
NMSI_	21	0	6	96	48	1
NMSTR	21	96	0
NMSI_	21	96	0	96	48	3
NMHLD	21	192	5	96
NMTAP	21	288	4
EXTAP	21	360	5
EXSTR	22	0	5
NMSI_	22	0	5	96	48	3
NMSTR	22	96	2
NMSI_	22	96	2	96	48	6
NMSTR	22	192	7
NMSI_	22	192	7	96	48	1
NMSTR	22	288	3
NMSI_	22	288	3	96	48	7
NMSTR	23	0	7
NMSF_	23	0	7	96	48	3
BXTAP	23	192	1
BXTAP	23	192	5
EXTAP	23	288	2
EXTAP	23	288	6
NMTAP	24	0	3
NMTAP	24	0	4
NMTAP	24	48	5
NMTAP	24	72	4
NMHLD	24	96	5	48
NMHLD	24	192	4	48
NMHLD	24	192	6	48
NMHLD	24	288	2	48
NMHLD	24	288	3	48
NMHLD	25	0	4	48
NMHLD	25	0	6	48
NMHLD	25	96	4	48
NMHLD	25	96	6	48
NMTAP	25	192	3
NMTAP	25	240	3
NMTAP	25	288	3
NMTAP	25	288	4
NMTAP	25	336	2
NMTAP	25	360	3
NMTAP	26	0	1
NMTAP	26	48	1
NMSTR	26	96	0
BRSI_	26	96	0	96	48	4
NMTAP	26	144	7
BXHLD	26	192	6	192
NMSTR	27	0	4
NMSI_	27	0	4	96	48	7
NMTAP	27	48	4
NMTAP	27	96	5
NMSTR	27	192	0
NMSI_	27	192	0	96	48	3
NMTAP	27	240	0
NMTAP	27	288	3
BRTAP	28	0	2
BRTAP	28	0	6
NMTAP	28	96	4
NMTAP	28	96	5
NMTAP	28	144	6
NMTAP	28	192	3
NMTAP	28	192	5
NMTAP	28	240	2
NMTAP	28	288	4
NMTAP	28	288	6
NMHLD	28	336	7	24
NMTAP	29	0	4
NMTAP	29	0	6
NMTAP	29	48	3
NMTAP	29	96	4
NMTAP	29	96	5
NMTAP	29	144	6
NMTAP	29	192	3
NMTAP	29	192	5
NMTAP	29	240	2
NMTAP	29	288	3
NMSTR	29	288	5
NMSI_	29	288	5	96	48	7
BXTAP	30	0	0
NMTAP	30	96	2
NMTAP	30	96	3
NMTAP	30	144	4
NMTAP	30	192	1
NMTAP	30	192	3
NMTAP	30	240	0
NMTAP	30	288	1
NMTAP	30	288	3
NMHLD	30	336	4	24
NMHLD	31	0	3	24
NMHLD	31	0	5	24
NMHLD	31	48	3	24
NMHLD	31	48	5	24
NMHLD	31	96	2	24
NMHLD	31	96	6	24
NMHLD	31	144	2	24
NMHLD	31	144	6	24
NMHLD	31	192	1	24
NMHLD	31	192	7	24
NMHLD	31	240	1	24
NMHLD	31	240	7	24
BXTAP	31	288	0
BXTAP	31	288	6
BXTAP	32	0	0
BXTAP	32	0	7
NMTAP	32	48	1
NMTAP	32	72	3
NMSTR	32	96	2
NMSI_	32	96	2	96	48	6
NMSTR	32	192	5
NMSI_	32	192	5	96	48	1
NMSTR	32	288	7
NMSI_	32	288	7	96	48	3
NMSTR	33	0	2
NMSI_	33	0	2	96	48	7
NMSTR	33	96	4
NMSI_	33	96	4	96	48	1
BXSTR	33	192	6
BRSI_	33	192	6	96	48	3
BXTAP	33	288	0
BXTAP	34	0	2
BXTAP	34	0	4
NMTAP	34	96	1
NMTAP	34	96	7
NMTAP	34	144	1
NMTAP	34	144	7
BXHLD	34	192	4	96
BXHLD	34	192	5	96
NMTAP	35	0	2
NMTAP	35	24	3
NMTAP	35	48	2
NMTAP	35	72	3
NMTAP	35	96	2
NMTAP	35	144	1
NMTAP	35	144	4
NMTAP	35	192	2
NMTAP	35	192	3
NMTAP	35	240	1
NMTAP	35	240	4
NMTAP	35	288	0
NMSTR	35	288	5
NMSCR	35	288	5	96	48	0
BRTAP	36	0	4
NMTAP	36	48	3
NMTAP	36	96	2
NMTAP	36	144	2
NMTAP	36	192	1
NMSTR	36	192	3
NMSI_	36	192	3	96	48	5
NMTAP	36	240	0
NMTAP	36	288	1
NMTAP	36	336	2
NMSTR	37	0	3
NMSI_	37	0	3	96	48	7
NMTAP	37	48	6
NMTAP	37	96	5
NMTAP	37	144	4
NMSTR	37	192	0
NMSCR	37	192	0	96	48	3
NMTAP	37	192	3
NMSTR	37	288	5
NMSCR	37	288	5	96	48	0
BRTAP	38	0	4
NMTAP	38	96	2
NMTAP	38	144	2
NMTAP	38	192	1
NMTAP	38	192	3
NMTAP	38	240	0
NMTAP	38	288	1
NMTAP	38	288	5
NMTAP	38	336	6
NMTAP	39	0	3
BRSTR	39	0	7
NMSV_	39	0	7	96	48	2
NMTAP	39	96	1
BRSTR	39	144	1
NMSV_	39	144	1	96	48	4
NMTAP	39	240	7
NMTAP	39	288	6
BRSTR	40	0	6
NMSI_	40	0	6	96	48	0
NMTAP	40	48	6
NMSTR	40	96	2
NMSI_	40	96	2	96	48	4
NMTAP	40	144	2
NMSTR	40	192	5
NMSI_	40	192	5	96	48	1
NMTAP	40	240	5
NMSTR	40	288	0
NMSI_	40	288	0	96	48	6
NMTAP	40	336	0
BRSTR	41	0	5
NMSI_	41	0	5	96	48	3
NMTAP	41	48	5
NMSTR	41	96	1
NMSI_	41	96	1	96	48	7
NMTAP	41	144	1
NMSTR	41	192	6
NMSI_	41	192	6	96	48	2
NMTAP	41	240	6
NMSTR	41	288	3
NMSI_	41	288	3	96	48	7
NMTAP	41	336	3
BRSTR	42	0	6
NMSCL	42	0	6	96	48	4
NMTAP	42	48	6
NMSTR	42	96	2
NMSCL	42	96	2	96	48	0
NMTAP	42	144	2
BRSTR	42	192	7
NMSI_	42	192	7	96	48	3
NMTAP	42	240	7
NMTAP	42	288	2
NMTAP	42	336	2
BRTAP	43	0	2
BRTAP	43	0	4
NMTAP	43	48	5
NMTAP	43	96	6
NMTAP	43	96	7
NMTAP	43	144	0
NMSTR	43	192	1
NMSI_	43	192	1	96	48	4
NMTAP	43	192	3
NMTAP	43	240	4
NMSTR	43	288	5
NMSI_	43	288	5	96	384	7
NMTTP	44	0	0	C	1	M1
CNSI_	45	0	7	0	384	1
CNSI_	46	0	1	0	384	3
CNSI_	47	0	3	0	384	5
CNSCR	48	0	5	0	768	4
NMHLD	51	0	0	1824
NMTTP	52	0	4	B	0	M1
NMTTP	52	96	5	B	0	M1
NMTTP	52	192	6	B	0	M1
NMTTP	52	288	7	B	0	M1
NMTTP	53	0	0	B	0	M1
NMTTP	53	96	1	B	0	M1
NMTTP	53	192	2	B	0	M1
NMTTP	53	288	3	B	0	M1
NMTTP	54	0	4	E	0	M1
NMTTP	54	96	5	E	0	M1
NMTTP	54	192	6	E	0	M1
NMTTP	54	288	7	E	0	M1
NMTTP	55	0	0	E	0	M1
NMTTP	55	96	1	E	0	M1
NMTTP	55	192	2	E	0	M1
NMTTP	55	288	3	E	0	M1
NMTAP	56	0	0
NMTTP	56	0	4	D	0	M1
NMTAP	56	96	0
NMTTP	56	96	5	D	0	M1
NMTAP	56	192	0
NMTTP	56	192	6	D	0	M1
NMTAP	56	288	0
NMTTP	56	288	7	D	0	M1
NMTAP	57	0	0
NMTTP	57	0	0	D	0	M1
NMTAP	57	96	0
NMTTP	57	96	1	D	0	M1
NMTAP	57	192	0
NMTTP	57	192	2	D	0	M1
NMTAP	57	288	0
NMTTP	57	288	3	D	0	M1
NMTAP	58	0	0
NMTTP	58	0	4	E	0	M1
NMTTP	58	0	4	D	0	M1
NMTAP	58	96	0
NMTTP	58	96	5	E	0	M1
NMTTP	58	96	5	D	0	M1
NMTAP	58	192	0
NMTTP	58	192	6	E	0	M1
NMTTP	58	192	6	D	0	M1
NMSTR	58	288	0
NMSSL	58	288	0	96	288	4
NMTTP	58	288	7	E	0	M1
NMTTP	58	288	7	D	0	M1
NMTHO	59	0	0	192	C	0	M1
EXHLD	60	0	7	1344
NMTAP	60	144	4
NMTAP	60	192	4
NMTAP	60	288	5
NMTAP	60	336	5
NMTAP	61	48	3
NMSTR	61	96	3
NMSLL	61	96	3	96	96	4
NMTAP	62	0	5
NMTAP	62	48	5
NMTAP	62	144	3
NMTAP	62	192	3
NMTTP	62	288	4	B	0	M1
NMTAP	63	0	5
NMTAP	63	48	5
NMTAP	63	144	3
NMSTR	63	192	3
NMSI_	63	192	3	96	48	1
NMSTR	63	288	5
NMSI_	63	288	5	96	48	3
EXHLD	64	0	0	1344
NMTAP	64	144	3
NMTAP	64	192	3
NMTAP	64	288	2
NMTAP	64	336	2
NMTAP	65	48	4
NMSTR	65	96	4
NMSLL	65	96	4	96	96	5
NMTAP	66	0	4
NMTAP	66	48	4
NMTAP	66	144	2
NMTAP	66	192	2
NMTTP	66	288	3	B	0	M1
NMTAP	67	0	4
NMTAP	67	48	4
NMTAP	67	144	2
NMSTR	67	192	2
NMSI_	67	192	2	96	48	4
NMTAP	67	288	1
NMTAP	68	0	2
BXHLD	68	0	5	480
NMTAP	68	144	4
NMTAP	68	192	4
NMTAP	68	288	2
NMTAP	68	336	2
NMTAP	69	48	3
NMSTR	69	96	3
NMSI_	69	96	3	96	48	1
NMSI_	69	96	3	96	48	5
EXHLD	69	288	0	240
EXTAP	69	288	6
NMTAP	70	0	5
NMTAP	70	48	5
NMTAP	70	144	4
NMSTR	70	192	4
NMSI_	70	192	4	96	48	2
NMSI_	70	192	4	96	48	6
NMTAP	71	0	7
NMHLD	71	48	7	96
NMTAP	71	144	0
NMTAP	71	192	1
NMTAP	71	192	6
NMHLD	71	288	3	768
NMTAP	71	288	4
NMSTR	72	0	4
NMSCR	72	0	4	96	48	6
NMSTR	72	192	4
NMSCL	72	192	4	96	48	2
NMSTR	73	0	4
NMSI_	73	0	4	96	48	6
NMTAP	73	192	4
NMSTR	73	288	4
NMSI_	73	288	4	96	96	0
NMTAP	74	0	3
CNSI_	74	96	0	0	96	2
NMSTR	74	96	2
NMSI_	74	96	2	96	96	6
NMSTR	74	192	6
NMSLR	74	192	6	96	192	4
NMTAP	74	288	0
BRTAP	75	0	1
BRTAP	75	96	2
BRTAP	75	192	3
BRHLD	75	288	3	48
BRHLD	75	288	4	48
NMTAP	76	0	2
NMHLD	76	0	5	96
NMHLD	76	96	3	96
NMTAP	76	144	4
NMHLD	76	192	5	96
NMTAP	76	240	4
NMHLD	76	288	3	96
NMTAP	76	336	4
NMHLD	77	0	6	96
NMTAP	77	48	4
NMSTR	77	96	2
NMSI_	77	96	2	96	48	5
NMTAP	77	144	4
NMTAP	77	192	2
NMTAP	77	192	5
EXTAP	77	288	6
EXTAP	77	288	7
NMTAP	78	0	0
NMHLD	78	0	1	96
NMHLD	78	96	3	96
NMTAP	78	144	2
NMHLD	78	192	1	96
NMTAP	78	240	2
NMHLD	78	288	3	96
NMTAP	78	336	2
NMHLD	79	0	0	96
NMTAP	79	48	2
NMHLD	79	96	4	96
NMTAP	79	144	2
NMSTR	79	192	0
NMSI_	79	192	0	96	48	5
NMTAP	79	240	2
NMTAP	79	288	0
NMTAP	79	288	4
EXHLD	80	0	7	96
NMTAP	80	96	3
NMTAP	80	128	4
NMTAP	80	160	5
NMTAP	80	192	6
NMTAP	80	224	7
NMTAP	80	256	0
NMTAP	80	288	1
NMTAP	80	320	2
NMTAP	80	352	3
BXTAP	81	0	4
NMTAP	81	32	5
NMTAP	81	64	6
NMTAP	81	96	7
NMTAP	81	128	0
NMTAP	81	160	1
BXTAP	81	192	2
NMTAP	81	224	3
NMTAP	81	256	4
NMTAP	81	288	5
NMTAP	81	320	6
NMTAP	81	352	7
NMTTP	82	0	0	E	0	M1
NMTTP	82	12	1	E	0	M1
NMTTP	82	24	2	E	0	M1
NMTTP	82	36	3	E	0	M1
NMTTP	82	48	4	E	0	M1
NMTTP	82	60	5	E	0	M1
NMTTP	82	72	6	E	0	M1
NMTTP	82	84	7	E	0	M1
NMTTP	82	96	0	E	0	M1
NMTTP	82	108	1	E	0	M1
NMTTP	82	120	2	E	0	M1
NMTTP	82	132	3	E	0	M1
NMTTP	82	144	4	E	0	M1
NMTTP	82	156	5	E	0	M1
NMTTP	82	168	6	E	0	M1
NMTTP	82	180	7	E	0	M1
NMTTP	82	192	0	D	0	M1
NMTTP	82	204	1	D	0	M1
NMTTP	82	216	2	D	0	M1
NMTTP	82	228	3	D	0	M1
NMTTP	82	240	4	D	0	M1
NMTTP	82	252	5	D	0	M1
NMTTP	82	264	6	D	0	M1
NMTTP	82	276	7	D	0	M1
NMTTP	82	288	0	A	0	M1
NMTTP	82	300	1	A	0	M1
NMTTP	82	312	2	A	0	M1
NMTTP	82	324	3	A	0	M1
NMTTP	82	336	4	A	0	M1
NMTTP	82	348	5	A	0	M1
NMTTP	82	360	6	A	0	M1
NMTTP	82	372	7	A	0	M1
NMTTP	83	0	0	C	1	M1
NMTTP	83	0	0	A	0	M1
EXTAP	83	240	7
EXSTR	83	288	7
NMSI_	83	288	7	96	96	1
NMSTR	84	0	1
NMSI_	84	0	1	96	96	6
NMSTR	84	96	6
NMSI_	84	96	6	96	96	2
NMSTR	84	192	2
NMSI_	84	192	2	96	96	5
NMSTR	84	288	5
NMSI_	84	288	5	96	96	3
NMTAP	85	0	3
CNSI_	85	96	3	0	96	5
NMTAP	85	96	5
NMTAP	85	192	2
CNSI_	85	192	5	0	96	2
BXHLD	85	288	1	768
EXHLD	86	0	3	48
NMHLD	86	96	3	48
NMHLD	86	192	5	48
NMHLD	86	288	5	48
EXHLD	87	0	3	48
NMHLD	87	96	3	48
EXHLD	87	192	5	48
NMHLD	87	288	5	48
NMHLD	88	0	2	48
EXHLD	88	0	4	48
EXHLD	88	96	1	48
NMHLD	88	96	3	48
NMHLD	88	192	0	48
EXHLD	88	192	4	48
EXHLD	88	288	1	48
NMHLD	88	288	5	48
NMHLD	89	0	2	48
EXHLD	89	0	6	48
EXSTR	89	96	3
BRSI_	89	96	3	96	96	1
BRSXL	89	96	3	96	96	3
BXTAP	90	0	0
BXTAP	90	0	1
BXTAP	90	96	4
BXTAP	90	96	5
BXTAP	90	192	2
BXTAP	90	192	3
BXTAP	90	288	1
BXTAP	90	288	6
BXTAP	90	336	1
BXTAP	90	336	6
BXTAP	91	0	0
BXTAP	91	24	7
BXTAP	91	36	0
BXTAP	91	48	7
BXTAP	91	60	0
BXTAP	91	72	7
BXTAP	91	84	0
BXHLD	91	96	7	24
BXTAP	91	144	0
BXTAP	91	156	1
BXTAP	91	156	7
BXTAP	91	168	2
BXTAP	91	168	6
BXTAP	91	180	3
BXTAP	91	180	5
BXTAP	91	192	4
BXTAP	91	288	2
BXTAP	91	288	5
BXTAP	91	360	0
BXTAP	91	360	7
BXTAP	92	0	0
BXTAP	92	0	7
BXTAP	92	48	1
BXTAP	92	48	3
BXTAP	92	96	4
BXTAP	92	96	5
BXTAP	92	144	6
BXTAP	92	168	7
BXSTR	92	192	6
BRSI_	92	192	6	96	48	2
BXSTR	92	288	0
BRSCL	92	288	0	96	48	5
BRSCR	92	288	0	96	48	3
BXTAP	92	336	0
EXTAP	93	0	0
EXSTR	93	96	4
BRSF_	93	96	4	96	48	0
EXTAP	93	288	1
EXTAP	93	288	7
NMTAP	94	0	3
NMTAP	94	0	6
NMTAP	94	48	3
NMTAP	94	48	6
NMTAP	94	96	5
NMTAP	94	120	4
NMTAP	94	144	5
NMTAP	94	192	3
NMTAP	94	216	4
NMTAP	94	240	3
NMTAP	94	288	5
NMTAP	94	312	4
NMTAP	94	336	5
NMTAP	95	0	2
NMTAP	95	24	4
NMTAP	95	48	3
NMTAP	95	96	6
NMTAP	95	120	4
NMTAP	95	144	6
NMTAP	95	192	2
NMTAP	95	216	4
NMTAP	95	240	2
NMTAP	95	288	3
NMTAP	95	312	3
NMTAP	95	336	3
NMTAP	96	0	2
NMTAP	96	0	4
NMTAP	96	48	1
NMTAP	96	48	5
NMTAP	96	96	1
NMTAP	96	120	0
NMTAP	96	144	2
NMTAP	96	192	6
NMTAP	96	216	7
NMTAP	96	240	5
NMTAP	96	288	1
NMTAP	96	312	3
NMTAP	96	336	2
NMTAP	97	0	5
NMTAP	97	24	3
NMTAP	97	48	5
NMTAP	97	96	2
NMTAP	97	120	4
NMTAP	97	144	2
NMTAP	97	192	3
NMTAP	97	216	3
NMTAP	97	240	3
EXTAP	97	288	2
EXTAP	97	288	4
NMTAP	98	0	5
NMTAP	98	48	5
NMTAP	98	96	4
NMTAP	98	144	4
NMTAP	98	192	3
NMTAP	98	240	3
NMTAP	98	288	2
NMTAP	98	336	2
NMTAP	99	0	6
NMTAP	99	48	6
NMTAP	99	96	4
NMTAP	99	144	4
NMTAP	99	192	3
NMTAP	99	240	3
NMTAP	99	288	1
NMTAP	99	336	1
NMTAP	100	0	0
NMTAP	100	0	7
NMTAP	100	48	0
NMTAP	100	48	7
NMTAP	100	96	1
NMTAP	100	96	6
NMTAP	100	144	1
NMTAP	100	144	6
NMTAP	100	192	2
NMTAP	100	192	5
NMTAP	100	240	2
NMTAP	100	240	5
NMTAP	100	288	3
NMHLD	100	288	4	384
EXTAP	101	0	0
EXTAP	101	96	1
EXTAP	101	192	2
BRTAP	101	240	0
BRSTR	101	288	0
NMSI_	101	288	0	96	48	3
NMSTR	102	0	0
NMSI_	102	0	0	96	48	5
NMTAP	102	0	7
BRSTR	102	96	0
NMSI_	102	96	0	96	48	2
EXTAP	102	96	1
BRSTR	102	192	0
NMSI_	102	192	0	96	48	6
EXTAP	102	192	6
BRSTR	102	288	0
NMSI_	102	288	0	96	48	3
EXTAP	102	288	1
BRSTR	103	0	0
NMSI_	103	0	0	96	48	4
EXTAP	103	0	5
BRTAP	103	96	0
EXTAP	103	96	2
BRTAP	103	192	3
BXTAP	103	192	5
BXTAP	103	240	2
BRTAP	103	240	6
BRTAP	103	288	1
BXSTR	103	288	7
NMSI_	103	288	7	96	48	2
BXTAP	103	336	0
NMTAP	103	336	6
EXTAP	104	0	5
BRSTR	104	0	7
NMSI_	104	0	7	96	48	5
EXTAP	104	96	1
BRSTR	104	96	7
NMSI_	104	96	7	96	48	1
EXTAP	104	192	6
BRSTR	104	192	7
NMSI_	104	192	7	96	48	4
EXTAP	104	288	2
BRSTR	104	288	7
NMSI_	104	288	7	96	48	2
EXTAP	105	0	5
BRSTR	105	0	7
NMSI_	105	0	7	96	48	3
EXTAP	105	96	3
BRTAP	105	96	7
BRTAP	105	192	2
NMTAP	105	192	4
NMTAP	105	240	1
BRTAP	105	240	5
BRTAP	105	288	0
NMTAP	105	288	6
BRTAP	105	336	0
BRTAP	105	360	7
BRSTR	106	0	0
NMSI_	106	0	0	96	48	2
BRTAP	106	96	0
NMSTR	106	96	3
NMSI_	106	96	3	96	48	7
BRTAP	106	192	3
NMSTR	106	192	6
NMSI_	106	192	6	96	48	4
NMSTR	106	288	0
NMSI_	106	288	0	96	48	2
BRTAP	106	288	6
BRTAP	107	0	0
NMSTR	107	0	3
NMSI_	107	0	3	96	48	7
BRTAP	107	96	3
EXTAP	107	96	4
BXSTR	107	192	1
NMSCL	107	192	1	96	48	6
BXSTR	107	192	5
NMSCL	107	192	5	96	48	2
BXTAP	107	288	1
BXTAP	107	288	5
BXTAP	108	0	3
BXTAP	108	0	7
NMTAP	108	48	0
NMTAP	108	48	4
BXTAP	108	96	1
BXTAP	108	96	5
NMTAP	108	144	2
NMTAP	108	144	6
BXHLD	108	192	3	48
BXHLD	108	192	7	48
NMHLD	108	264	3	48
NMHLD	108	264	7	48
NMTAP	108	336	2
NMTAP	108	336	6
BXHLD	109	0	1	48
BXHLD	109	0	5	48
NMHLD	109	72	1	48
NMHLD	109	72	5	48
NMTAP	109	144	2
NMTAP	109	144	4
BXHLD	109	192	3	96
NMTAP	109	192	5
NMSTR	109	288	7
NMSCR	109	288	7	96	48	2
NMTAP	109	312	6
NMTAP	109	336	5
NMTAP	109	360	4
EXTAP	110	0	3
BRSTR	110	0	7
NMSV_	110	0	7	96	48	4
EXTAP	110	96	0
BRSTR	110	96	7
NMSV_	110	96	7	96	48	2
EXTAP	110	192	6
BRSTR	110	192	7
NMSCL	110	192	7	96	48	4
EXTAP	110	288	1
BRSTR	110	288	7
NMSCR	110	288	7	96	48	2
EXTAP	111	0	5
BRSTR	111	0	7
NMSI_	111	0	7	96	48	3
EXTAP	111	96	0
BRTAP	111	96	7
NMTAP	111	192	1
NMTAP	111	240	1
NMSTR	111	288	0
NMSCR	111	288	0	96	48	3
NMTAP	111	288	1
NMTAP	111	312	7
NMTAP	111	336	6
NMTAP	111	360	5
BRSTR	112	0	0
NMSI_	112	0	0	96	48	5
NMTAP	112	0	4
BRSTR	112	96	0
NMSI_	112	96	0	96	48	4
EXTAP	112	96	2
BRTAP	112	192	0
EXTAP	112	192	6
NMTAP	112	288	3
NMTAP	112	288	5
NMTAP	112	336	3
NMTAP	112	336	5
BXTAP	113	0	2
BXTAP	113	0	6
BXTAP	113	48	1
BXTAP	113	48	5
BXTAP	113	96	0
BXTAP	113	96	4
BXTAP	113	144	1
BXTAP	113	144	5
BXTAP	113	192	2
BXHLD	113	192	6	96
NMTAP	113	288	3
NMTAP	113	312	2
NMTAP	113	336	1
NMTAP	113	360	0
BXTAP	114	0	5
BXSTR	114	0	7
BRSI_	114	0	7	96	48	4
BXTAP	114	48	6
NMTAP	114	96	1
BRSTR	114	96	7
BRSI_	114	96	7	96	48	2
NMTAP	114	144	0
NMTAP	114	192	5
BRSTR	114	192	7
BRSI_	114	192	7	96	48	3
NMTAP	114	240	6
NMTAP	114	288	1
BRSTR	114	288	7
BRSI_	114	288	7	96	48	1
NMTAP	114	336	0
NMTAP	115	0	4
BRSTR	115	0	7
BRSI_	115	0	7	96	48	4
NMTAP	115	48	5
NMTAP	115	96	2
BRSTR	115	96	7
BRSI_	115	96	7	96	48	3
NMTAP	115	144	1
NMTAP	115	192	5
BRTAP	115	192	7
NMTAP	115	240	6
NMTAP	115	288	7
NMTAP	115	336	7
NMTAP	116	0	2
NMTAP	116	0	6
NMTAP	116	48	2
NMTAP	116	48	6
NMTAP	116	96	1
NMTAP	116	96	5
NMTAP	116	144	1
NMTAP	116	144	5
NMTAP	116	192	0
NMTAP	116	216	4
NMTAP	116	240	0
NMTAP	116	264	4
NMTAP	116	288	0
NMTAP	116	312	4
NMTAP	116	336	0
NMTAP	116	360	4
BXTAP	117	0	0
NMTAP	117	12	7
NMTAP	117	24	6
NMTAP	117	36	5
NMTAP	117	48	4
NMTAP	117	60	3
NMTAP	117	72	2
NMTAP	117	84	1
BXSTR	117	96	0
BRSF_	117	96	0	96	48	4
NMTAP	117	108	7
NMTAP	117	120	6
NMTAP	117	132	5
NMTAP	117	144	4
NMTAP	117	156	3
NMTAP	117	168	2
NMTAP	117	180	1
BXTAP	117	192	0
NMTTP	117	288	0	C	1	M1
NMTTP	117	288	1	B	0	M1
NMTTP	117	288	2	B	0	M1
NMTTP	117	288	2	A	0	M1
NMTTP	117	288	3	B	0	M1
NMTTP	117	288	5	B	0	M1
NMTTP	117	288	6	B	0	M1
NMTTP	117	288	6	A	0	M1
NMTTP	117	288	7	B	0	M1

T_REC_TAP	403
T_REC_BRK	29
T_REC_XTP	37
T_REC_BXX	72
T_REC_HLD	69
T_REC_XHO	13
T_REC_BHO	2
T_REC_BXH	20
T_REC_STR	64
T_REC_BST	29
T_REC_XST	4
T_REC_XBS	10
T_REC_TTP	79
T_REC_THO	2
T_REC_SLD	96
T_REC_BSL	15
T_REC_ALL	944
T_NUM_TAP	587
T_NUM_BRK	177
T_NUM_HLD	84
T_NUM_SLD	96
T_NUM_ALL	944
T_JUDGE_TAP	727
T_JUDGE_HLD	301
T_JUDGE_SLD	111
T_JUDGE_ALL	1139
TTM_EACHPAIRS	164
TTM_SCR_TAP	293500
TTM_SCR_BRK	460200
TTM_SCR_HLD	84000
TTM_SCR_SLD	144000
TTM_SCR_ALL	981700
TTM_SCR_S	935100
TTM_SCR_SS	964000
TTM_RAT_ACV	10183

