VERSION	0.00.00	1.04.00
FES_MODE	0
BPM_DEF	200.000	200.000	200.000	200.000
MET_DEF	4	4
RESOLUTION	384
CLK_DEF	384
COMPATIBLE_CODE	MA2

BPM	0	0	200.000
MET	0	0	4	4

NMTTP	2	0	3	B	0	M1
NMTTP	2	96	4	B	0	M1
NMTTP	2	192	5	B	0	M1
NMTTP	2	288	6	B	0	M1
NMTTP	3	0	7	B	0	M1
NMTTP	3	96	0	B	0	M1
NMTTP	3	192	1	B	0	M1
NMTTP	3	288	2	B	0	M1
NMTTP	4	0	4	E	0	M1
NMTTP	4	96	5	E	0	M1
NMTTP	4	192	6	E	0	M1
NMTTP	4	288	7	E	0	M1
NMTTP	5	0	0	E	0	M1
NMTTP	5	96	1	E	0	M1
NMTTP	5	192	2	E	0	M1
NMTTP	5	288	3	E	0	M1
NMTAP	6	0	4
NMTAP	6	96	4
NMTAP	6	192	5
NMTAP	6	288	5
NMTAP	7	0	6
NMTAP	7	96	6
NMTAP	7	192	7
NMTAP	7	288	7
NMTAP	8	0	0
NMTAP	8	96	0
NMTAP	8	192	1
NMTAP	8	288	1
NMTAP	9	0	2
NMTAP	9	96	2
NMTAP	9	192	3
NMTAP	9	192	4
NMTAP	9	288	3
NMTAP	9	288	4
NMTAP	10	0	2
NMTAP	10	96	1
NMTAP	10	192	0
NMTAP	10	288	7
NMTAP	11	0	6
NMTAP	11	96	5
NMTAP	11	192	4
NMTAP	11	288	3
NMTAP	12	0	2
NMTAP	12	96	1
NMTAP	12	192	0
NMTAP	12	288	7
NMTAP	13	0	6
NMTAP	13	96	5
NMTAP	13	192	4
BRTAP	13	288	3
NMHLD	14	0	4	96
NMHLD	14	96	5	96
NMHLD	14	192	6	96
NMHLD	14	288	7	96
NMHLD	15	0	0	96
NMHLD	15	96	1	96
NMHLD	15	192	2	96
NMHLD	15	288	3	96
NMHLD	16	0	4	96
NMHLD	16	96	5	96
NMHLD	16	192	6	96
NMSTR	16	288	7
NMSI_	16	288	7	96	96	3
NMHLD	18	0	2	576
NMHLD	18	0	4	48
NMTAP	19	0	3
NMTAP	19	96	3
NMTAP	19	192	3
BRTAP	19	288	1
BRTAP	19	288	3
NMHLD	20	0	1	48
NMHLD	20	0	2	48
NMHLD	20	96	1	48
NMHLD	20	96	2	48
NMHLD	20	192	0	48
NMHLD	20	192	3	48
NMHLD	20	288	0	48
NMHLD	20	288	3	48
NMHLD	21	0	1	48
NMHLD	21	0	2	48
NMHLD	21	96	1	48
NMHLD	21	96	2	48
NMHLD	21	192	2	48
NMHLD	21	192	3	48
NMTAP	21	288	3
NMTAP	21	288	4
NMHLD	22	0	4	48
NMHLD	22	0	5	48
NMHLD	22	96	4	48
NMHLD	22	96	5	48
NMHLD	22	192	5	48
NMHLD	22	192	6	48
NMHLD	22	288	5	48
NMHLD	22	288	6	48
NMHLD	23	0	4	48
NMHLD	23	0	7	48
NMHLD	23	96	0	48
NMHLD	23	96	3	48
NMHLD	23	192	1	48
NMHLD	23	192	2	48
BRTAP	23	288	1
BRTAP	23	288	2
NMTAP	24	0	3
NMTAP	24	0	4
NMHLD	24	96	3	48
NMHLD	24	96	5	48
NMHLD	24	192	3	48
NMHLD	24	192	5	48
NMHLD	24	288	1	48
NMHLD	24	288	7	48
NMHLD	25	0	3	48
NMHLD	25	0	5	48
NMHLD	25	96	2	48
NMHLD	25	96	4	48
EXTAP	25	192	2
EXTAP	25	192	4
EXTAP	25	240	2
EXTAP	25	240	4
EXTAP	25	288	2
EXTAP	25	288	4
NMHLD	26	0	3	48
NMHLD	26	0	5	48
EXTAP	26	96	3
EXTAP	26	96	5
EXTAP	26	144	3
EXTAP	26	144	5
EXHLD	26	192	3	96
EXHLD	26	192	5	96
NMTAP	27	0	6
NMTAP	27	48	6
NMTAP	27	96	7
NMTAP	27	192	1
NMTAP	27	240	1
NMTAP	27	288	0
NMTAP	28	0	1
NMTAP	28	0	3
NMTAP	28	96	1
NMTAP	28	96	3
NMTAP	28	192	4
NMTAP	28	192	6
NMTAP	28	288	1
NMTAP	28	288	3
NMTAP	29	0	1
NMTAP	29	0	2
NMTAP	29	96	1
NMTAP	29	96	2
NMTAP	29	192	5
NMTAP	29	192	7
NMTAP	29	288	0
NMTAP	29	288	2
NMTAP	30	0	1
NMTAP	30	0	2
NMTAP	30	96	1
NMTAP	30	96	2
NMTAP	30	192	4
NMTAP	30	192	6
NMTAP	30	288	1
NMTAP	30	288	3
NMHLD	31	0	0	96
NMTAP	31	96	2
NMTAP	31	192	4
NMTAP	31	192	6
NMTAP	31	288	1
NMTAP	31	288	3
NMTAP	32	0	4
NMTAP	32	48	4
NMTAP	32	96	3
NMTAP	32	192	4
NMTAP	32	192	5
NMTAP	32	288	4
NMTAP	32	288	5
NMTAP	33	0	5
NMTAP	33	0	6
NMTAP	33	96	5
NMTAP	33	96	6
NMTAP	33	192	0
NMTAP	33	192	2
NMTAP	33	288	5
NMTAP	33	288	7
NMTAP	34	0	4
NMTAP	34	0	6
NMTAP	34	96	4
NMTAP	34	96	6
BXHLD	34	192	5	96
BXHLD	34	192	6	96
NMTAP	35	0	4
NMTAP	35	0	6
NMTAP	35	96	4
NMTAP	35	96	6
NMTAP	35	192	1
NMTAP	35	192	3
NMTAP	35	288	4
NMTAP	35	288	6
NMTAP	36	0	5
NMTAP	36	0	6
NMTAP	36	96	5
NMTAP	36	96	6
NMTAP	36	192	0
NMTAP	36	192	2
NMTAP	36	288	5
NMTAP	36	288	7
NMTAP	37	0	5
NMTAP	37	0	6
NMTAP	37	96	5
NMTAP	37	96	6
NMTAP	37	192	1
NMTAP	37	192	3
NMTAP	37	288	4
NMTAP	37	288	6
NMTAP	38	0	6
NMTAP	38	0	7
NMTAP	38	96	6
NMTAP	38	96	7
NMTAP	38	192	0
NMTAP	38	192	7
NMSTR	38	288	0
NMSXL	38	288	0	96	288	3
NMSTR	38	288	7
NMSXR	38	288	7	96	288	4
NMTAP	40	0	2
NMTAP	40	0	4
NMTAP	40	96	3
NMTAP	40	96	5
NMTAP	40	192	2
NMTAP	40	192	4
NMTAP	40	288	3
NMTAP	40	288	5
NMTAP	41	0	1
NMTAP	41	0	4
NMTAP	41	96	3
NMTAP	41	96	6
NMTAP	41	192	1
NMTAP	41	192	4
NMTAP	41	288	3
NMTAP	41	288	6
NMTAP	42	0	0
NMTAP	42	0	5
NMTAP	42	96	2
NMTAP	42	96	7
NMTAP	42	192	0
NMTAP	42	192	5
NMTAP	42	288	2
NMTAP	42	288	7
NMTAP	43	0	0
NMTAP	43	0	6
NMTAP	43	96	4
NMTAP	43	96	5
NMTAP	43	192	2
NMTAP	43	192	3
NMTAP	43	288	1
NMSTR	43	288	7
NMSCL	43	288	7	96	960	0
NMTTP	44	0	0	C	1	M1
NMSTR	47	192	0
NMSCR	47	192	0	96	1056	7
NMTTP	52	0	0	C	0	M1
NMTTP	52	0	5	B	0	M1
NMTTP	52	96	6	B	0	M1
NMTTP	52	192	7	B	0	M1
NMTTP	52	288	0	B	0	M1
NMTTP	53	0	0	C	0	M1
NMTTP	53	0	1	B	0	M1
NMTTP	53	96	2	B	0	M1
NMTTP	53	192	3	B	0	M1
NMTTP	53	288	4	B	0	M1
NMTTP	54	0	0	C	0	M1
NMTTP	54	0	5	B	0	M1
NMTTP	54	96	6	B	0	M1
NMTTP	54	192	7	B	0	M1
NMTTP	54	288	0	B	0	M1
NMTTP	55	0	0	C	0	M1
NMTTP	55	0	1	B	0	M1
NMTTP	55	96	2	B	0	M1
NMTTP	55	192	3	B	0	M1
NMTTP	55	288	4	B	0	M1
NMTTP	56	0	0	C	0	M1
NMTTP	56	0	6	E	0	M1
NMTTP	56	96	7	E	0	M1
NMTTP	56	192	0	E	0	M1
NMTTP	56	288	1	E	0	M1
NMTTP	57	0	0	C	0	M1
NMTTP	57	0	2	E	0	M1
NMTTP	57	96	3	E	0	M1
NMTTP	57	192	4	E	0	M1
NMTTP	57	288	5	E	0	M1
NMTTP	58	0	0	C	0	M1
NMTTP	58	0	6	E	0	M1
NMTTP	58	96	7	E	0	M1
NMTTP	58	192	0	E	0	M1
NMTTP	58	288	1	E	0	M1
NMTTP	59	0	0	C	0	M1
NMTTP	59	0	2	E	0	M1
EXHLD	59	192	7	1632
NMTAP	60	0	0
NMTAP	60	96	0
NMTAP	60	192	0
NMTAP	60	288	0
NMTAP	61	0	2
NMTAP	61	96	2
NMTAP	61	192	2
NMTAP	61	288	2
NMTAP	62	0	4
NMTAP	62	96	4
NMTAP	62	192	4
NMTAP	62	288	4
NMTAP	63	0	6
NMTAP	63	96	6
NMTAP	63	192	6
NMHLD	63	288	0	1536
NMTAP	64	0	7
NMTAP	64	96	7
NMTAP	64	192	7
NMTAP	64	288	7
NMTAP	65	0	5
NMTAP	65	96	5
NMTAP	65	192	5
NMTAP	65	288	5
NMTAP	66	0	3
NMTAP	66	96	3
NMTAP	66	192	3
NMTAP	66	288	3
NMTAP	67	0	1
NMTAP	67	96	1
NMTAP	67	192	1
NMHLD	67	288	5	1536
NMTAP	68	0	3
NMTAP	68	96	3
NMTAP	68	192	4
NMTAP	68	288	4
NMTAP	69	0	6
NMTAP	69	96	6
NMTAP	69	192	7
NMTAP	69	288	7
NMTAP	70	0	0
NMTAP	70	96	0
NMTAP	70	192	1
NMTAP	70	288	1
NMTAP	71	0	2
NMTAP	71	96	2
NMTAP	71	192	3
NMHLD	71	288	2	1344
NMTAP	72	0	4
NMTAP	72	96	4
NMTAP	72	192	3
NMTAP	72	288	3
NMTAP	73	0	1
NMTAP	73	96	1
NMTAP	73	192	0
NMTAP	73	288	0
NMTAP	74	0	7
NMTAP	74	96	7
NMTAP	74	192	6
NMTAP	74	288	6
NMTAP	75	0	5
NMTAP	75	96	5
NMTAP	75	192	4
EXTAP	75	288	3
EXTAP	75	288	4
NMHLD	76	0	5	192
NMTAP	76	96	4
NMTAP	76	144	4
NMHLD	76	192	3	192
NMTAP	76	288	4
NMTAP	76	336	4
NMHLD	77	0	5	192
NMTAP	77	96	4
NMTAP	77	144	4
NMTAP	77	192	3
NMTAP	77	288	1
NMTAP	77	288	7
NMHLD	78	0	2	192
NMTAP	78	96	3
NMTAP	78	144	3
NMHLD	78	192	4	192
NMTAP	78	288	3
NMTAP	78	336	3
NMHLD	79	0	2	192
NMTAP	79	96	3
NMTAP	79	144	3
NMTAP	79	192	4
EXTAP	79	288	1
EXTAP	79	288	5
NMSTR	80	0	0
NMSI_	80	0	0	96	48	2
NMSTR	80	192	6
NMSI_	80	192	6	96	48	4
NMSTR	81	0	1
NMSI_	81	0	1	96	48	3
NMSTR	81	192	7
NMSI_	81	192	7	96	48	5
NMSTR	82	0	0
NMSI_	82	0	0	96	96	4
NMTAP	82	48	0
NMSTR	82	192	7
NMSI_	82	192	7	96	96	3
NMTAP	82	240	7
NMHLD	83	0	0	576
NMTAP	84	0	3
NMTAP	84	96	3
NMSTR	84	192	4
NMSXL	84	192	4	96	288	0
EXTAP	85	288	0
EXTAP	85	288	7
NMTAP	86	0	5
NMTAP	86	48	5
NMTAP	86	96	4
NMTAP	86	192	3
NMTAP	86	192	5
NMTAP	86	288	3
NMTAP	86	288	5
NMTAP	87	0	2
NMTAP	87	0	4
NMTAP	87	96	2
NMTAP	87	96	4
NMTAP	87	192	1
NMTAP	87	192	5
NMTAP	87	288	2
NMTAP	87	336	2
NMTAP	88	0	3
NMTAP	88	96	2
NMTAP	88	96	4
NMTAP	88	192	2
NMTAP	88	192	4
NMTAP	88	288	1
NMTAP	88	288	5
NMTAP	89	0	1
NMTAP	89	0	5
NMTAP	89	96	0
NMTAP	89	96	6
NMHLD	89	192	1	96
NMTAP	89	192	5
BRTAP	89	288	0
BRTAP	90	0	0
BRTAP	90	0	1
BRTAP	90	96	2
BRTAP	90	96	3
BRTAP	90	192	4
BRTAP	90	192	5
BRTAP	90	288	6
BRTAP	90	288	7
BRHLD	91	0	0	48
BRHLD	91	0	1	48
BRTAP	91	96	2
BRTAP	91	96	3
BRTAP	91	192	4
BRTAP	91	192	5
BRTAP	91	288	6
BRTAP	91	288	7
BRTAP	92	0	6
BRTAP	92	0	7
BRTAP	92	96	4
BRTAP	92	96	5
BRTAP	92	192	2
BRTAP	92	192	3
BRTAP	92	288	0
BRTAP	92	288	1
BRHLD	93	0	1	96
BRTAP	93	96	3
BRTAP	93	192	0
BRTAP	93	192	4
NMHLD	93	288	5	96
NMTAP	94	0	4
NMTAP	94	96	6
NMTAP	94	96	7
NMTAP	94	192	0
NMTAP	94	192	1
NMTAP	94	288	2
NMTAP	94	312	3
NMTAP	94	336	2
NMTAP	95	0	1
NMTAP	95	0	4
NMTAP	95	96	0
NMTAP	95	96	1
NMTAP	95	192	6
NMTAP	95	192	7
NMTAP	95	288	5
NMTAP	95	312	4
NMTAP	95	336	5
NMTAP	96	0	3
NMTAP	96	0	6
NMTAP	96	96	6
NMTAP	96	96	7
NMTAP	96	192	0
NMTAP	96	192	1
NMTAP	96	288	2
NMTAP	96	312	3
NMTAP	96	336	2
NMTAP	97	0	1
NMTAP	97	0	4
NMTAP	97	96	0
NMTAP	97	96	1
NMSTR	97	192	0
BRSI_	97	192	0	96	48	4
NMTAP	97	192	7
BRTAP	97	288	5
NMTAP	98	0	6
NMTAP	98	48	6
NMTAP	98	96	4
NMTAP	98	144	4
NMTAP	98	192	5
NMTAP	98	240	5
NMTAP	98	288	3
NMTAP	98	336	3
NMTAP	99	0	4
NMTAP	99	48	4
NMTAP	99	96	2
NMTAP	99	144	2
NMTAP	99	192	3
NMTAP	99	240	3
NMTAP	99	288	1
NMTAP	99	336	1
NMTAP	100	0	4
NMTAP	100	48	4
NMTAP	100	96	2
NMTAP	100	144	2
NMTAP	100	192	5
NMTAP	100	240	5
NMTAP	100	288	3
NMTAP	100	336	3
NMTTP	101	0	6	E	0	M1
NMTTP	101	96	0	C	0	M1
NMTTP	101	192	2	E	0	M1
NMTTP	101	288	3	B	0	M1
NMTTP	101	288	4	B	0	M1
NMTTP	101	288	4	E	1	M1
NMSTR	102	96	6
NMSI_	102	96	6	96	48	3
NMSTR	102	192	2
NMSI_	102	192	2	96	48	7
NMSTR	102	288	5
NMSI_	102	288	5	96	48	0
NMSTR	103	0	1
NMSI_	103	0	1	96	48	4
NMSTR	103	96	6
NMSI_	103	96	6	96	48	3
NMSTR	103	192	2
NMSI_	103	192	2	96	48	7
NMSTR	103	288	5
NMSI_	103	288	5	96	48	0
NMSTR	104	0	1
NMSI_	104	0	1	96	48	4
NMSTR	104	96	6
NMSI_	104	96	6	96	48	3
NMSTR	104	192	2
NMSI_	104	192	2	96	48	7
NMSTR	104	288	5
NMSI_	104	288	5	96	48	0
NMSTR	105	0	1
NMSI_	105	0	1	96	48	4
NMSTR	105	96	6
NMSI_	105	96	6	96	48	3
NMTAP	105	192	2
NMTAP	105	240	2
NMTAP	105	288	4
NMTAP	105	336	4
NMSTR	106	0	1
NMSI_	106	0	1	96	48	6
NMSTR	106	96	5
NMSI_	106	96	5	96	48	2
NMSTR	106	192	0
NMSI_	106	192	0	96	48	3
NMSTR	106	288	4
NMSI_	106	288	4	96	48	7
NMSTR	107	0	1
NMSI_	107	0	1	96	48	6
NMSTR	107	96	5
NMSI_	107	96	5	96	48	2
NMSTR	107	192	0
NMSI_	107	192	0	96	48	3
NMSTR	107	288	4
NMSI_	107	288	4	96	48	7
NMSTR	108	0	1
NMSI_	108	0	1	96	48	6
NMSTR	108	96	5
NMSI_	108	96	5	96	48	2
NMSTR	108	192	0
NMSI_	108	192	0	96	48	3
NMSTR	108	288	4
NMSI_	108	288	4	96	48	7
NMSTR	109	0	1
NMSI_	109	0	1	96	48	6
NMSTR	109	96	5
NMSI_	109	96	5	96	48	2
NMHLD	109	192	0	96
BRTAP	109	288	3
NMSTR	110	0	5
NMSI_	110	0	5	96	48	0
NMSTR	110	96	2
NMSI_	110	96	2	96	48	7
NMSTR	110	192	4
NMSI_	110	192	4	96	48	0
NMSTR	110	288	3
NMSI_	110	288	3	96	48	7
NMSTR	111	0	5
NMSI_	111	0	5	96	48	0
NMSTR	111	96	2
NMSI_	111	96	2	96	48	7
NMSTR	111	192	4
NMSI_	111	192	4	96	48	0
NMSTR	111	288	3
NMSI_	111	288	3	96	48	7
NMSTR	112	0	5
NMSI_	112	0	5	96	48	0
NMSTR	112	96	2
NMSI_	112	96	2	96	48	7
NMSTR	112	192	4
NMSI_	112	192	4	96	48	0
NMSTR	112	288	3
NMSI_	112	288	3	96	48	7
NMSTR	113	0	5
NMSI_	113	0	5	96	48	0
NMHLD	113	96	2	96
NMTAP	113	192	4
BRTAP	113	288	1
BRTAP	113	288	5
NMSTR	114	0	6
NMSI_	114	0	6	96	48	3
NMSTR	114	96	4
NMSI_	114	96	4	96	48	1
NMSTR	114	192	0
NMSI_	114	192	0	96	48	5
NMSTR	114	288	2
NMSI_	114	288	2	96	48	7
NMSTR	115	0	6
NMSI_	115	0	6	96	48	3
NMSTR	115	96	4
NMSI_	115	96	4	96	48	1
NMSTR	115	192	0
NMSI_	115	192	0	96	48	5
NMSTR	115	288	2
NMSI_	115	288	2	96	48	7
NMSTR	116	0	6
NMSI_	116	0	6	96	48	3
NMSTR	116	96	4
NMSI_	116	96	4	96	48	1
NMSTR	116	192	0
NMSI_	116	192	0	96	48	5
NMSTR	116	288	2
NMSI_	116	288	2	96	48	7
NMHLD	117	0	6	96
NMHLD	117	96	4	96
NMHLD	117	192	3	96
BRSTR	117	288	1
BRSI_	117	288	1	96	48	5

T_REC_TAP	322
T_REC_BRK	35
T_REC_XTP	16
T_REC_BXX	0
T_REC_HLD	71
T_REC_XHO	3
T_REC_BHO	3
T_REC_BXH	2
T_REC_STR	65
T_REC_BST	1
T_REC_XST	0
T_REC_XBS	0
T_REC_TTP	60
T_REC_THO	0
T_REC_SLD	64
T_REC_BSL	2
T_REC_ALL	644
T_NUM_TAP	463
T_NUM_BRK	43
T_NUM_HLD	74
T_NUM_SLD	64
T_NUM_ALL	644
T_JUDGE_TAP	499
T_JUDGE_HLD	265
T_JUDGE_SLD	66
T_JUDGE_ALL	830
TTM_EACHPAIRS	128
TTM_SCR_TAP	231500
TTM_SCR_BRK	111800
TTM_SCR_HLD	74000
TTM_SCR_SLD	96000
TTM_SCR_ALL	513300
TTM_SCR_S	493750
TTM_SCR_SS	509000
TTM_RAT_ACV	10084

