VERSION	0.00.00	1.04.00
FES_MODE	0
BPM_DEF	200.000	200.000	200.000	200.000
MET_DEF	4	4
RESOLUTION	384
CLK_DEF	384
COMPATIBLE_CODE	MA2

BPM	0	0	200.000
MET	0	0	4	4

NMTAP	2	0	1
NMTAP	2	192	1
NMTAP	3	0	2
NMTAP	3	192	2
NMTAP	4	0	3
NMTAP	4	192	3
NMTAP	5	0	4
NMTAP	5	0	5
NMTAP	6	0	6
NMTAP	6	192	6
NMTAP	7	0	5
NMTAP	7	192	5
NMTAP	8	0	4
NMTAP	8	192	4
EXTAP	9	0	2
EXTAP	9	0	3
NMTAP	10	0	2
NMTAP	10	96	2
NMTAP	10	192	2
NMTAP	11	0	1
NMTAP	11	96	1
NMTAP	11	192	1
NMTAP	12	0	0
NMTAP	12	96	0
NMTAP	12	192	0
NMTAP	13	0	6
NMTAP	13	0	7
NMTAP	14	0	5
NMTAP	14	96	5
NMTAP	14	192	5
NMTAP	15	0	6
NMTAP	15	96	6
NMTAP	15	192	6
NMTAP	16	0	7
NMTAP	16	96	7
NMTAP	16	192	7
BRTAP	17	0	0
BRTAP	17	0	1
NMSTR	18	0	7
NMSSR	18	0	7	96	480	3
NMTAP	20	0	2
NMTAP	20	96	2
NMTAP	20	192	3
NMTAP	20	288	3
NMTAP	21	0	4
NMTAP	21	96	4
NMTAP	21	192	4
NMTAP	21	192	5
NMTAP	22	0	6
NMTAP	22	96	6
NMTAP	22	192	5
NMTAP	22	288	5
NMTAP	23	0	4
NMTAP	23	96	4
NMTAP	23	192	2
NMTAP	23	192	3
NMTAP	24	0	2
NMTAP	24	96	2
NMTAP	24	192	1
NMTAP	24	288	1
NMTAP	25	0	0
NMTAP	25	96	0
NMTAP	25	192	6
NMTAP	25	192	7
NMTAP	26	0	5
NMTAP	26	96	5
NMTAP	26	192	6
NMTAP	26	288	6
NMTAP	27	0	7
NMTAP	27	96	7
NMTAP	27	192	0
NMTAP	27	192	1
NMSTR	28	0	1
NMSI_	28	0	1	96	192	4
NMTAP	29	0	5
NMTAP	29	96	5
NMTAP	29	192	4
NMTAP	29	192	5
NMSTR	30	0	6
NMSI_	30	0	6	96	192	3
NMTAP	31	0	2
NMTAP	31	96	2
NMTAP	31	192	2
NMTAP	31	192	3
NMSTR	32	0	1
NMSI_	32	0	1	96	192	4
NMTAP	33	0	5
NMTAP	33	96	5
NMTAP	33	192	4
NMTAP	33	192	5
NMSTR	34	0	6
NMSI_	34	0	6	96	192	3
NMTAP	35	0	2
NMTAP	35	96	2
NMTAP	35	192	2
NMTAP	35	192	3
NMSTR	36	0	1
NMSCR	36	0	1	96	192	4
NMSTR	37	0	5
NMSCR	37	0	5	96	192	0
NMSTR	38	0	1
NMSI_	38	0	1	96	192	5
NMTAP	39	0	6
NMTAP	39	96	6
NMTAP	39	192	6
NMTAP	39	192	7
NMSTR	40	0	6
NMSCL	40	0	6	96	192	3
NMSTR	41	0	2
NMSCL	41	0	2	96	192	7
NMSTR	42	0	6
NMSI_	42	0	6	96	192	2
NMTAP	43	0	1
NMTAP	43	96	1
NMTAP	43	192	0
NMTAP	43	192	1
NMHLD	44	0	1	384
NMHLD	45	0	2	384
NMHLD	46	0	3	384
NMTAP	47	0	4
NMHLD	48	0	6	384
NMHLD	49	0	5	384
NMHLD	50	0	4	384
NMTAP	51	0	3
NMTTP	52	0	1	B	0	L1
NMTTP	52	192	0	B	0	L1
NMTTP	53	0	7	B	0	L1
NMTTP	53	192	6	B	0	L1
NMTTP	54	0	5	B	0	L1
NMTTP	54	192	4	B	0	L1
NMTTP	55	0	0	C	0	L1
NMTTP	56	0	6	B	0	L1
NMTTP	56	192	7	B	0	L1
NMTTP	57	0	0	B	0	L1
NMTTP	57	192	1	B	0	L1
NMTTP	58	0	2	B	0	L1
NMTTP	58	192	3	B	0	L1
NMTTP	59	0	0	C	0	L1
NMSTR	60	0	7
NMSI_	60	0	7	96	192	4
NMTAP	61	0	3
NMTAP	61	96	3
NMTAP	61	192	2
NMTAP	61	192	3
NMTAP	62	0	1
NMTAP	62	96	1
NMTAP	62	192	0
NMTAP	62	192	1
NMTAP	63	0	6
NMTAP	63	0	7
NMTAP	63	96	6
NMTAP	63	96	7
NMTAP	63	192	6
NMTAP	63	192	7
NMSTR	64	0	0
NMSI_	64	0	0	96	192	3
NMTAP	65	0	4
NMTAP	65	96	4
NMTAP	65	192	4
NMTAP	65	192	5
NMTAP	66	0	6
NMTAP	66	96	6
NMTAP	66	192	6
NMTAP	66	192	7
NMTAP	67	0	0
NMTAP	67	0	1
NMTAP	67	96	0
NMTAP	67	96	1
NMTAP	67	192	0
NMTAP	67	192	1
NMSTR	68	0	2
NMSI_	68	0	2	96	192	5
NMTAP	69	0	6
NMTAP	69	96	6
NMTAP	69	192	6
NMTAP	69	192	7
NMTAP	70	0	5
NMTAP	70	96	4
NMTAP	70	192	2
NMTAP	70	192	3
NMTAP	71	0	1
NMTAP	71	96	0
NMTAP	71	192	6
NMTAP	71	192	7
NMSTR	72	0	5
NMSI_	72	0	5	96	192	2
NMTAP	73	0	1
NMTAP	73	96	1
NMTAP	73	192	0
NMTAP	73	192	1
NMTAP	74	0	2
NMTAP	74	96	3
NMTAP	74	192	4
NMTAP	74	192	5
NMTAP	75	0	6
NMTAP	75	96	7
NMTAP	75	192	0
NMTAP	75	192	1
NMTAP	76	0	7
NMTAP	76	96	7
NMTAP	76	192	7
NMTAP	76	288	6
NMTAP	76	288	7
NMTAP	77	0	5
NMTAP	77	96	5
NMTAP	77	192	5
NMTAP	77	288	4
NMTAP	77	288	5
NMTAP	78	0	3
NMTAP	78	96	3
NMTAP	78	192	3
NMTAP	78	288	2
NMTAP	78	288	3
NMTAP	79	0	1
NMTAP	79	96	1
NMTAP	79	192	0
NMTAP	79	192	1
NMTAP	80	0	0
NMTAP	80	96	0
NMTAP	80	192	0
NMTAP	80	288	0
NMTAP	80	288	1
NMTAP	81	0	2
NMTAP	81	96	2
NMTAP	81	192	2
NMTAP	81	288	2
NMTAP	81	288	3
NMTAP	82	0	4
NMTAP	82	96	4
NMTAP	82	192	4
NMTAP	82	288	4
NMTAP	82	288	5
EXTAP	83	0	6
EXTAP	83	96	6
EXTAP	83	192	6
EXTAP	83	192	7
EXSTR	84	0	0
NMSSL	84	0	0	96	480	4
NMHLD	86	0	5	192
NMHLD	86	192	6	192
NMHLD	87	0	7	192
NMHLD	87	192	0	192
NMHLD	88	0	1	192
NMHLD	88	192	2	192
NMHLD	89	0	3	192
BXTAP	89	192	4
NMTAP	90	0	2
NMTAP	90	0	3
NMTAP	90	96	2
NMTAP	90	96	3
NMTAP	90	192	2
NMTAP	90	192	3
NMTAP	90	288	2
NMTAP	90	288	3
NMTAP	91	0	0
NMTAP	91	0	1
NMTAP	91	96	0
NMTAP	91	96	1
NMTAP	91	192	0
NMTAP	91	192	1
NMTAP	91	288	0
NMTAP	91	288	1
NMTAP	92	0	6
NMTAP	92	0	7
NMTAP	92	96	6
NMTAP	92	96	7
NMTAP	92	192	6
NMTAP	92	192	7
NMTAP	92	288	6
NMTAP	92	288	7
NMTAP	93	0	4
NMTAP	93	0	5
NMTAP	93	96	4
NMTAP	93	96	5
NMTAP	93	192	4
NMTAP	93	192	5
NMTAP	93	288	4
NMTAP	93	288	5
NMSTR	94	0	2
NMSI_	94	0	2	96	192	7
NMSTR	94	0	3
NMSI_	94	0	3	96	192	6
NMSTR	95	0	4
NMSI_	95	0	4	96	192	1
NMSTR	95	0	5
NMSI_	95	0	5	96	192	0
NMHLD	96	0	2	192
NMHLD	96	192	3	192
NMHLD	97	0	4	192
NMTAP	97	192	5
NMTAP	98	0	3
NMTAP	98	96	2
NMTAP	98	192	1
NMTAP	98	288	0
NMTAP	99	0	7
NMTAP	99	96	6
NMTAP	99	192	5
NMTAP	99	288	4
NMTAP	100	0	3
NMTAP	100	96	2
NMTAP	100	192	1
NMTAP	100	288	0
BRTAP	101	0	7
BRTAP	101	96	7
BRTAP	101	192	0
BRTAP	101	192	7
NMTAP	102	0	1
NMTAP	102	48	1
NMTAP	102	96	1
NMTAP	102	192	2
NMTAP	102	192	3
NMTAP	102	288	2
NMTAP	102	288	3
NMTAP	103	0	4
NMTAP	103	96	4
NMTAP	103	192	4
NMTAP	103	192	5
NMTAP	104	0	6
NMTAP	104	48	6
NMTAP	104	96	6
NMTAP	104	192	4
NMTAP	104	192	5
NMTAP	104	288	4
NMTAP	104	288	5
NMTAP	105	0	3
NMTAP	105	96	3
NMTAP	105	192	2
NMTAP	105	192	3
NMTAP	106	0	2
NMTAP	106	48	2
NMTAP	106	96	2
NMTAP	106	192	0
NMTAP	106	192	1
NMTAP	106	288	0
NMTAP	106	288	1
NMTAP	107	0	7
NMTAP	107	96	7
NMTAP	107	192	6
NMTAP	107	192	7
NMTAP	108	0	5
NMTAP	108	48	5
NMTAP	108	96	5
NMTAP	108	192	6
NMTAP	108	192	7
NMTAP	108	288	6
NMTAP	108	288	7
NMTAP	109	0	0
NMTAP	109	96	0
EXTAP	109	192	0
EXTAP	109	192	1
NMTAP	110	0	1
NMTAP	110	48	1
NMTAP	110	96	1
NMTAP	110	192	2
NMTAP	110	240	2
NMTAP	110	288	2
NMTAP	111	0	3
NMTAP	111	48	3
NMTAP	111	96	3
NMTAP	111	192	4
NMTAP	111	192	5
NMTAP	112	0	6
NMTAP	112	48	6
NMTAP	112	96	6
NMTAP	112	192	5
NMTAP	112	240	5
NMTAP	112	288	5
NMTAP	113	0	4
NMTAP	113	48	4
NMTAP	113	96	4
NMTAP	113	192	2
NMTAP	113	192	3
NMTAP	114	0	2
NMTAP	114	48	2
NMTAP	114	96	2
NMTAP	114	192	1
NMTAP	114	240	1
NMTAP	114	288	1
NMTAP	115	0	0
NMTAP	115	48	0
NMTAP	115	96	0
NMTAP	115	192	6
NMTAP	115	192	7
NMTAP	116	0	5
NMTAP	116	48	5
NMTAP	116	96	5
NMTAP	116	192	6
NMTAP	116	240	6
NMTAP	116	288	6
NMTAP	117	0	7
NMTAP	117	48	7
NMTAP	117	96	7
NMTAP	117	192	0
NMTAP	117	240	0
NMTAP	117	288	0
BRTAP	118	0	0
BRTAP	118	0	7

T_REC_TAP	310
T_REC_BRK	8
T_REC_XTP	8
T_REC_BXX	1
T_REC_HLD	16
T_REC_XHO	0
T_REC_BHO	0
T_REC_BXH	0
T_REC_STR	19
T_REC_BST	0
T_REC_XST	1
T_REC_XBS	0
T_REC_TTP	14
T_REC_THO	0
T_REC_SLD	20
T_REC_BSL	0
T_REC_ALL	397
T_NUM_TAP	352
T_NUM_BRK	9
T_NUM_HLD	16
T_NUM_SLD	20
T_NUM_ALL	397
T_JUDGE_TAP	361
T_JUDGE_HLD	88
T_JUDGE_SLD	20
T_JUDGE_ALL	469
TTM_EACHPAIRS	73
TTM_SCR_TAP	176000
TTM_SCR_BRK	23400
TTM_SCR_HLD	16000
TTM_SCR_SLD	30000
TTM_SCR_ALL	245400
TTM_SCR_S	237200
TTM_SCR_SS	244500
TTM_RAT_ACV	10036

