VERSION	0.00.00	1.04.00
FES_MODE	0
BPM_DEF	190.000	190.000	190.000	190.000
MET_DEF	4	4
RESOLUTION	384
CLK_DEF	384
COMPATIBLE_CODE	MA2

BPM	0	0	190.000
MET	0	0	4	4

NMHLD	1	0	2	384
NMHLD	1	0	4	384
NMSTR	2	96	3
NMSF_	2	96	3	96	96	7
BXTAP	3	0	0
BXTAP	3	0	6
NMSTR	3	96	1
NMSCR	3	96	1	96	48	4
NMTAP	3	96	5
NMTAP	3	192	4
NMTAP	3	288	7
NMSTR	3	336	7
NMSI_	3	336	7	96	48	3
NMTAP	4	48	2
NMSTR	4	96	2
NMSCR	4	96	2	96	48	5
NMTAP	4	192	6
NMTAP	4	288	7
NMSTR	4	336	7
NMSI_	4	336	7	96	48	3
NMTAP	5	48	2
NMSTR	5	96	2
NMSCL	5	96	2	96	48	7
NMTAP	5	192	4
NMTAP	5	288	5
NMHLD	5	336	5	96
NMHLD	6	48	7	96
NMTAP	6	144	0
NMTAP	6	240	1
NMTAP	6	240	7
NMTAP	6	288	1
NMTAP	6	288	7
BXTAP	7	0	4
BXTAP	7	0	5
NMSTR	7	96	6
NMSCL	7	96	6	96	48	3
NMTAP	7	192	3
NMTAP	7	288	2
NMSTR	7	336	2
NMSI_	7	336	2	96	48	7
NMTAP	8	48	5
NMSTR	8	96	5
NMSCL	8	96	5	96	48	2
NMTAP	8	192	2
NMTAP	8	288	0
NMSTR	8	336	0
NMSI_	8	336	0	96	48	4
NMTAP	9	48	7
NMSTR	9	96	6
NMSCL	9	96	6	96	48	3
NMTAP	9	192	3
NMTAP	9	288	2
NMHLD	9	336	2	336
NMTAP	11	0	2
NMTAP	11	0	3
NMTAP	11	96	2
NMHLD	11	96	3	288
NMTTP	11	192	1	B	0	M1
NMTTP	11	192	1	A	0	M1
NMHLD	12	0	2	192
NMTAP	12	96	3
NMTTP	12	192	0	B	0	M1
NMTTP	12	192	0	A	0	M1
NMHLD	13	0	3	96
NMHLD	13	0	4	96
NMHLD	13	192	4	96
NMHLD	13	192	5	96
NMSTR	14	0	4
NMSLL	14	0	4	96	192	7
NMTAP	14	0	6
NMTAP	14	96	6
NMTAP	14	192	5
NMTAP	15	0	0
NMTAP	15	0	4
NMHLD	15	96	0	288
NMTAP	15	96	4
NMTTP	15	192	2	B	0	M1
NMTTP	15	192	2	A	0	M1
NMSTR	16	0	3
NMSV_	16	0	3	96	96	0
NMTAP	16	96	1
CNSCR	16	192	0	0	96	1
NMHLD	16	192	2	288
NMHLD	17	0	3	96
NMHLD	17	192	3	240
NMTAP	17	192	4
NMHLD	17	288	5	480
NMTAP	19	0	4
NMHLD	19	96	4	288
NMTAP	19	96	5
NMTTP	19	192	6	B	0	M1
NMTTP	19	192	6	A	0	M1
NMHLD	20	0	5	192
NMTAP	20	96	4
NMTTP	20	192	7	B	0	M1
NMTTP	20	192	7	A	0	M1
NMHLD	21	0	3	96
NMHLD	21	0	4	96
NMHLD	21	192	2	96
NMHLD	21	192	3	96
BXHLD	22	0	2	192
NMSTR	22	0	3
NMSLR	22	0	3	96	192	0
NMTAP	23	0	3
NMTAP	23	0	7
NMTAP	23	96	3
NMHLD	23	96	7	288
NMTTP	23	192	5	B	0	M1
NMTTP	23	192	5	A	0	M1
NMSTR	24	0	4
NMSV_	24	0	4	96	96	7
NMTAP	24	96	6
NMHLD	24	192	5	192
CNSCL	24	192	7	0	96	6
NMHLD	25	0	4	384
NMTAP	26	192	0
NMTAP	26	192	7
NMTAP	26	240	1
NMSTR	26	288	4
BRSCR	26	288	4	96	48	7
BXTAP	27	0	2
BXTAP	27	0	4
NMSTR	27	96	1
NMSI_	27	96	1	96	48	4
NMTAP	27	192	0
NMTAP	27	192	1
NMTAP	27	288	7
NMTAP	27	336	7
NMTAP	28	0	4
NMTAP	28	0	6
NMTAP	28	48	5
NMTAP	28	96	3
NMTAP	28	96	4
NMTAP	28	144	2
NMSTR	28	192	1
NMSCR	28	192	1	96	48	4
NMSTR	28	240	4
NMSI_	28	240	4	96	48	0
NMTAP	28	288	1
NMTAP	28	336	7
NMHLD	29	0	6	384
NMTAP	29	96	0
NMTAP	29	144	0
NMTAP	29	192	7
NMTAP	29	240	7
NMTAP	29	288	5
NMTAP	29	336	5
NMSTR	30	0	4
NMSI_	30	0	4	96	48	1
NMTAP	30	48	4
NMSTR	30	96	7
NMSI_	30	96	7	96	48	3
NMTAP	30	144	7
EXTAP	30	192	0
EXTAP	30	240	1
NMTAP	30	288	2
NMTAP	30	288	4
NMTAP	31	0	3
NMSTR	31	0	5
NMSCR	31	0	5	96	48	7
NMSTR	31	96	1
NMSI_	31	96	1	96	48	4
NMTAP	31	96	5
EXTAP	31	192	0
NMTAP	31	192	1
NMTAP	31	288	3
NMTAP	31	288	5
NMTAP	31	336	3
NMTAP	31	336	5
NMTAP	32	0	6
NMTAP	32	48	7
NMTAP	32	96	0
NMTAP	32	144	1
NMSTR	32	192	2
NMSI_	32	192	2	96	48	4
NMSTR	32	240	6
NMSI_	32	240	6	96	48	2
NMTAP	32	288	2
NMTAP	32	336	6
BXTAP	33	0	0
NMTAP	33	96	0
NMTAP	33	96	1
NMTAP	33	144	2
NMTAP	33	192	1
NMTAP	33	192	3
NMTAP	33	240	4
NMTAP	33	288	3
NMTAP	33	288	5
NMTAP	33	336	2
NMTAP	33	336	6
NMTAP	34	0	2
NMTAP	34	0	6
NMTAP	34	48	1
NMTAP	34	72	0
NMTAP	34	96	1
NMTAP	34	120	0
NMTAP	34	144	1
NMTAP	34	192	6
NMTAP	34	216	7
NMTAP	34	240	6
NMTAP	34	264	7
BXTAP	34	288	6
EXSTR	35	0	1
NMSI_	35	0	1	96	48	3
EXSTR	35	0	4
NMSI_	35	0	4	96	48	0
EXSTR	35	192	0
NMSI_	35	192	0	96	48	4
EXSTR	35	192	3
NMSI_	35	192	3	96	48	7
EXSTR	36	0	4
NMSI_	36	0	4	96	48	6
EXSTR	36	0	7
NMSI_	36	0	7	96	48	3
EXTAP	36	192	2
EXTAP	36	192	7
NMSTR	36	288	0
NMSCR	36	288	0	96	96	4
NMTAP	36	288	6
NMSTR	37	0	4
NMSCR	37	0	4	96	96	0
NMSTR	37	96	0
NMSCR	37	96	0	96	48	2
NMTAP	37	192	4
CNSI_	37	240	2	0	48	4
NMTAP	37	288	0
BXTAP	38	0	2
BXTAP	38	0	6
NMTAP	38	192	3
NMTAP	38	192	5
EXTAP	38	240	6
EXSTR	38	288	7
BRSI_	38	288	7	96	96	3
NMTAP	39	0	3
NMSTR	39	96	0
NMSI_	39	96	0	96	96	4
NMTAP	39	192	4
NMTAP	39	288	5
NMSTR	40	0	6
NMSCR	40	0	6	96	96	2
NMSTR	40	96	2
NMSCL	40	96	2	96	96	6
BXHLD	40	192	4	192
NMHLD	41	0	6	96
NMHLD	41	96	4	96
NMSTR	41	192	3
NMSF_	41	192	3	96	48	7
BXTAP	42	0	0
BXTAP	42	0	6
NMHLD	43	0	3	384
NMHLD	43	0	4	768
NMSTR	45	0	2
NMSXR	45	0	2	96	480	4
NMHLD	47	0	3	768
NMHLD	47	0	5	384
NMSTR	49	0	5
BRSXL	49	0	5	96	480	3
NMHLD	51	0	2	240
NMHLD	51	0	4	288
NMHLD	52	0	3	288
NMHLD	52	0	5	240
NMTAP	53	0	3
NMHLD	53	0	4	576
NMHLD	54	0	2	384
NMSTR	55	0	3
NMSCL	55	0	3	96	576	4
NMSTR	57	0	3
BRSCL	57	0	3	96	672	4
NMHLD	57	0	5	768
NMTAP	60	192	3
NMTAP	60	192	4
NMTAP	60	240	2
NMTAP	60	240	5
NMSTR	60	288	0
NMSI_	60	288	0	96	48	3
NMSTR	60	288	7
BRSI_	60	288	7	96	48	4
BXTAP	61	0	0
NMTTP	61	0	3	B	0	M1
NMTTP	61	0	3	E	0	M1
NMTTP	61	0	4	B	0	M1
NMTTP	61	0	4	E	1	M1
NMTTP	61	0	5	E	0	M1
BXTAP	61	0	7
NMSTR	61	96	6
NMSI_	61	96	6	96	48	2
NMTAP	61	144	6
NMSTR	61	192	1
NMSI_	61	192	1	96	48	5
NMTAP	61	240	1
NMSTR	61	288	4
NMSCR	61	288	4	96	192	2
NMTAP	61	336	4
NMTAP	62	0	2
NMTAP	62	48	2
NMTAP	62	96	3
NMTAP	62	144	3
NMTAP	62	192	4
NMTAP	62	240	4
BRSTR	62	288	3
BRSI_	62	288	3	96	48	0
BRTAP	62	288	5
BRTAP	63	0	3
BRSTR	63	0	6
BRSI_	63	0	6	96	48	3
BRSTR	63	96	1
BRSCL	63	96	1	96	48	6
BRTAP	63	96	6
BRTAP	63	192	1
BRTAP	63	192	5
NMTAP	63	288	4
NMTAP	63	336	4
NMTAP	64	0	3
NMTAP	64	0	5
NMTAP	64	48	2
NMTAP	64	96	1
NMTAP	64	96	7
NMTAP	64	144	6
BRSTR	64	192	5
NMSI_	64	192	5	96	48	0
BRSTR	64	240	1
NMSI_	64	240	1	96	48	4
BRTAP	64	288	5
BRTAP	64	336	1
BRHLD	65	0	7	96
NMTAP	65	96	4
NMTAP	65	144	4
NMTAP	65	192	5
NMTAP	65	240	5
NMTAP	65	288	6
NMTAP	65	336	6
NMTAP	66	0	0
NMTAP	66	0	5
NMTAP	66	48	1
NMTAP	66	96	2
NMTAP	66	96	7
NMTAP	66	144	3
NMTAP	66	144	6
NMTAP	66	192	5
NMTAP	66	216	4
NMTAP	66	240	5
NMTAP	66	288	3
NMTAP	66	288	4
NMTAP	66	336	2
NMTAP	66	360	3
NMSTR	67	0	1
NMSI_	67	0	1	96	48	7
NMTAP	67	96	1
NMTAP	67	96	3
NMSTR	67	192	1
NMSI_	67	192	1	96	48	7
NMTAP	67	288	1
NMTAP	67	288	3
NMSTR	68	0	0
NMSI_	68	0	0	96	48	4
NMTAP	68	96	0
NMSTR	68	96	7
NMSI_	68	96	7	96	48	3
NMTAP	68	192	1
BRTAP	68	192	7
NMTAP	68	288	2
NMTAP	68	288	4
NMSTR	69	0	3
NMSI_	69	0	3	96	48	1
NMTAP	69	0	5
NMTAP	69	96	3
NMSTR	69	96	4
NMSI_	69	96	4	96	48	6
NMSTR	69	192	3
NMSI_	69	192	3	96	48	7
NMTAP	69	192	4
NMTAP	69	288	3
NMSTR	69	288	4
NMSCR	69	288	4	96	144	3
NMTTP	70	0	0	C	1	M1
BRTAP	70	0	4
NMTAP	70	192	1
NMTAP	70	240	1
NMTAP	70	288	4
NMTAP	70	336	5
NMSTR	71	0	6
NMSCR	71	0	6	96	48	0
NMTAP	71	96	4
NMTAP	71	144	3
NMSTR	71	192	2
NMSCR	71	192	2	96	48	4
NMTAP	71	288	5
NMTAP	71	336	6
NMSTR	72	0	7
BRSI_	72	0	7	96	48	3
BRTAP	72	96	3
BRTAP	72	96	7
BRTAP	72	192	2
BRTAP	72	192	4
NMSTR	72	288	1
NMSI_	72	288	1	96	48	5
NMSTR	73	0	0
NMSI_	73	0	0	96	48	4
NMSTR	73	96	7
NMSI_	73	96	7	96	48	3
NMSTR	73	192	6
NMSI_	73	192	6	96	48	2
NMSTR	73	288	5
NMSI_	73	288	5	96	48	1
NMTAP	74	0	4
NMTAP	74	96	0
NMTAP	74	144	0
NMTAP	74	192	1
BRTAP	74	192	7
NMSTR	74	288	0
NMSI_	74	288	0	96	48	4
NMTAP	74	288	5
NMSTR	75	0	0
NMSI_	75	0	0	96	48	2
NMTAP	75	0	3
NMSTR	75	96	0
NMSI_	75	96	0	96	48	4
NMTAP	75	96	5
NMSTR	75	192	0
NMSI_	75	192	0	96	48	2
NMTAP	75	192	3
NMSTR	75	288	0
NMSI_	75	288	0	96	48	4
NMTAP	75	288	5
NMSTR	76	0	0
NMSI_	76	0	0	96	48	2
NMTAP	76	0	3
NMTAP	76	96	0
NMTAP	76	96	5
NMSTR	76	192	3
NMSCL	76	192	3	96	48	0
NMSCR	76	192	3	96	48	6
NMTAP	76	288	3
BRTAP	77	0	1
BRTAP	77	0	5
NMTAP	77	96	4
NMTAP	77	96	6
NMTAP	77	144	5
NMTAP	77	192	1
NMTAP	77	192	3
NMTAP	77	240	2
NMTAP	77	288	4
NMTAP	77	288	7
NMTAP	77	336	6
NMTAP	78	0	3
NMTAP	78	0	5
NMTAP	78	48	2
NMTAP	78	72	3
NMTAP	78	96	1
NMTAP	78	144	5
NMTAP	78	168	4
NMTAP	78	192	6
BRTAP	78	240	3
BRTAP	78	240	7
BRTAP	78	288	3
BRSTR	78	288	7
NMSI_	78	288	7	96	48	3
NMTAP	79	0	4
NMSTR	79	0	7
NMSI_	79	0	7	96	48	5
NMTAP	79	96	2
NMSTR	79	96	7
NMSI_	79	96	7	96	48	3
NMTAP	79	192	4
NMSTR	79	192	7
NMSI_	79	192	7	96	48	5
NMTAP	79	288	1
NMSTR	79	288	7
NMSI_	79	288	7	96	48	3
NMTAP	80	0	4
NMTAP	80	0	7
NMTAP	80	96	2
NMTAP	80	96	6
NMSTR	80	192	1
NMSI_	80	192	1	96	48	4
NMSTR	80	192	4
NMSI_	80	192	4	96	48	7
NMTAP	80	288	1
NMSTR	80	288	4
NMSCL	80	288	4	96	192	5
NMTTP	81	0	0	C	1	M1
BRTAP	81	288	7
BRTAP	81	336	7
NMTAP	82	0	0
NMTAP	82	0	6
NMTAP	82	48	0
NMTAP	82	48	6
NMTAP	82	96	1
NMTAP	82	96	5
NMTAP	82	144	1
NMTAP	82	144	5
NMTAP	82	192	2
NMTAP	82	216	4
NMTAP	82	240	2
NMTAP	82	264	4
NMTAP	82	288	3
NMTAP	82	312	5
NMTAP	82	336	3
NMTAP	82	360	5
NMSTR	83	0	4
NMSI_	83	0	4	96	48	0
NMTAP	83	96	4
NMTAP	83	96	5
CNSI_	83	144	0	0	48	2
NMSTR	83	192	6
NMSLL	83	192	6	96	96	2
NMTAP	83	288	2
NMTAP	83	288	6
NMSTR	84	0	1
NMSLL	84	0	1	96	96	3
NMTAP	84	96	1
NMTAP	84	96	3
BRTAP	84	192	4
NMSTR	84	288	2
NMSCL	84	288	2	96	96	6
NMTAP	84	288	5
NMSTR	85	0	6
NMSCL	85	0	6	96	48	4
NMSTR	85	96	2
NMSI_	85	96	2	96	96	7
CNSI_	85	144	4	0	48	2
NMTAP	85	192	7
NMTAP	85	288	4
NMTAP	86	0	0
BRHLD	86	0	6	192
NMHLD	86	192	2	192
NMTAP	86	240	7
NMTAP	86	288	6
NMTAP	86	336	5
NMSTR	87	0	4
BRSCR	87	0	4	96	96	7
NMTAP	87	96	0
NMSTR	87	192	3
NMSCL	87	192	3	96	96	0
NMTAP	87	288	7
NMSTR	88	0	4
NMSLR	88	0	4	96	96	0
NMTAP	88	96	1
CNSLL	88	192	0	0	96	4
NMTAP	88	192	3
NMHLD	88	288	2	96
NMHLD	89	0	4	96
NMHLD	89	96	6	96
NMHLD	89	192	0	96
NMHLD	89	288	2	96
NMTHO	90	0	0	192	C	0	M1
NMSTR	90	192	0
NMSI_	90	192	0	96	48	4
NMSTR	90	288	7
NMSCL	90	288	7	96	384	0
NMTTP	91	0	0	B	0	M1
NMTTP	91	0	0	C	1	M1
NMTTP	91	0	7	B	0	M1
NMTAP	92	192	1
NMTAP	92	192	6
NMTAP	92	288	4
NMSTR	92	336	4
NMSI_	92	336	4	96	48	0
NMTAP	93	48	1
NMSTR	93	96	1
NMSCR	93	96	1	96	48	4
NMTAP	93	192	7
NMTAP	93	288	6
NMHLD	93	336	6	96
NMHLD	94	48	4	96
NMTAP	94	144	2
NMTAP	94	240	0
NMTAP	94	240	1
NMSTR	94	288	0
NMSI_	94	288	0	96	48	4
NMSTR	94	288	1
NMSI_	94	288	1	96	48	4
BRTAP	95	0	0
BRTAP	95	0	1
NMTAP	95	96	3
NMSTR	95	96	5
NMSCR	95	96	5	96	48	0
NMTAP	95	192	0
NMTAP	95	288	1
NMSTR	95	336	1
NMSI_	95	336	1	96	48	4
NMTAP	96	48	6
NMSTR	96	96	6
NMSCR	96	96	6	96	48	1
NMTAP	96	192	1
NMTAP	96	288	3
NMSTR	96	336	3
NMSI_	96	336	3	96	48	7
NMTAP	97	48	6
NMSTR	97	96	6
NMSCL	97	96	6	96	48	3
NMHLD	97	192	0	96
NMTAP	97	288	2
NMTAP	97	336	2
NMTAP	98	48	1
NMTAP	98	48	3
NMTAP	98	96	1
NMTAP	98	96	3
NMTAP	98	144	2
NMTAP	98	144	4
NMTAP	98	192	3
NMTAP	98	192	5
NMTAP	98	240	4
NMTAP	98	240	6
NMSTR	98	288	3
NMSI_	98	288	3	96	48	0
NMSTR	98	288	7
BRSI_	98	288	7	96	48	4
BRTAP	99	0	3
BXTAP	99	0	7
NMTAP	99	96	1
NMTAP	99	96	5
NMTAP	99	192	5
NMTAP	99	240	4
NMTAP	99	288	3
NMSTR	99	336	2
NMSI_	99	336	2	96	48	6
NMTAP	100	48	7
NMSTR	100	96	7
NMSI_	100	96	7	96	48	3
NMTAP	100	192	3
NMTAP	100	240	2
NMTAP	100	288	1
NMSTR	100	336	0
NMSI_	100	336	0	96	48	5
NMTAP	101	48	4
NMSTR	101	96	4
NMSCR	101	96	4	96	48	7
NMTAP	101	192	3
NMTAP	101	240	2
NMTAP	101	288	1
NMHLD	101	336	0	96
NMHLD	102	48	2	96
NMTAP	102	144	4
NMTAP	102	240	4
NMTAP	102	240	5
NMSTR	102	288	4
NMSI_	102	288	4	96	48	0
NMSTR	102	288	5
NMSI_	102	288	5	96	48	0
BRTAP	103	0	4
BRTAP	103	0	5
NMSTR	103	96	1
NMSCR	103	96	1	96	48	4
NMTAP	103	96	7
NMTAP	103	192	4
NMTAP	103	240	5
NMTAP	103	288	6
NMSTR	103	336	7
NMSI_	103	336	7	96	48	3
NMTAP	104	48	2
NMSTR	104	96	2
NMSCR	104	96	2	96	48	5
NMTAP	104	192	0
NMTAP	104	240	7
NMTAP	104	288	6
NMTAP	104	336	4
NMSTR	104	336	5
NMSI_	104	336	5	96	48	0
NMTAP	105	48	2
NMSTR	105	96	2
NMSCL	105	96	2	96	48	7
NMTAP	105	192	6
NMTAP	105	288	4
NMTAP	105	288	5
BRHLD	105	336	4	1584
NMTAP	105	336	5
NMSTR	106	288	5
NMSCR	106	288	5	96	96	6
CNSI_	107	96	6	0	96	3
CNSI_	107	192	3	0	96	7
CNSCR	107	288	7	0	96	0
CNSI_	108	0	0	0	288	2

T_REC_TAP	300
T_REC_BRK	27
T_REC_XTP	6
T_REC_BXX	15
T_REC_HLD	50
T_REC_XHO	0
T_REC_BHO	3
T_REC_BXH	2
T_REC_STR	105
T_REC_BST	6
T_REC_XST	7
T_REC_XBS	0
T_REC_TTP	22
T_REC_THO	1
T_REC_SLD	108
T_REC_BSL	11
T_REC_ALL	663
T_NUM_TAP	440
T_NUM_BRK	64
T_NUM_HLD	51
T_NUM_SLD	108
T_NUM_ALL	663
T_JUDGE_TAP	488
T_JUDGE_HLD	303
T_JUDGE_SLD	119
T_JUDGE_ALL	910
TTM_EACHPAIRS	127
TTM_SCR_TAP	220000
TTM_SCR_BRK	166400
TTM_SCR_HLD	51000
TTM_SCR_SLD	162000
TTM_SCR_ALL	599400
TTM_SCR_S	575250
TTM_SCR_SS	593000
TTM_RAT_ACV	10107

