VERSION	0.00.00	1.04.00
FES_MODE	0
BPM_DEF	190.000	190.000	190.000	190.000
MET_DEF	4	4
RESOLUTION	384
CLK_DEF	384
COMPATIBLE_CODE	MA2

BPM	0	0	190.000
MET	0	0	4	4

BRTAP	2	288	3
BRTAP	2	288	4
NMHLD	3	0	5	96
NMTAP	3	96	4
NMTAP	3	192	3
NMTAP	3	192	6
NMTAP	3	288	2
NMTAP	3	336	2
NMTAP	4	0	3
NMTAP	4	96	1
NMTAP	4	96	4
NMTAP	4	192	1
NMTAP	4	192	4
NMTAP	4	288	5
NMTAP	4	336	5
NMTAP	5	0	4
NMTAP	5	96	3
NMTAP	5	96	6
NMTAP	5	192	3
NMTAP	5	192	6
NMTAP	5	288	2
NMTAP	5	336	2
NMTAP	6	0	3
NMTAP	6	96	1
NMTAP	6	96	4
NMTAP	6	192	7
NMTAP	6	288	3
NMTAP	6	288	6
NMHLD	7	0	2	96
NMTAP	7	96	3
NMTAP	7	192	1
NMTAP	7	192	4
NMTAP	7	288	5
NMTAP	7	336	5
NMTAP	8	0	4
NMTAP	8	96	3
NMTAP	8	96	6
NMTAP	8	192	3
NMTAP	8	192	6
NMTAP	8	288	2
NMTAP	8	336	2
NMTAP	9	0	3
NMTAP	9	96	1
NMTAP	9	96	4
NMTAP	9	192	1
NMTAP	9	192	4
NMTAP	9	288	5
NMHLD	9	336	5	336
NMTAP	11	0	5
NMHLD	11	96	6	96
NMTTP	11	192	4	B	0	M1
NMTTP	11	192	5	B	0	M1
NMTAP	12	0	2
NMHLD	12	96	1	96
NMTTP	12	192	2	B	0	M1
NMTTP	12	192	3	B	0	M1
NMHLD	13	0	6	144
NMTTP	13	192	4	B	0	M1
NMTTP	13	192	5	B	0	M1
NMTAP	14	96	2
NMTTP	14	192	3	B	0	M1
NMTTP	14	192	4	B	0	M1
NMTAP	15	0	2
NMHLD	15	96	1	96
NMTTP	15	192	2	B	0	M1
NMTTP	15	192	3	B	0	M1
NMTAP	16	0	5
NMHLD	16	96	6	96
NMTTP	16	192	4	B	0	M1
NMTTP	16	192	5	B	0	M1
NMHLD	17	0	2	144
NMTTP	17	192	3	B	0	M1
NMTTP	17	192	4	B	0	M1
NMTAP	18	288	3
NMTAP	18	288	4
NMTAP	19	0	4
NMTAP	19	0	5
NMTAP	19	96	6
NMTTP	19	192	0	E	0	M1
NMTTP	19	192	0	A	0	M1
NMTTP	19	192	7	A	0	M1
NMTAP	20	0	2
NMTAP	20	0	3
NMTAP	20	96	1
NMTTP	20	192	0	E	0	M1
NMTTP	20	192	0	A	0	M1
NMTTP	20	192	7	A	0	M1
NMHLD	21	0	4	144
NMHLD	21	0	5	144
NMTTP	21	192	5	E	0	M1
NMTTP	21	192	6	E	0	M1
NMTTP	21	192	6	A	0	M1
NMHLD	22	0	2	288
NMHLD	22	0	3	288
NMTAP	23	0	2
NMTAP	23	0	3
NMTAP	23	96	1
NMTTP	23	192	0	E	0	M1
NMTTP	23	192	0	A	0	M1
NMTTP	23	192	7	A	0	M1
NMTAP	24	0	4
NMTAP	24	0	5
NMTAP	24	96	6
NMTTP	24	192	0	E	0	M1
NMTTP	24	192	0	A	0	M1
NMTTP	24	192	7	A	0	M1
NMSTR	25	0	2
NMSCL	25	0	2	96	288	4
NMTAP	25	0	3
BXTAP	26	288	2
BXTAP	26	288	5
NMTAP	27	0	4
NMTAP	27	0	5
NMTAP	27	96	6
NMTAP	27	96	7
NMTAP	27	192	0
NMTAP	27	192	1
NMTAP	27	288	2
NMTAP	27	336	2
NMTAP	28	0	3
NMTAP	28	96	4
NMTAP	28	96	5
NMTAP	28	192	6
NMTAP	28	192	7
NMTAP	28	288	0
NMTAP	28	288	1
NMTAP	29	0	2
NMTAP	29	0	3
BRTAP	29	96	0
BRTAP	29	96	7
NMTAP	29	192	4
NMTAP	29	192	5
BRTAP	29	288	0
BRTAP	29	288	7
NMTAP	30	0	2
NMTAP	30	0	3
BRTAP	30	96	0
BRTAP	30	96	7
NMTAP	30	192	4
NMTAP	30	192	5
BRTAP	30	288	0
BRTAP	30	288	7
NMTAP	31	0	2
NMTAP	31	0	3
NMTAP	31	96	0
NMTAP	31	96	1
NMTAP	31	192	6
NMTAP	31	192	7
NMTAP	31	288	5
NMTAP	31	336	5
NMTAP	32	0	4
NMTAP	32	96	2
NMTAP	32	96	3
NMTAP	32	192	0
NMTAP	32	192	1
NMTAP	32	288	6
NMTAP	32	288	7
NMTAP	33	0	4
NMTAP	33	0	5
BRTAP	33	96	0
BRTAP	33	96	7
NMTAP	33	192	2
NMTAP	33	192	3
BRTAP	33	288	0
BRTAP	33	288	7
NMTAP	34	0	4
NMTAP	34	0	5
BRTAP	34	96	0
BRTAP	34	96	7
NMTAP	34	192	2
NMTAP	34	192	3
BRTAP	34	288	0
BRTAP	34	288	7
NMTAP	35	0	4
NMTAP	35	0	6
NMSTR	35	96	4
NMSI_	35	96	4	96	48	0
NMTAP	35	96	6
NMTAP	36	0	1
NMTAP	36	0	3
NMTAP	36	96	1
NMSTR	36	96	3
NMSI_	36	96	3	96	48	7
NMTAP	37	0	4
NMTAP	37	0	6
NMSTR	37	96	4
NMSI_	37	96	4	96	48	0
NMTAP	37	96	6
NMHLD	38	0	1	96
NMHLD	38	0	3	96
NMTAP	38	192	2
NMTAP	38	288	2
NMTAP	39	0	1
NMTAP	39	0	3
NMTAP	39	96	2
NMSTR	39	96	3
NMSI_	39	96	3	96	48	7
NMTAP	40	0	4
NMTAP	40	0	6
NMSTR	40	96	4
NMSI_	40	96	4	96	48	0
NMTAP	40	96	5
NMTAP	41	0	1
NMTAP	41	0	3
NMTAP	41	96	2
NMSTR	41	96	3
NMSI_	41	96	3	96	48	7
NMHLD	42	0	0	192
NMTAP	43	0	5
NMSTR	43	192	7
NMSCL	43	192	7	96	288	2
NMTAP	45	0	2
NMSTR	45	192	0
NMSCR	45	192	0	96	288	5
NMTAP	47	0	5
NMSTR	47	192	4
NMSCR	47	192	4	96	288	1
NMTAP	49	0	2
NMSTR	49	192	3
NMSCL	49	192	3	96	288	6
NMSTR	51	0	7
NMSI_	51	0	7	96	192	4
NMSTR	52	0	3
NMSI_	52	0	3	96	192	0
NMSTR	53	0	6
NMSI_	53	0	6	96	192	3
NMSTR	54	0	2
NMSI_	54	0	2	96	192	7
NMSTR	55	0	5
NMSI_	55	0	5	96	192	2
NMSTR	56	0	1
NMSI_	56	0	1	96	192	6
NMSTR	57	0	4
NMSCL	57	0	4	96	480	5
NMTHO	59	0	0	384	C	0	M1
BXTAP	60	288	0
BXTAP	60	288	7
NMHLD	61	0	1	96
NMHLD	61	0	6	96
NMTAP	61	192	2
NMTAP	61	192	4
NMTAP	61	288	5
NMTAP	61	336	5
NMTAP	62	0	3
NMTAP	62	96	4
NMTAP	62	96	6
NMTAP	62	192	7
NMTAP	62	240	7
NMTAP	62	288	0
NMTAP	62	288	6
NMTAP	63	0	1
NMTAP	63	0	3
NMTAP	63	96	3
NMTAP	63	96	4
NMTAP	63	192	4
NMTAP	63	192	6
NMTAP	63	288	0
NMTAP	63	288	7
NMTAP	64	0	4
NMTAP	64	0	6
NMTAP	64	96	3
NMTAP	64	96	4
NMTAP	64	192	1
NMTAP	64	192	3
NMTAP	64	288	0
NMTAP	64	288	7
NMTAP	65	0	6
NMTAP	65	48	6
NMTAP	65	96	4
NMTAP	65	192	3
NMTAP	65	192	5
NMTAP	65	288	2
NMTAP	65	336	2
NMTAP	66	0	4
NMTAP	66	96	1
NMTAP	66	96	3
NMTAP	66	192	0
NMTAP	66	240	0
NMTAP	66	288	1
NMTAP	66	288	7
NMHLD	67	0	6	96
NMHLD	67	96	4	96
NMHLD	67	192	3	96
NMHLD	67	288	1	96
NMSTR	68	0	7
NMSI_	68	0	7	96	48	3
NMSTR	68	96	0
NMSI_	68	96	0	96	48	2
NMSTR	68	192	6
NMSI_	68	192	6	96	48	4
NMHLD	69	0	2	96
NMHLD	69	96	0	96
NMHLD	69	192	7	96
NMTAP	69	288	5
BRTAP	70	0	0
BRTAP	70	0	4
NMTAP	70	192	5
NMTAP	70	240	5
NMTAP	70	288	3
NMHLD	71	0	1	96
NMHLD	71	96	3	96
NMHLD	71	192	4	96
NMHLD	71	288	6	96
NMSTR	72	0	0
NMSI_	72	0	0	96	48	4
NMSTR	72	96	7
NMSI_	72	96	7	96	48	5
NMSTR	72	192	1
NMSI_	72	192	1	96	48	3
NMHLD	73	0	5	96
NMHLD	73	96	7	96
NMHLD	73	192	0	96
NMHLD	73	288	2	96
NMTAP	74	0	4
NMTAP	74	96	0
NMTAP	74	96	6
BRTAP	74	192	1
BRTAP	74	192	5
NMSTR	75	0	6
NMSI_	75	0	6	96	48	4
NMSTR	75	0	7
NMSI_	75	0	7	96	48	3
NMSTR	75	192	0
NMSI_	75	192	0	96	48	4
NMSTR	75	192	1
NMSI_	75	192	1	96	48	3
NMSTR	76	0	6
NMSI_	76	0	6	96	48	4
NMSTR	76	0	7
NMSI_	76	0	7	96	48	3
NMSTR	76	192	0
NMSI_	76	192	0	96	48	4
NMSTR	76	192	1
NMSI_	76	192	1	96	48	3
BRTAP	77	0	6
BRTAP	77	0	7
NMTAP	77	96	4
NMTAP	77	96	5
BRTAP	77	192	0
BRTAP	77	192	1
NMTAP	77	288	2
NMTAP	77	288	3
BRTAP	78	0	6
BRTAP	78	0	7
NMTAP	78	96	3
NMTAP	78	96	5
NMTAP	78	192	2
NMTAP	78	240	2
NMTAP	78	288	3
NMSTR	79	0	0
NMSI_	79	0	0	96	48	4
NMSTR	79	0	1
NMSI_	79	0	1	96	48	3
NMSTR	79	192	6
NMSI_	79	192	6	96	48	4
NMSTR	79	192	7
NMSI_	79	192	7	96	48	3
NMSTR	80	0	0
NMSI_	80	0	0	96	48	4
NMSTR	80	0	1
NMSI_	80	0	1	96	48	3
NMSTR	80	192	6
NMSI_	80	192	6	96	48	4
NMSTR	80	192	7
NMSI_	80	192	7	96	48	3
BRTAP	81	0	0
BRTAP	81	0	1
NMTAP	81	96	2
NMTAP	81	96	3
BRTAP	81	192	6
BRTAP	81	192	7
NMTAP	81	288	4
NMTAP	81	288	5
BRTAP	82	0	0
BRTAP	82	0	1
NMTAP	82	96	2
NMTAP	82	96	4
NMTAP	82	192	5
NMTAP	82	240	5
NMTAP	82	288	3
NMTAP	83	0	2
NMTAP	83	0	6
NMSTR	83	96	2
NMSI_	83	96	2	96	48	7
NMSTR	83	96	6
NMSI_	83	96	6	96	48	3
NMTAP	84	0	1
NMTAP	84	0	5
NMSTR	84	96	1
NMSI_	84	96	1	96	48	4
NMSTR	84	96	5
NMSI_	84	96	5	96	48	0
NMTAP	85	0	2
NMTAP	85	0	6
NMSTR	85	96	2
NMSI_	85	96	2	96	48	7
NMSTR	85	96	6
NMSI_	85	96	6	96	48	3
BRTAP	86	0	0
BRTAP	86	0	4
NMTAP	86	192	3
NMTAP	86	288	2
NMTAP	86	288	4
NMTAP	87	0	1
NMTAP	87	0	5
NMSTR	87	96	1
BRSI_	87	96	1	96	48	4
NMSTR	87	96	5
NMSI_	87	96	5	96	48	0
NMTAP	88	0	2
NMTAP	88	0	6
NMSTR	88	96	2
NMSI_	88	96	2	96	48	7
NMSTR	88	96	6
BRSI_	88	96	6	96	48	3
NMTAP	89	0	1
NMTAP	89	0	5
NMSTR	89	96	1
BRSI_	89	96	1	96	48	4
NMSTR	89	96	5
NMSI_	89	96	5	96	48	0
NMTAP	90	0	6
NMSTR	90	96	0
NMSI_	90	96	0	96	48	4
NMSTR	90	96	7
NMSI_	90	96	7	96	48	3
NMSTR	91	0	2
NMSXR	91	0	2	96	288	4
NMSTR	91	0	5
NMSXL	91	0	5	96	288	3
EXTAP	92	192	0
EXTAP	92	192	7
NMTAP	92	288	6
NMTAP	92	336	6
NMTAP	93	0	7
NMTAP	93	96	0
NMTAP	93	96	5
NMTAP	93	192	0
NMTAP	93	192	5
NMTAP	93	288	1
NMTAP	93	336	1
NMTAP	94	0	0
NMTAP	94	96	2
NMTAP	94	96	7
NMTAP	94	192	4
NMTAP	94	288	0
NMTAP	94	288	5
NMHLD	95	0	1	96
NMTAP	95	96	0
NMTAP	95	192	2
NMTAP	95	192	7
NMTAP	95	288	6
NMTAP	95	336	6
NMTAP	96	0	7
NMTAP	96	96	0
NMTAP	96	96	5
NMTAP	96	192	0
NMTAP	96	192	5
NMTAP	96	288	1
NMTAP	96	336	1
NMTAP	97	0	0
NMTAP	97	96	2
NMTAP	97	96	7
NMTAP	97	192	2
NMTAP	97	192	7
NMTAP	97	288	6
NMSTR	97	336	6
NMSXL	97	336	6	96	240	3
NMHLD	99	0	1	96
NMTAP	99	96	3
NMTAP	99	192	0
NMTAP	99	192	4
NMTAP	99	288	6
NMTAP	99	336	6
NMTAP	100	0	4
NMTAP	100	96	3
NMTAP	100	96	7
NMTAP	100	192	3
NMTAP	100	192	7
NMTAP	100	288	1
NMTAP	100	336	1
NMTAP	101	0	3
NMTAP	101	96	0
NMTAP	101	96	4
NMTAP	101	192	0
NMTAP	101	192	4
NMTAP	101	288	6
NMTAP	101	336	6
NMTAP	102	0	4
NMTAP	102	96	3
NMTAP	102	96	7
NMTAP	102	192	1
NMTAP	102	288	0
NMTAP	102	288	4
NMHLD	103	0	6	96
NMTAP	103	96	4
NMTAP	103	192	3
NMTAP	103	192	7
NMTAP	103	288	1
NMTAP	103	336	1
NMTAP	104	0	3
NMTAP	104	96	0
NMTAP	104	96	4
NMTAP	104	192	0
NMTAP	104	192	4
NMTAP	104	288	6
NMTAP	104	336	6
NMTAP	105	0	4
NMTAP	105	96	3
NMTAP	105	96	5
NMTAP	105	192	3
NMTAP	105	192	5
NMTAP	105	288	2
NMHLD	105	336	2	1584
NMSTR	106	288	3
NMSSR	106	288	3	96	576	7
NMTTP	110	0	0	B	0	M1
NMTTP	110	0	0	C	0	M1
NMTTP	110	0	7	B	0	M1

T_REC_TAP	291
T_REC_BRK	36
T_REC_XTP	2
T_REC_BXX	4
T_REC_HLD	37
T_REC_XHO	0
T_REC_BHO	0
T_REC_BXH	0
T_REC_STR	58
T_REC_BST	0
T_REC_XST	0
T_REC_XBS	0
T_REC_TTP	32
T_REC_THO	1
T_REC_SLD	55
T_REC_BSL	3
T_REC_ALL	519
T_NUM_TAP	383
T_NUM_BRK	43
T_NUM_HLD	38
T_NUM_SLD	55
T_NUM_ALL	519
T_JUDGE_TAP	423
T_JUDGE_HLD	132
T_JUDGE_SLD	58
T_JUDGE_ALL	613
TTM_EACHPAIRS	140
TTM_SCR_TAP	191500
TTM_SCR_BRK	111800
TTM_SCR_HLD	38000
TTM_SCR_SLD	82500
TTM_SCR_ALL	423800
TTM_SCR_S	406950
TTM_SCR_SS	419500
TTM_RAT_ACV	10102

