VERSION	0.00.00	1.04.00
FES_MODE	0
BPM_DEF	130.000	130.000	130.000	130.000
MET_DEF	4	4
RESOLUTION	384
CLK_DEF	384
COMPATIBLE_CODE	MA2

BPM	0	0	130.000
MET	0	0	4	4

NMHLD	1	0	5	96
NMHLD	1	96	3	96
NMSTR	1	192	4
NMSUL	1	192	4	96	192	2
NMHLD	1	240	4	336
NMTTP	2	192	4	E	0	M1
NMHLD	3	0	2	96
NMHLD	3	96	4	96
NMSTR	3	192	3
NMSUR	3	192	3	96	192	5
NMHLD	3	240	3	336
NMTTP	4	192	4	E	0	M1
NMHLD	5	0	5	192
NMTTP	5	96	4	E	0	M1
NMSTR	5	192	4
NMSXR	5	192	4	96	288	1
NMTTP	5	288	6	E	0	M1
NMTTP	6	96	7	E	0	M1
NMTTP	6	288	4	E	0	M1
NMHLD	7	0	2	192
NMTTP	7	96	4	E	0	M1
NMSTR	7	192	3
NMSXL	7	192	3	96	288	6
NMTTP	7	288	2	E	0	M1
NMTTP	8	96	1	E	0	M1
NMHLD	8	192	0	192
NMSTR	9	0	7
NMSI_	9	0	7	96	96	1
NMHLD	9	48	7	720
CNSI_	9	192	1	0	96	6
CNSI_	9	288	6	0	96	2
CNSI_	10	0	2	0	96	5
CNSI_	10	96	5	0	96	3
NMHLD	11	0	1	192
NMHLD	11	192	3	192
NMTAP	12	0	4
NMTAP	12	96	2
NMTAP	12	96	5
NMTAP	12	144	2
NMTAP	12	144	5
NMTAP	12	240	6
NMTAP	12	288	6
NMSTR	13	0	0
NMSI_	13	0	0	96	96	2
NMHLD	13	48	0	720
CNSI_	13	192	2	0	96	7
CNSI_	13	288	7	0	96	3
CNSI_	14	0	3	0	96	6
CNSI_	14	96	6	0	96	4
NMHLD	15	0	6	192
NMHLD	15	192	4	192
NMTAP	16	0	3
NMTAP	16	96	1
NMTAP	16	96	6
NMTAP	16	192	1
NMTAP	16	192	6
BRTAP	16	288	3
BRTAP	16	288	4
NMSTR	17	0	2
NMSCR	17	0	2	96	48	5
NMTAP	17	96	6
NMSTR	17	192	1
NMSCR	17	192	1	96	48	4
NMTAP	17	288	5
NMSTR	18	0	0
NMSCR	18	0	0	96	48	3
NMTAP	18	96	4
NMSTR	18	192	7
NMSCR	18	192	7	96	48	2
NMTAP	18	288	3
NMSTR	19	0	0
NMSI_	19	0	0	96	48	3
NMSTR	19	0	4
NMSI_	19	0	4	96	48	7
NMSTR	19	192	3
NMSI_	19	192	3	96	48	0
NMSTR	19	192	7
NMSI_	19	192	7	96	48	4
NMSTR	20	0	0
NMSI_	20	0	0	96	48	3
NMSTR	20	0	4
NMSI_	20	0	4	96	48	7
BRTAP	20	192	3
BRTAP	20	192	7
BRSTR	21	0	5
NMSCL	21	0	5	96	48	2
NMTAP	21	96	1
NMSTR	21	192	6
NMSCL	21	192	6	96	48	3
NMTAP	21	288	2
NMSTR	22	0	7
NMSCL	22	0	7	96	48	4
NMTAP	22	96	3
NMSTR	22	192	0
NMSCL	22	192	0	96	48	5
NMTAP	22	288	4
NMSTR	23	0	2
NMSI_	23	0	2	96	48	7
NMSTR	23	0	6
NMSI_	23	0	6	96	48	3
NMSTR	23	192	1
NMSXL	23	192	1	96	192	4
NMSTR	23	192	5
NMSXL	23	192	5	96	192	0
NMHLD	24	192	7	192
BRSTR	25	0	5
NMSCL	25	0	5	96	480	0
NMTTP	25	192	2	E	0	M1
NMTTP	25	288	3	E	0	M1
NMTTP	26	0	4	E	0	M1
NMTTP	26	96	5	E	0	M1
NMTTP	26	192	6	E	0	M1
NMSTR	27	0	6
NMSCR	27	0	6	96	192	1
NMSTR	27	192	2
NMSUL	27	192	2	96	192	6
NMSTR	28	0	5
NMSCL	28	0	5	96	192	2
NMHLD	28	192	0	192
NMSTR	29	0	2
NMSCR	29	0	2	96	480	7
NMTTP	29	192	6	E	0	M1
NMTTP	29	288	5	E	0	M1
NMTTP	30	0	4	E	0	M1
NMTTP	30	96	3	E	0	M1
NMTTP	30	192	2	E	0	M1
NMTHO	31	0	0	384	C	0	M1
NMTTP	31	0	2	B	0	M1
NMTTP	31	0	5	B	0	M1
NMTTP	32	0	0	E	0	M1
NMTTP	32	96	0	C	0	M1
NMTTP	32	96	1	B	0	M1
NMTTP	32	96	6	B	0	M1
NMTTP	32	192	3	B	0	M1
NMTTP	32	192	4	B	0	M1
NMTTP	32	192	4	E	0	M1
NMTTP	32	288	0	C	1	M1
NMTTP	32	288	2	B	0	M1
NMTTP	32	288	2	A	0	M1
NMTTP	32	288	5	B	0	M1
NMTTP	32	288	5	A	0	M1
NMSTR	33	0	7
NMSI_	33	0	7	96	48	3
NMSTR	33	96	1
NMSI_	33	96	1	96	48	5
BRTAP	33	96	7
NMTAP	33	192	6
NMTAP	33	240	6
NMSTR	33	288	4
NMSCL	33	288	4	96	96	0
NMTAP	34	0	5
NMSTR	34	96	3
NMSCR	34	96	3	96	96	7
NMTAP	34	192	2
NMSTR	34	288	4
NMSLL	34	288	4	96	96	0
NMSTR	35	0	0
NMSLL	35	0	0	96	96	4
NMSTR	35	96	4
NMSLL	35	96	4	96	96	0
NMSTR	35	192	0
NMSLL	35	192	0	96	96	4
NMSTR	35	288	4
NMSLL	35	288	4	96	96	0
BRTAP	36	0	0
NMTTP	36	48	7	E	0	M1
NMTTP	36	96	6	E	0	M1
NMTTP	36	144	5	E	0	M1
NMTTP	36	192	3	A	0	M1
NMTTP	36	192	3	D	0	M1
NMTTP	36	240	2	D	0	M1
NMTTP	36	240	4	A	0	M1
NMTTP	36	288	1	D	0	M1
NMTTP	36	288	5	A	0	M1
NMSTR	37	0	6
BRSI_	37	0	6	96	48	3
NMSTR	37	0	7
BRSI_	37	0	7	96	48	2
BRTAP	37	96	6
BRTAP	37	96	7
NMSTR	37	192	1
NMSI_	37	192	1	96	48	4
NMSTR	37	288	0
NMSI_	37	288	0	96	48	5
NMSTR	38	0	2
NMSI_	38	0	2	96	48	7
NMSTR	38	96	3
NMSI_	38	96	3	96	48	6
NMSTR	38	192	1
NMSI_	38	192	1	96	48	4
NMHLD	38	288	6	384
NMTAP	39	96	4
NMTAP	39	192	5
NMSTR	39	288	7
NMSCL	39	288	7	96	96	3
NMSCR	39	288	7	96	96	3
NMTAP	39	336	7
NMTAP	40	192	2
NMTAP	40	192	4
BRTAP	40	288	1
BRTAP	40	288	5
BRTAP	40	336	1
BRTAP	40	336	5
NMSTR	41	0	0
NMSI_	41	0	0	96	48	4
BRTAP	41	96	0
NMSTR	41	96	6
NMSI_	41	96	6	96	48	2
NMTAP	41	192	1
NMTAP	41	240	1
NMSTR	41	288	3
NMSCR	41	288	3	96	96	7
NMTAP	42	0	2
NMSTR	42	96	4
NMSCL	42	96	4	96	96	0
NMTAP	42	192	5
NMSTR	42	288	3
NMSLR	42	288	3	96	96	7
NMSTR	43	0	7
NMSLR	43	0	7	96	96	3
NMSTR	43	96	3
NMSLR	43	96	3	96	96	7
NMSTR	43	192	7
NMSLR	43	192	7	96	96	3
NMSTR	43	288	3
NMSLR	43	288	3	96	96	7
BRTAP	44	0	7
NMTTP	44	48	1	E	0	M1
NMTTP	44	96	2	E	0	M1
NMTTP	44	144	3	E	0	M1
NMTTP	44	192	4	A	0	M1
NMTTP	44	192	5	D	0	M1
NMTTP	44	240	3	A	0	M1
NMTTP	44	240	6	D	0	M1
NMTTP	44	288	2	A	0	M1
NMTTP	44	288	7	D	0	M1
NMSTR	45	0	0
NMSCL	45	0	0	96	48	5
NMSTR	45	0	1
NMSCR	45	0	1	96	48	4
NMTAP	45	96	0
NMTAP	45	96	1
NMSTR	45	192	6
NMSCL	45	192	6	96	48	3
NMSTR	45	192	7
NMSCR	45	192	7	96	48	2
NMTAP	45	288	6
NMTAP	45	288	7
NMSTR	46	0	1
NMSI_	46	0	1	96	48	5
NMSTR	46	96	6
NMSI_	46	96	6	96	48	3
NMSTR	46	192	7
NMSI_	46	192	7	96	48	2
NMSTR	46	288	5
NMSI_	46	288	5	96	48	0
NMSTR	47	0	4
NMSI_	47	0	4	96	48	1
NMSTR	47	96	6
NMSI_	47	96	6	96	48	3
NMSTR	47	192	2
NMSI_	47	192	2	96	48	7
NMSTR	47	288	4
NMSCL	47	288	4	96	240	5
NMTTP	48	0	0	C	1	M1
NMSTR	49	0	2
NMSCL	49	0	2	96	48	0
NMTAP	49	96	3
NMSTR	49	192	3
NMSCR	49	192	3	96	48	5
NMTAP	49	288	2
NMSTR	50	0	2
NMSCL	50	0	2	96	48	0
NMSTR	50	96	4
NMSCR	50	96	4	96	48	6
NMSTR	50	192	3
NMSI_	50	192	3	96	48	0
NMTAP	50	288	4
NMTAP	50	336	4
NMSTR	51	0	5
NMSCR	51	0	5	96	48	7
NMTAP	51	96	4
NMSTR	51	192	4
NMSCL	51	192	4	96	48	2
NMTAP	51	288	5
NMHLD	52	0	6	288
NMTTP	52	48	7	E	0	M1
NMTTP	52	96	6	E	0	M1
NMTTP	52	144	5	E	0	M1
NMTTP	52	192	1	E	0	M1
NMTTP	52	240	2	E	0	M1
NMTTP	52	288	3	E	0	M1
NMSTR	53	0	0
NMSI_	53	0	0	96	48	4
NMSTR	53	0	1
NMSI_	53	0	1	96	48	5
BRTAP	53	96	0
BRTAP	53	96	1
NMSTR	53	192	3
NMSCL	53	192	3	96	48	1
NMTAP	53	288	4
NMSTR	54	0	5
NMSCR	54	0	5	96	48	7
NMSTR	54	96	3
NMSCL	54	96	3	96	48	1
NMSTR	54	192	4
NMSI_	54	192	4	96	48	7
NMTAP	54	288	3
NMTAP	54	336	3
NMSTR	55	0	2
NMSCL	55	0	2	96	48	0
NMTAP	55	96	3
NMSTR	55	192	3
NMSI_	55	192	3	96	48	5
NMSTR	55	288	2
NMSCL	55	288	2	96	192	4
NMHLD	56	0	6	192
NMTTP	56	288	5	E	0	M1
NMTTP	56	312	4	B	0	M1
NMTTP	56	336	3	B	0	M1
NMTTP	56	360	3	E	0	M1

T_REC_TAP	47
T_REC_BRK	16
T_REC_XTP	0
T_REC_BXX	0
T_REC_HLD	20
T_REC_XHO	0
T_REC_BHO	0
T_REC_BXH	0
T_REC_STR	81
T_REC_BST	2
T_REC_XST	0
T_REC_XBS	0
T_REC_TTP	62
T_REC_THO	1
T_REC_SLD	82
T_REC_BSL	2
T_REC_ALL	313
T_NUM_TAP	190
T_NUM_BRK	20
T_NUM_HLD	21
T_NUM_SLD	82
T_NUM_ALL	313
T_JUDGE_TAP	208
T_JUDGE_HLD	114
T_JUDGE_SLD	84
T_JUDGE_ALL	406
TTM_EACHPAIRS	24
TTM_SCR_TAP	95000
TTM_SCR_BRK	52000
TTM_SCR_HLD	21000
TTM_SCR_SLD	123000
TTM_SCR_ALL	291000
TTM_SCR_S	280350
TTM_SCR_SS	289000
TTM_RAT_ACV	10069

