VERSION	0.00.00	1.04.00
FES_MODE	0
BPM_DEF	160.000	160.000	160.000	160.000
MET_DEF	4	4
RESOLUTION	384
CLK_DEF	384
COMPATIBLE_CODE	MA2

BPM	0	0	160.000
MET	0	0	4	4

NMSTR	2	0	0
NMSUR	2	0	0	96	144	7
NMSTR	2	0	7
NMSUL	2	0	7	96	144	0
NMSTR	3	0	1
NMSCL	3	0	1	96	72	6
CNSI_	3	168	6	0	72	2
CNSCR	3	240	2	0	48	5
NMSTR	4	0	4
NMSI_	4	0	4	96	72	6
CNSI_	4	168	6	0	48	3
CNSI_	4	216	3	0	48	0
CNSI_	4	264	0	0	48	2
NMTAP	5	0	3
EXTAP	5	0	4
NMTAP	5	48	5
EXTAP	5	96	4
NMTAP	5	96	6
NMTAP	5	144	5
NMTAP	5	192	2
EXTAP	5	192	4
NMTAP	5	240	1
EXSTR	5	288	0
NMSCR	5	288	0	96	96	4
EXTAP	5	288	5
NMSTR	6	0	4
NMSCR	6	0	4	96	96	0
NMSTR	6	96	0
NMSCR	6	96	0	96	96	4
NMSTR	6	192	4
NMSCR	6	192	4	96	96	0
NMSTR	6	288	0
NMSCR	6	288	0	96	96	4
NMSTR	7	0	4
NMSCR	7	0	4	96	96	0
NMTAP	7	96	0
NMTAP	7	192	4
NMTAP	7	288	2
NMTAP	7	288	6
NMTTP	8	0	0	E	0	M1
NMTTP	8	0	0	D	0	M1
NMTTP	8	0	7	B	0	M1
NMTTP	8	0	7	E	0	M1
NMTTP	8	0	7	D	0	M1
NMTTP	8	96	0	B	0	M1
NMTTP	8	96	0	C	0	M1
NMTTP	8	96	1	E	0	M1
NMTTP	8	96	4	B	0	M1
NMTTP	8	96	5	E	0	M1
NMTTP	8	192	2	B	0	M1
NMTTP	8	192	2	E	0	M1
NMTTP	8	192	2	D	0	M1
NMTTP	8	192	3	B	0	M1
NMTTP	8	192	3	E	0	M1
NMTTP	8	192	3	D	0	M1
NMTTP	8	192	4	E	0	M1
NMTTP	8	192	4	D	0	M1
NMHLD	8	288	1	96
BXTAP	9	0	0
NMTAP	9	96	0
EXTAP	9	96	7
EXTAP	9	128	0
NMTAP	9	128	7
NMTAP	9	160	0
EXTAP	9	160	7
EXSTR	9	192	1
NMSI_	9	192	1	96	48	4
NMSTR	9	192	6
NMSI_	9	192	6	96	48	3
NMTAP	9	288	1
NMTAP	9	288	6
BXTAP	10	0	2
BXTAP	10	0	5
EXTAP	10	96	2
NMTAP	10	120	4
NMTAP	10	144	3
NMTAP	10	168	5
EXTAP	10	192	2
NMTAP	10	216	4
NMTAP	10	240	3
NMTAP	10	264	5
EXTAP	10	288	2
NMTAP	10	312	6
EXTAP	10	336	3
NMTAP	10	360	5
EXTAP	11	0	4
NMTAP	11	24	5
NMTAP	11	48	3
NMTAP	11	72	4
EXTAP	11	96	1
NMTAP	11	120	3
NMTAP	11	144	2
NMTAP	11	168	3
BRSTR	11	192	0
NMSI_	11	192	0	96	48	4
BRTAP	11	288	7
BRTAP	12	0	2
BRTAP	12	0	6
EXTAP	12	96	2
NMTAP	12	120	5
NMTAP	12	144	3
NMTAP	12	168	4
EXTAP	12	192	2
NMTAP	12	216	5
NMTAP	12	240	1
EXTAP	12	264	4
EXTAP	12	288	4
NMTAP	12	312	3
EXTAP	12	336	5
NMTAP	12	360	1
EXSTR	13	0	7
NMSI_	13	0	7	96	48	3
BXTAP	13	96	3
NMTAP	13	192	2
EXTAP	13	192	4
NMTAP	13	216	2
EXTAP	13	216	4
EXTAP	13	264	3
NMTAP	13	264	5
EXTAP	13	288	3
NMTAP	13	288	5
NMTAP	13	336	2
EXTAP	13	336	6
EXHLD	14	0	1	96
NMTAP	14	0	7
NMSTR	14	96	3
NMSI_	14	96	3	96	48	5
NMTAP	14	144	3
NMSTR	14	192	1
NMSI_	14	192	1	96	48	3
NMTAP	14	240	1
NMTAP	14	288	0
NMTAP	14	336	7
NMSTR	15	0	6
NMSCL	15	0	6	96	48	4
NMSTR	15	48	6
NMSI_	15	48	6	96	48	0
NMSTR	15	96	6
NMSI_	15	96	6	96	48	2
BXTAP	15	256	0
BXTAP	15	320	1
BXTAP	15	320	7
BXTAP	16	0	2
BXHLD	16	0	6	96
NMSTR	16	96	4
NMSLL	16	96	4	96	96	7
NMTAP	16	144	4
NMTAP	16	192	7
NMTAP	16	240	6
NMTAP	16	288	5
NMTAP	16	336	5
NMTAP	17	0	4
NMTAP	17	0	5
NMTAP	17	48	3
NMTAP	17	64	4
NMTAP	17	80	2
NMTAP	17	96	3
NMTAP	17	144	1
NMTAP	17	144	5
NMTAP	17	192	0
NMTAP	17	216	0
NMTAP	17	264	1
NMTAP	17	264	7
NMTAP	17	288	1
NMTAP	17	288	7
EXTAP	17	336	6
BRTAP	18	0	4
BRTAP	18	0	5
NMTAP	18	48	0
NMTAP	18	48	7
NMTAP	18	96	1
NMTAP	18	96	5
NMTAP	18	144	2
NMTAP	18	168	3
NMSTR	18	192	1
NMSI_	18	192	1	96	48	4
NMTAP	18	216	4
NMTAP	18	240	0
NMTAP	18	264	5
NMTAP	18	288	1
NMTAP	18	336	7
NMTAP	19	0	1
NMTAP	19	0	5
NMTAP	19	48	3
NMTAP	19	48	4
NMTAP	19	96	2
NMTAP	19	96	6
NMTAP	19	144	1
NMTAP	19	168	0
NMSTR	19	192	2
NMSI_	19	192	2	96	48	7
NMTAP	19	216	7
NMTAP	19	240	3
NMTAP	19	264	6
NMTAP	19	288	2
NMTAP	19	336	4
NMTAP	20	0	2
NMTAP	20	0	6
NMTAP	20	48	0
NMTAP	20	48	7
NMTAP	20	96	1
NMTAP	20	96	5
NMTAP	20	144	2
NMTAP	20	168	3
NMSTR	20	192	1
NMSI_	20	192	1	96	48	5
NMTAP	20	216	4
NMTAP	20	240	0
NMTAP	20	264	5
NMTAP	20	288	1
NMTAP	20	336	7
BRTAP	21	0	0
BRTAP	21	0	6
NMTAP	21	96	2
NMTAP	21	144	1
NMTAP	21	144	3
BRTAP	21	192	7
BRTAP	21	240	0
BRTAP	21	240	6
BRTAP	21	288	1
BRTAP	21	288	5
BRTAP	22	0	3
BRTAP	22	0	4
NMTAP	22	48	2
NMTAP	22	48	6
NMTAP	22	96	4
NMTAP	22	96	5
NMTAP	22	144	6
NMTAP	22	168	7
NMSTR	22	192	5
NMSI_	22	192	5	96	48	0
NMTAP	22	216	0
NMTAP	22	240	4
NMTAP	22	264	1
NMTAP	22	288	5
NMTAP	22	336	3
NMTAP	23	0	1
NMTAP	23	0	5
NMTAP	23	48	3
NMTAP	23	48	4
NMTAP	23	96	2
NMTAP	23	96	6
NMTAP	23	144	1
NMTAP	23	168	0
NMTAP	23	192	2
NMTAP	23	216	7
NMTAP	23	240	3
NMTAP	23	264	6
NMTAP	23	288	4
NMTAP	23	288	5
NMTAP	23	336	4
NMTAP	23	336	5
NMTTP	24	0	0	E	0	M1
NMTTP	24	0	0	D	0	M1
NMTTP	24	0	7	B	1	M1
NMTTP	24	0	7	E	0	M1
NMTTP	24	0	7	D	0	M1
NMTTP	24	192	0	B	0	M1
NMTTP	24	192	0	C	1	M1
NMTTP	24	192	1	E	0	M1
NMTTP	24	192	4	B	0	M1
NMTTP	24	192	5	E	0	M1
NMTTP	25	0	0	E	0	M1
NMTTP	25	0	0	D	0	M1
NMTTP	25	0	7	B	1	M1
NMTTP	25	0	7	E	0	M1
NMTTP	25	0	7	D	0	M1
NMTTP	25	96	0	B	0	M1
NMTTP	25	96	0	C	1	M1
NMTTP	25	96	1	E	0	M1
NMTTP	25	96	4	B	0	M1
NMTTP	25	96	5	E	0	M1
NMTTP	25	192	2	B	0	M1
NMTTP	25	192	2	E	0	M1
NMTTP	25	192	2	D	0	M1
NMTTP	25	192	3	B	0	M1
NMTTP	25	192	3	E	1	M1
NMTTP	25	192	3	D	0	M1
NMTTP	25	192	4	E	0	M1
NMTTP	25	192	4	D	0	M1
EXTAP	25	288	7
NMHLD	26	0	6	48
NMTAP	26	48	4
NMHLD	26	72	5	48
NMTAP	26	120	3
NMHLD	26	144	4	48
NMTAP	26	192	2
NMHLD	26	216	3	48
NMTAP	26	264	2
NMTAP	26	288	3
NMTAP	26	336	1
NMTAP	26	336	4
NMHLD	27	0	1	48
NMTAP	27	0	4
NMTAP	27	48	3
NMHLD	27	72	2	48
NMTAP	27	120	4
NMHLD	27	144	3	48
NMTAP	27	192	5
NMHLD	27	216	4	48
NMTAP	27	264	5
NMTAP	27	288	4
NMTAP	27	336	3
NMTAP	27	336	6
NMHLD	28	0	2	48
NMTAP	28	0	7
NMTAP	28	48	0
NMHLD	28	72	1	48
NMTAP	28	120	7
NMHLD	28	144	0	48
NMTAP	28	192	6
NMHLD	28	216	7	48
NMTAP	28	264	6
NMTAP	28	288	7
NMTAP	28	336	6
NMTAP	28	336	7
NMSTR	29	0	1
BRSCR	29	0	1	96	48	2
NMSTR	29	0	5
NMSV_	29	0	5	96	144	0
CNSI_	29	144	2	0	96	4
NMTAP	30	0	3
NMTAP	30	0	6
NMTAP	30	48	5
NMTAP	30	72	4
NMTAP	30	120	4
NMTAP	30	144	3
NMTAP	30	192	3
NMTAP	30	216	2
NMTAP	30	264	2
NMTAP	30	288	3
NMTAP	30	336	1
NMTAP	30	336	4
NMTAP	31	0	1
NMTAP	31	0	4
NMTAP	31	48	2
NMTAP	31	72	3
NMTAP	31	120	3
NMTAP	31	144	4
NMTAP	31	192	4
NMTAP	31	216	5
NMTAP	31	264	5
NMTAP	31	288	4
NMTAP	31	336	3
NMTAP	31	336	6
NMTAP	32	0	2
NMTAP	32	0	7
NMTAP	32	48	1
NMTAP	32	72	0
NMTAP	32	120	0
NMTAP	32	144	7
NMTAP	32	192	7
NMTAP	32	216	6
NMTAP	32	264	6
NMTAP	32	288	7
NMTAP	32	336	0
NMTAP	32	336	7
BRSTR	33	0	1
NMSI_	33	0	1	96	48	4
BRTAP	33	0	6
BRSTR	33	96	5
NMSI_	33	96	5	96	48	0
BRSTR	33	192	1
BRSI_	33	192	1	96	48	6
BRTAP	33	288	4
EXHLD	34	0	5	1152
EXSTR	34	0	7
NMSUL	34	0	7	96	288	0
CNSSL	35	0	0	0	384	4
CNSI_	36	0	4	0	96	6
CNSI_	36	96	6	0	96	3
CNSI_	36	192	3	0	96	0
CNSI_	36	288	0	0	192	2
NMTAP	37	192	2
NMTAP	37	192	5
NMTAP	37	288	3
NMTAP	37	288	4
NMTAP	38	0	2
NMTAP	38	0	3
NMHLD	38	96	1	72
NMHLD	38	96	4	72
NMTAP	38	240	2
NMTAP	38	240	3
NMTAP	38	288	2
NMTAP	38	288	3
NMTAP	39	0	4
NMTAP	39	0	5
NMHLD	39	96	3	72
NMHLD	39	96	6	72
NMTAP	39	240	4
NMTAP	39	240	5
NMSTR	39	288	4
NMSUL	39	288	4	96	288	3
NMTAP	39	288	5
NMHLD	40	0	6	288
NMHLD	41	0	3	96
NMSTR	41	0	5
NMSI_	41	0	5	96	48	7
EXSTR	41	192	0
NMSSL	41	192	0	96	72	4
EXTAP	41	192	7
NMTTP	42	0	5	E	0	M1
NMTTP	42	96	5	B	0	M1
NMTTP	42	192	6	B	0	M1
NMTTP	42	288	7	E	0	M1
NMHLD	43	0	0	288
EXTAP	43	0	7
EXTAP	43	96	7
EXTAP	43	192	7
EXTAP	43	288	7
EXSTR	44	0	7
BRSI_	44	0	7	96	288	4
NMTTP	44	96	1	B	0	M1
NMTTP	44	192	2	B	0	M1
NMTTP	44	288	3	E	0	M1
NMTHO	45	0	0	288	C	0	M1
EXTAP	45	96	4
EXTAP	45	192	5
EXTAP	45	288	6
NMTAP	46	0	0
NMTAP	46	0	7
NMTAP	46	48	0
NMTAP	46	96	0
NMTAP	46	96	1
NMTAP	46	144	1
NMTAP	46	192	1
NMTAP	46	192	2
NMTAP	46	240	2
NMTAP	46	288	2
NMTAP	46	288	3
NMTAP	46	336	3
NMTAP	47	0	3
NMTAP	47	0	4
NMTAP	47	48	4
NMTAP	47	96	4
NMTAP	47	96	5
NMTAP	47	144	5
NMTAP	47	192	5
NMTAP	47	192	6
NMTAP	47	240	6
NMTAP	47	288	6
NMTAP	47	288	7
NMTAP	47	336	7
NMTAP	48	0	6
NMTAP	48	24	0
NMTAP	48	48	6
NMTAP	48	72	0
NMTAP	48	96	6
NMTAP	48	120	0
NMTAP	48	144	6
NMTAP	48	168	0
NMTAP	48	192	5
NMTAP	48	204	4
NMTAP	48	216	3
NMTAP	48	228	2
NMTAP	48	240	1
NMTAP	48	252	0
NMTAP	48	264	7
NMTAP	48	276	6
NMTAP	48	288	5
NMTAP	48	300	4
NMTAP	48	312	3
NMTAP	48	324	2
NMTAP	48	336	1
NMTAP	48	348	0
NMTAP	48	360	7
NMTAP	48	372	6
BXSTR	49	0	1
NMSI_	49	0	1	96	48	3
BXTAP	49	0	5
BXTAP	49	96	1
BXSTR	49	96	4
NMSI_	49	96	4	96	48	7
BXTAP	49	192	3
BXTAP	49	192	4
NMSTR	49	288	1
BRSI_	49	288	1	96	48	4
NMSTR	49	288	6
BRSI_	49	288	6	96	48	3
BRTAP	50	0	1
BRTAP	50	0	6
NMTAP	50	96	0
NMTAP	50	96	1
NMTAP	50	120	0
NMTAP	50	120	1
NMTAP	50	168	2
NMTAP	50	168	7
NMTAP	50	216	4
NMTAP	50	216	5
NMTAP	50	264	2
NMTAP	50	264	3
NMTAP	50	288	2
NMTAP	50	288	3
NMTAP	50	336	0
NMTAP	50	336	6
NMTAP	51	0	1
NMTAP	51	0	5
NMTAP	51	48	2
NMTAP	51	72	3
NMTAP	51	96	0
NMTAP	51	120	7
NMTAP	51	144	4
NMTAP	51	168	5
NMSTR	51	192	0
NMSCR	51	192	0	96	48	3
NMTAP	51	216	7
NMTAP	51	240	1
NMTAP	51	264	5
NMTAP	51	288	0
CNSI_	51	336	3	0	48	7
NMTAP	51	336	4
BRTAP	52	0	6
NMTAP	52	96	6
NMTAP	52	96	7
NMTAP	52	120	6
NMTAP	52	120	7
NMTAP	52	168	3
NMTAP	52	168	5
NMTAP	52	216	2
NMTAP	52	216	4
NMTAP	52	264	0
NMTAP	52	264	1
NMTAP	52	288	0
NMTAP	52	288	1
NMTAP	52	336	2
NMTAP	52	336	4
NMTAP	53	0	3
NMTAP	53	0	7
NMTAP	53	48	6
NMTAP	53	72	4
NMTAP	53	96	5
NMTAP	53	120	2
NMTAP	53	144	3
NMHLD	53	168	1	48
NMTAP	53	216	7
NMTAP	53	240	7
NMSTR	53	288	2
NMSI_	53	288	2	96	48	7
NMTAP	53	312	4
NMTAP	53	336	1
NMTAP	53	360	5
BRTAP	54	0	2
NMTAP	54	96	0
NMTAP	54	96	6
NMTAP	54	120	0
NMTAP	54	120	6
NMTAP	54	168	4
NMTAP	54	168	5
NMTAP	54	216	2
NMTAP	54	216	3
NMTAP	54	264	1
NMTAP	54	264	4
NMTAP	54	288	1
NMTAP	54	288	4
NMTAP	54	336	0
NMTAP	54	336	6
NMTAP	55	0	2
NMTAP	55	0	7
NMTAP	55	48	5
NMTAP	55	72	4
NMTAP	55	96	7
NMTAP	55	120	0
NMTAP	55	144	3
NMTAP	55	168	2
NMSTR	55	192	7
NMSCL	55	192	7	96	48	4
NMTAP	55	216	0
NMTAP	55	240	6
NMTAP	55	264	4
NMTAP	55	288	7
NMTAP	55	336	2
CNSI_	55	336	4	0	48	0
BRSTR	56	0	1
NMSI_	56	0	1	96	48	4
NMTAP	56	72	0
NMTAP	56	96	1
NMTAP	56	144	7
BRTAP	56	192	3
BRSTR	56	192	6
BRSI_	56	192	6	96	48	3
NMTAP	56	264	7
NMTAP	56	288	6
NMTAP	56	336	0
BRSTR	57	0	1
NMSI_	57	0	1	96	48	6
NMTAP	57	0	4
BRTAP	57	96	1
BRSTR	57	96	5
BRSI_	57	96	5	96	48	2
BRSTR	57	192	1
NMSI_	57	192	1	96	48	4
BRSTR	57	192	5
BRSI_	57	192	5	96	48	0
BRTAP	57	288	1
BRTAP	57	288	5
BRTAP	58	0	2
BRTAP	58	0	6
NMTAP	58	48	3
NMTAP	58	48	4
NMTAP	58	96	5
NMTAP	58	120	4
NMTAP	58	144	6
NMTAP	58	168	1
NMSTR	58	192	0
BRSI_	58	192	0	96	48	5
NMTAP	58	216	2
NMSTR	58	240	3
NMSI_	58	240	3	96	48	7
NMTAP	58	264	1
NMTAP	58	288	0
NMTAP	58	336	3
EXTAP	59	0	6
NMTAP	59	48	1
NMTAP	59	48	5
NMTAP	59	96	2
NMTAP	59	120	4
NMTAP	59	144	3
NMTAP	59	168	6
NMTAP	59	192	4
NMTAP	59	216	5
NMTAP	59	240	7
NMTAP	59	264	6
NMTAP	59	288	2
NMTAP	59	312	3
NMTAP	59	336	0
NMTAP	59	360	7
BRTAP	60	0	2
BRTAP	60	0	6
NMTAP	60	48	3
NMTAP	60	48	4
NMTAP	60	96	5
NMTAP	60	120	4
NMTAP	60	144	6
NMTAP	60	168	1
NMSTR	60	192	0
BRSI_	60	192	0	96	48	5
NMTAP	60	216	2
NMSTR	60	240	3
NMSI_	60	240	3	96	48	7
NMTAP	60	264	1
NMTAP	60	288	0
NMTAP	60	336	3
EXTAP	61	0	6
NMTAP	61	48	0
NMTAP	61	48	6
NMTAP	61	96	5
NMTAP	61	120	3
NMTAP	61	144	4
NMTAP	61	168	1
NMTAP	61	192	3
NMTAP	61	216	2
NMTAP	61	240	7
NMTAP	61	264	0
NMSTR	61	288	6
BRSI_	61	288	6	96	48	2
NMTAP	61	312	7
NMTAP	61	336	5
NMTAP	61	360	7
BRTAP	62	0	6
NMTAP	62	96	1
NMTAP	62	120	0
NMTAP	62	144	2
NMTAP	62	168	5
NMSTR	62	192	4
BRSI_	62	192	4	96	48	1
NMTAP	62	216	6
NMSTR	62	240	7
NMSI_	62	240	7	96	48	3
NMTAP	62	264	5
NMTAP	62	288	4
NMTAP	62	336	7
EXTAP	63	0	2
NMTAP	63	48	1
NMTAP	63	48	5
NMTAP	63	96	6
NMTAP	63	120	7
NMTAP	63	144	5
NMTAP	63	168	1
NMTAP	63	192	0
NMTAP	63	216	2
NMTAP	63	240	5
NMTAP	63	264	4
NMTAP	63	288	6
NMTAP	63	312	1
NMTAP	63	336	0
NMTAP	63	360	2
NMSTR	64	0	7
NMSI_	64	0	7	96	48	3
NMSTR	64	96	1
NMSI_	64	96	1	96	48	5
NMTAP	64	96	7
NMTAP	64	192	1
NMSTR	64	192	4
NMSI_	64	192	4	96	48	7
NMSTR	64	288	0
NMSCL	64	288	0	96	48	5
NMSCR	64	288	0	96	48	3
NMTAP	64	288	4
NMTAP	65	0	0
EXTAP	65	96	7
NMTAP	65	192	0
NMTAP	65	192	6
NMTAP	65	240	1
NMTAP	65	240	5
NMTAP	65	288	2
NMTAP	65	288	4
NMTAP	65	336	3
NMTAP	65	336	5
BRTAP	66	0	2
BRTAP	66	0	6
NMSTR	66	96	1
NMSLR	66	96	1	96	72	0
NMTAP	66	120	0
NMTAP	66	144	1
NMSTR	66	168	0
NMSLL	66	168	0	96	72	2
EXTAP	67	0	3
EXTAP	67	0	5
NMTAP	67	96	7
NMTAP	67	120	1
NMTAP	67	144	7
NMTAP	67	168	1
BRSTR	67	192	7
BRSUL	67	192	7	96	48	3
NMSUR	67	192	7	96	48	3
BRTAP	67	288	7
BRTAP	68	0	1
BRTAP	68	0	5
NMSTR	68	96	2
NMSLL	68	96	2	96	72	4
NMTAP	68	120	3
NMTAP	68	144	2
NMTAP	68	168	3
CNSI_	68	264	4	0	72	1
EXSTR	69	0	7
BRSI_	69	0	7	96	48	3
BXTAP	69	96	0
BXTAP	69	96	7
NMTAP	69	192	2
EXTAP	69	192	4
NMTAP	69	216	2
EXTAP	69	216	4
EXTAP	69	264	3
NMTAP	69	264	5
EXTAP	69	288	3
NMTAP	69	288	5
NMTAP	69	336	2
EXTAP	69	336	6
BXTAP	70	0	1
BRTAP	70	0	7
NMSTR	70	96	6
NMSLL	70	96	6	96	72	7
NMTAP	70	120	7
NMTAP	70	144	6
NMSTR	70	168	7
NMSLR	70	168	7	96	72	5
EXTAP	71	0	2
EXTAP	71	0	4
NMTAP	71	96	0
NMTAP	71	120	6
NMTAP	71	144	0
NMTAP	71	168	6
NMTAP	71	192	0
BXHLD	71	256	1	32
BXHLD	71	256	7	32
BXHLD	71	320	2	32
BXHLD	71	320	6	32
BXTAP	72	0	3
BXTAP	72	0	5
NMTAP	72	96	1
NMTAP	72	120	4
NMTAP	72	144	2
NMTAP	72	168	3
NMTAP	72	192	1
NMTAP	72	216	4
NMTAP	72	240	2
NMTAP	72	264	5
NMTAP	72	288	3
NMTAP	72	312	6
NMTAP	72	336	4
NMSTR	73	0	6
NMSCL	73	0	6	96	24	3
NMSTR	73	0	7
NMSCR	73	0	7	96	24	2
NMTTP	73	96	0	E	0	M1
NMTTP	73	96	6	E	0	M1
NMTTP	73	108	1	E	0	M1
NMTTP	73	108	5	E	0	M1
NMTTP	73	120	2	E	0	M1
NMTTP	73	120	4	E	0	M1
EXTAP	73	192	2
EXTAP	73	216	3
EXTAP	73	264	5
EXTAP	73	288	4
NMTAP	73	336	2
NMTAP	73	336	6
EXTAP	74	0	2
EXTAP	74	0	6
NMTAP	74	96	2
NMTAP	74	120	3
NMTAP	74	144	2
NMTAP	74	168	3
EXTAP	74	192	1
EXTAP	74	192	4
NMTAP	74	288	5
NMTAP	74	312	4
NMTAP	74	336	5
NMTAP	74	360	4
EXTAP	75	0	3
EXTAP	75	0	6
EXTAP	75	96	2
EXTAP	75	96	3
EXSTR	75	192	0
NMSF_	75	192	0	96	48	4
EXTAP	75	192	1
NMTTP	75	288	0	A	1	M1
BRTAP	76	0	2
BRTAP	76	0	6
NMTAP	76	96	0
NMTAP	76	96	5
NMTAP	76	144	6
NMTAP	76	168	7
NMTAP	76	216	0
NMTAP	76	216	5
NMTAP	76	264	2
NMSTR	76	288	3
NMSI_	76	288	3	96	48	7
NMTAP	76	336	1
NMTAP	76	336	4
BRTAP	77	0	2
NMTAP	77	0	3
NMTAP	77	96	0
NMTAP	77	96	5
NMTAP	77	144	6
NMTAP	77	168	7
NMTAP	77	216	0
NMTAP	77	216	5
NMTAP	77	264	2
NMSTR	77	288	3
NMSI_	77	288	3	96	48	7
NMTAP	77	336	1
NMTAP	77	336	4
BRTAP	78	0	2
NMTAP	78	0	3
NMTAP	78	96	0
NMTAP	78	96	6
NMTAP	78	144	2
NMTAP	78	168	3
NMTAP	78	216	4
NMTAP	78	216	5
NMTAP	78	264	2
NMTAP	78	264	6
NMSTR	78	288	2
NMSI_	78	288	2	96	48	6
NMSTR	78	288	6
BRSI_	78	288	6	96	48	2
NMTAP	78	336	1
NMTAP	78	336	7
NMTTP	79	0	0	C	1	M1
NMTAP	79	96	0
NMTAP	79	144	0
BRTAP	79	192	1
BRTAP	79	192	7
BRTAP	79	240	3
BRTAP	79	240	5
BRSTR	79	288	2
NMSI_	79	288	2	96	48	7
BRSTR	79	288	6
NMSI_	79	288	6	96	48	3
BXTAP	80	0	2
BXTAP	80	0	6
NMTAP	80	96	0
NMTAP	80	96	4
NMTAP	80	144	1
NMTAP	80	168	3
NMTAP	80	192	2
NMTAP	80	216	4
NMTAP	80	240	3
NMTAP	80	264	5
NMSTR	80	288	4
NMSI_	80	288	4	96	48	0
NMTAP	80	336	3
NMTAP	80	336	6
NMTAP	81	0	4
BRTAP	81	0	5
NMTAP	81	48	6
NMTAP	81	96	1
NMTAP	81	96	7
NMTAP	81	144	6
NMTAP	81	168	4
NMTAP	81	192	5
NMTAP	81	216	3
NMTAP	81	240	4
NMTAP	81	264	2
NMTAP	81	288	3
NMTAP	81	336	1
NMTAP	81	336	5
NMTAP	82	0	0
NMTAP	82	24	7
NMTAP	82	48	0
NMTAP	82	72	7
NMTAP	82	96	1
NMTAP	82	120	6
NMTAP	82	144	1
NMTAP	82	168	6
NMTAP	82	192	2
NMTAP	82	204	3
NMTAP	82	216	4
NMTAP	82	228	5
NMTAP	82	240	6
NMTAP	82	252	7
NMTAP	82	264	0
NMTAP	82	276	1
NMSTR	82	288	2
NMSI_	82	288	2	96	48	6
NMSTR	82	288	4
NMSI_	82	288	4	96	48	0
NMTAP	82	336	3
BRTAP	83	0	2
BXTAP	83	0	4

T_REC_TAP	536
T_REC_BRK	45
T_REC_XTP	59
T_REC_BXX	20
T_REC_HLD	21
T_REC_XHO	2
T_REC_BHO	0
T_REC_BXH	5
T_REC_STR	54
T_REC_BST	13
T_REC_XST	8
T_REC_XBS	2
T_REC_TTP	61
T_REC_THO	1
T_REC_SLD	64
T_REC_BSL	15
T_REC_ALL	906
T_NUM_TAP	718
T_NUM_BRK	100
T_NUM_HLD	24
T_NUM_SLD	64
T_NUM_ALL	906
T_JUDGE_TAP	798
T_JUDGE_HLD	75
T_JUDGE_SLD	79
T_JUDGE_ALL	952
TTM_EACHPAIRS	175
TTM_SCR_TAP	359000
TTM_SCR_BRK	260000
TTM_SCR_HLD	24000
TTM_SCR_SLD	96000
TTM_SCR_ALL	739000
TTM_SCR_S	707150
TTM_SCR_SS	729000
TTM_RAT_ACV	10137

