VERSION	0.00.00	1.04.00
FES_MODE	0
BPM_DEF	160.000	160.000	160.000	160.000
MET_DEF	4	4
RESOLUTION	384
CLK_DEF	384
COMPATIBLE_CODE	MA2

BPM	0	0	160.000
MET	0	0	4	4

NMSTR	2	0	1
NMSCR	2	0	1	96	240	4
NMSTR	3	0	6
NMSCL	3	0	6	96	240	3
NMHLD	4	0	2	144
NMHLD	4	144	3	144
NMTAP	4	288	4
NMTAP	5	0	4
NMTAP	5	0	5
NMTAP	5	96	6
NMTAP	5	96	7
NMTAP	5	192	0
NMTAP	5	192	1
NMTAP	5	288	2
NMTAP	5	288	3
NMHLD	6	0	4	48
EXTAP	6	0	5
NMHLD	6	96	4	48
NMHLD	6	192	4	48
NMHLD	6	288	4	48
EXTAP	7	0	2
NMHLD	7	0	4	48
NMHLD	7	96	4	48
NMHLD	7	192	4	48
NMHLD	7	288	4	48
NMHLD	8	0	4	48
EXTAP	8	0	6
NMHLD	8	96	4	48
EXTAP	8	192	1
NMHLD	8	192	4	48
NMHLD	8	288	4	48
NMTAP	9	0	4
EXTAP	9	0	7
EXTAP	9	96	0
EXTAP	9	128	0
EXTAP	9	160	0
EXSTR	9	192	7
NMSI_	9	192	7	96	48	3
BRTAP	9	288	1
NMTAP	10	0	2
NMTAP	10	0	4
NMTAP	10	96	2
NMTAP	10	96	4
NMHLD	10	192	1	48
NMHLD	10	192	3	48
NMTAP	10	288	2
NMTAP	10	336	2
NMTAP	11	0	4
NMTAP	11	96	3
NMTAP	11	96	5
NMSTR	11	192	6
NMSI_	11	192	6	96	48	3
NMSTR	11	288	0
NMSI_	11	288	0	96	48	4
EXTAP	12	0	7
NMTAP	12	96	3
NMTAP	12	96	5
NMHLD	12	192	4	48
NMHLD	12	192	6	48
NMTAP	12	288	5
NMTAP	12	336	5
NMHLD	13	0	3	96
BRTAP	13	96	4
EXTAP	13	192	4
EXTAP	13	216	3
EXTAP	13	264	3
EXTAP	13	288	4
EXTAP	13	336	4
NMTAP	14	0	2
NMTAP	14	96	1
NMTAP	14	96	3
NMTAP	14	192	0
NMTAP	14	240	0
NMTAP	14	288	1
NMTAP	14	288	7
NMTAP	15	0	6
NMTAP	15	48	6
NMTAP	15	96	4
NMSTR	15	144	5
NMSV_	15	144	5	96	48	3
NMTAP	15	192	5
CNSI_	15	288	3	0	72	1
EXTAP	16	0	0
NMTAP	16	96	1
NMTAP	16	96	7
NMTAP	16	192	6
NMTAP	16	240	6
NMTAP	16	288	4
NMSTR	16	336	5
NMSUL	16	336	5	96	144	3
NMTAP	17	0	5
CNSCL	17	192	3	0	48	0
EXTAP	17	288	6
EXTAP	17	288	7
BRTAP	18	0	0
BRTAP	18	0	4
NMSTR	18	96	2
NMSI_	18	96	2	96	48	5
NMTAP	18	192	6
NMTAP	18	240	6
NMTAP	18	288	4
NMTAP	19	0	0
NMTAP	19	0	6
NMSTR	19	96	2
NMSV_	19	96	2	96	48	5
NMTAP	19	192	6
NMTAP	19	240	6
NMTAP	19	288	4
NMTAP	20	0	0
NMTAP	20	0	6
NMSTR	20	96	2
NMSCR	20	96	2	96	48	5
NMTAP	20	192	6
NMTAP	20	240	6
NMTAP	20	288	4
NMSTR	21	0	0
NMSI_	21	0	0	96	48	3
NMSTR	21	0	6
NMSI_	21	0	6	96	48	3
NMTAP	21	192	1
NMTAP	21	192	5
NMTAP	21	240	1
NMTAP	21	240	5
BRTAP	21	288	0
BRTAP	21	288	6
NMTAP	22	0	3
NMTAP	22	0	7
NMSTR	22	96	5
NMSI_	22	96	5	96	48	2
NMTAP	22	192	1
NMTAP	22	240	1
NMTAP	22	288	3
NMTAP	23	0	1
NMTAP	23	0	7
NMSTR	23	96	5
NMSV_	23	96	5	96	48	2
NMTAP	23	192	1
NMTAP	23	240	1
NMTAP	23	288	3
EXTAP	24	0	1
EXSTR	24	0	7
BRSUL	24	0	7	96	96	1
EXSTR	24	192	0
BRSSL	24	192	0	96	96	4
EXTAP	25	0	7
EXSTR	25	96	2
BRSLL	25	96	2	96	96	4
EXSTR	25	96	5
BRSLR	25	96	5	96	96	3
NMTAP	26	0	2
NMTAP	26	0	5
NMTAP	26	96	1
NMTAP	26	96	3
NMHLD	26	192	4	96
NMTAP	26	288	3
NMTAP	27	0	4
NMTAP	27	0	5
NMTAP	27	96	3
NMTAP	27	96	6
NMHLD	27	192	2	96
NMTAP	27	288	3
NMTAP	28	0	0
NMTAP	28	0	1
NMTAP	28	96	2
NMTAP	28	96	7
NMHLD	28	192	6	96
NMTAP	28	288	7
NMTAP	29	0	0
NMSTR	29	0	5
NMSUL	29	0	5	96	96	7
NMSTR	29	192	1
NMSUL	29	192	1	96	96	3
NMTAP	30	0	5
NMTAP	30	96	4
NMTAP	30	96	6
NMHLD	30	192	3	96
NMTAP	30	288	4
NMTAP	31	0	2
NMTAP	31	0	3
NMTAP	31	96	1
NMTAP	31	96	4
NMHLD	31	192	5	96
NMTAP	31	288	4
NMTAP	32	0	6
NMTAP	32	0	7
NMTAP	32	96	0
NMTAP	32	96	5
NMHLD	32	192	1	96
NMTAP	32	288	0
NMTAP	33	0	2
NMTAP	33	0	7
NMSTR	33	96	2
NMSI_	33	96	2	96	48	5
NMTAP	33	96	7
BRTAP	33	192	6
NMHLD	34	0	7	192
NMHLD	34	192	6	192
NMHLD	35	0	5	192
NMHLD	35	192	4	192
NMHLD	36	0	3	192
NMHLD	36	192	2	192
NMHLD	37	0	1	192
NMHLD	37	192	0	192
NMTAP	38	0	7
NMHLD	38	96	4	72
NMTAP	38	96	6
NMTAP	38	168	5
NMTAP	38	240	5
NMTAP	38	288	4
NMTAP	38	288	6
NMTAP	39	0	3
NMTAP	39	0	4
NMTAP	39	96	1
NMHLD	39	96	3	72
NMTAP	39	168	2
NMTAP	39	240	2
NMTAP	39	288	1
NMTAP	39	288	3
NMTAP	40	0	0
NMTAP	40	48	0
NMSTR	40	96	7
NMSCL	40	96	7	96	144	0
NMTAP	40	144	7
EXTAP	41	0	3
NMTAP	41	96	7
NMTAP	41	144	7
NMTAP	41	192	0
NMSTR	41	192	6
NMSI_	41	192	6	96	48	2
NMHLD	42	0	0	768
NMTTP	42	96	0	C	0	M1
NMTTP	42	192	3	E	0	M1
NMTTP	42	288	2	D	0	M1
NMTTP	43	0	1	E	0	M1
NMTTP	43	96	0	C	0	M1
NMTTP	43	192	3	E	0	M1
NMTTP	43	288	2	D	0	M1
NMHLD	44	0	7	768
NMTTP	44	96	0	C	0	M1
NMTTP	44	192	5	E	0	M1
NMTTP	44	288	6	D	0	M1
NMTTP	45	0	7	E	0	M1
NMTTP	45	96	0	C	0	M1
NMTTP	45	192	5	E	0	M1
NMTTP	45	288	6	D	0	M1
NMHLD	46	0	0	384
NMTTP	46	96	1	E	0	M1
NMTTP	46	192	2	D	0	M1
NMTTP	46	288	3	E	0	M1
NMHLD	47	0	7	384
NMTTP	47	96	7	E	0	M1
NMTTP	47	192	6	D	0	M1
NMTTP	47	288	5	E	0	M1
NMHLD	48	0	0	192
NMTTP	48	96	2	B	0	M1
NMTTP	48	96	2	E	0	M1
NMHLD	48	192	7	192
NMTTP	48	288	5	B	0	M1
NMTTP	48	288	6	E	0	M1
BRTAP	49	0	0
BRTAP	49	96	0
BRSTR	49	192	0
NMSI_	49	192	0	96	48	4
BRTAP	49	288	7
EXTAP	50	0	3
EXTAP	50	0	5
NMTAP	50	96	6
NMTAP	50	96	7
NMTAP	50	192	5
NMTAP	50	240	5
NMTAP	50	288	4
NMTAP	50	336	6
NMSTR	51	0	6
NMSUL	51	0	6	96	48	2
NMTAP	51	96	0
NMTAP	51	192	1
NMTAP	51	192	7
EXTAP	51	288	2
EXTAP	51	288	3
EXTAP	51	336	4
EXTAP	51	336	5
EXTAP	52	0	0
EXTAP	52	0	6
NMHLD	52	96	2	96
NMTAP	52	96	4
NMHLD	52	192	1	96
NMSTR	52	288	0
NMSXL	52	288	0	96	144	5
NMTAP	52	336	0
NMTAP	53	0	7
NMHLD	53	192	6	96
NMTAP	53	288	7
NMTAP	53	336	7
BRTAP	54	0	0
BRTAP	54	0	6
NMTAP	54	96	4
NMTAP	54	96	5
NMTAP	54	192	2
NMTAP	54	240	2
NMTAP	54	288	3
NMTAP	54	336	1
NMSTR	55	0	1
NMSUR	55	0	1	96	48	5
NMTAP	55	96	7
NMTAP	55	192	0
NMTAP	55	192	6
EXTAP	55	288	4
EXTAP	55	288	5
EXTAP	55	336	2
EXTAP	55	336	3
EXTAP	56	0	1
EXSTR	56	0	7
NMSCL	56	0	7	96	48	4
NMTAP	56	96	3
EXSTR	56	192	0
NMSCR	56	192	0	96	48	3
NMTAP	56	288	4
NMSTR	57	0	7
NMSI_	57	0	7	96	48	1
NMSTR	57	96	3
NMSI_	57	96	3	96	48	5
NMSTR	57	192	6
NMSI_	57	192	6	96	48	2
BRTAP	57	288	0
EXTAP	58	0	1
EXTAP	58	0	3
NMTAP	58	48	2
NMTAP	58	96	3
NMTAP	58	144	4
NMSTR	58	192	5
NMSCR	58	192	5	96	48	0
NMTAP	58	288	1
NMTAP	59	0	3
NMTAP	59	48	2
NMTAP	59	96	1
NMTAP	59	144	0
NMSTR	59	192	1
NMSI_	59	192	1	96	48	5
NMTAP	59	192	7
EXTAP	60	0	4
EXTAP	60	0	6
NMTAP	60	48	5
NMTAP	60	96	4
NMTAP	60	144	3
NMSTR	60	192	2
NMSCL	60	192	2	96	48	7
NMTAP	60	288	6
NMTAP	61	0	4
NMTAP	61	48	5
NMTAP	61	96	6
NMTAP	61	144	7
NMTAP	61	192	0
EXSTR	61	192	6
NMSI_	61	192	6	96	48	3
EXSTR	61	288	2
NMSI_	61	288	2	96	48	7
EXTAP	62	0	4
NMTAP	62	96	6
NMTAP	62	144	6
NMTAP	62	192	0
NMTAP	62	240	0
NMTAP	62	288	7
NMTAP	62	336	7
NMSTR	63	0	1
NMSCR	63	0	1	96	48	4
NMTAP	63	96	5
NMTAP	63	192	0
NMTAP	63	192	6
NMTAP	63	288	1
NMTAP	63	288	7
NMTAP	63	336	1
NMTAP	63	336	7
EXTAP	64	0	2
BRHLD	64	0	6	96
NMTAP	64	96	4
BRHLD	64	192	1	96
EXTAP	64	192	5
NMTAP	64	288	3
BRSTR	65	0	0
NMSCR	65	0	0	96	48	3
BRSTR	65	0	7
NMSCL	65	0	7	96	48	4
NMTTP	65	192	4	E	1	M1
NMTTP	65	240	6	E	1	M1
NMTTP	65	288	0	E	1	M1
NMTTP	65	336	2	E	1	M1
NMTTP	66	0	0	C	1	M1
NMSTR	67	192	1
NMSI_	67	192	1	96	48	4
NMTAP	67	192	7
NMSTR	67	288	6
NMSI_	67	288	6	96	48	3
BRTAP	68	0	0
NMTAP	68	96	2
NMTAP	68	192	1
NMTAP	68	192	3
NMTAP	68	288	4
NMTAP	68	288	6
NMTAP	68	336	5
BRHLD	69	0	3	96
BRHLD	69	0	4	96
EXTAP	69	192	3
EXTAP	69	216	4
EXTAP	69	264	4
EXTAP	69	288	3
EXTAP	69	336	3
NMTAP	70	0	5
NMTAP	70	96	4
NMTAP	70	96	6
NMTAP	70	192	7
NMTAP	70	240	7
NMTAP	70	288	0
NMTAP	70	288	6
NMTAP	71	0	1
NMTAP	71	48	1
NMTAP	71	96	3
NMSTR	71	144	2
NMSV_	71	144	2	96	48	4
NMTAP	71	192	2
CNSI_	71	288	4	0	72	6
EXTAP	72	0	7
NMTAP	72	96	0
NMTAP	72	96	6
NMTAP	72	192	1
NMTAP	72	240	1
NMTAP	72	288	3
NMSTR	72	336	2
NMSUR	72	336	2	96	144	4
NMTAP	73	0	2
CNSCR	73	192	4	0	48	7
BRTAP	73	288	0
NMTTP	74	0	1	B	0	M1
NMTTP	74	0	1	E	0	M1
NMTTP	74	0	2	B	0	M1
NMTTP	74	0	3	B	0	M1
NMTTP	74	0	4	B	0	M1
NMTTP	74	0	5	B	0	M1
NMTTP	74	0	6	B	0	M1
NMTTP	74	0	7	E	0	M1
NMTTP	74	192	0	C	0	M1
NMTTP	74	192	0	E	0	M1
NMTTP	74	192	3	B	0	M1
NMTTP	74	192	4	E	0	M1
NMTTP	74	192	7	B	0	M1
BRTAP	75	0	2
BRTAP	75	0	3
BRTAP	75	96	4
BRTAP	75	96	5
NMTTP	75	192	0	B	0	M1
NMTTP	75	192	0	C	1	M1
NMTTP	75	192	0	E	0	M1
NMTTP	75	192	0	A	0	M1
NMTTP	75	192	1	E	0	M1
NMTTP	75	192	2	E	0	M1
NMTTP	75	192	2	A	0	M1
NMTTP	75	192	5	A	0	M1
NMTTP	75	192	6	E	0	M1
NMTTP	75	192	7	B	0	M1
NMTTP	75	192	7	E	0	M1
NMTTP	75	192	7	A	0	M1
EXTAP	76	0	3
EXTAP	76	0	4
NMSTR	76	96	5
NMSI_	76	96	5	96	48	2
NMTAP	76	192	1
NMTAP	76	240	1
NMTAP	76	288	3
NMTAP	76	336	0
NMTAP	77	0	1
NMTAP	77	0	7
NMSTR	77	96	5
NMSV_	77	96	5	96	48	2
NMTAP	77	192	0
NMTAP	77	240	0
NMTAP	77	288	3
NMTAP	77	336	0
NMTAP	78	0	1
NMTAP	78	0	7
NMSTR	78	96	5
NMSCL	78	96	5	96	48	2
NMTAP	78	192	1
NMTAP	78	240	1
NMTAP	78	288	3
NMTAP	78	336	0
NMSTR	79	0	1
NMSI_	79	0	1	96	48	4
NMSTR	79	0	7
NMSI_	79	0	7	96	48	4
NMTAP	79	192	2
NMTAP	79	192	6
NMTAP	79	240	2
NMTAP	79	240	6
BRTAP	79	288	1
BRTAP	79	288	7
NMTAP	80	0	0
NMSTR	80	0	6
NMSI_	80	0	6	96	48	3
NMSTR	80	96	2
NMSI_	80	96	2	96	48	5
NMTAP	80	192	6
NMTAP	80	240	6
NMTAP	80	288	4
NMTAP	80	336	7
NMTAP	81	0	0
NMSTR	81	0	6
NMSCL	81	0	6	96	48	3
NMSTR	81	96	2
NMSV_	81	96	2	96	48	5
NMTAP	81	192	7
NMTAP	81	240	7
NMTAP	81	288	4
NMTAP	81	336	6
NMTAP	82	0	1
NMSTR	82	0	7
NMSI_	82	0	7	96	48	3
NMSTR	82	96	2
NMSCR	82	96	2	96	48	5
NMTAP	82	192	6
NMTAP	82	240	6
NMTAP	82	288	4
NMTAP	82	336	7
BRTAP	83	0	0
BRTAP	83	0	1

T_REC_TAP	236
T_REC_BRK	23
T_REC_XTP	48
T_REC_BXX	0
T_REC_HLD	44
T_REC_XHO	0
T_REC_BHO	4
T_REC_BXH	0
T_REC_STR	43
T_REC_BST	3
T_REC_XST	9
T_REC_XBS	0
T_REC_TTP	54
T_REC_THO	0
T_REC_SLD	51
T_REC_BSL	4
T_REC_ALL	519
T_NUM_TAP	390
T_NUM_BRK	34
T_NUM_HLD	44
T_NUM_SLD	51
T_NUM_ALL	519
T_JUDGE_TAP	416
T_JUDGE_HLD	142
T_JUDGE_SLD	55
T_JUDGE_ALL	613
TTM_EACHPAIRS	93
TTM_SCR_TAP	195000
TTM_SCR_BRK	88400
TTM_SCR_HLD	44000
TTM_SCR_SLD	76500
TTM_SCR_ALL	403900
TTM_SCR_S	388500
TTM_SCR_SS	400500
TTM_RAT_ACV	10084

