VERSION	0.00.00	1.04.00
FES_MODE	0
BPM_DEF	180.000	180.000	180.000	180.000
MET_DEF	4	4
RESOLUTION	384
CLK_DEF	384
COMPATIBLE_CODE	MA2

BPM	0	0	180.000
MET	0	0	4	4
MET	76	0	4	3
MET	76	288	4	4

NMTHO	3	192	0	672	C	0	M1
NMTTP	3	192	2	B	0	M1
NMTTP	3	192	3	B	0	M1
NMTTP	3	192	3	E	0	M1
NMHLD	3	192	6	672
NMTHO	5	192	0	336	C	1	M1
NMTTP	5	192	1	B	0	M1
NMTTP	5	192	2	B	0	M1
NMTTP	5	192	2	E	0	M1
NMHLD	5	192	6	336
NMTTP	6	144	1	B	0	M1
NMTTP	6	144	2	B	0	M1
NMTTP	6	144	2	E	0	M1
NMHLD	7	0	0	144
NMHLD	7	0	6	144
BXTAP	7	192	7
BXTAP	7	216	7
BXTAP	7	240	7
BXTAP	7	264	7
BXTAP	7	288	7
BXTAP	7	312	7
BXTAP	7	336	7
BXTAP	7	360	7
BXSTR	8	0	7
NMSI_	8	0	7	96	48	2
NMSI_	8	0	7	96	48	4
NMSTR	8	192	3
NMSI_	8	192	3	96	48	0
NMSI_	8	192	3	96	48	6
NMTAP	9	0	7
NMTAP	9	48	0
NMTAP	9	48	6
NMTAP	9	96	1
NMTAP	9	96	5
NMHLD	9	144	2	96
NMTAP	9	144	4
NMTAP	9	240	3
NMTAP	9	288	4
NMHLD	9	336	5	96
NMTAP	10	48	4
NMTAP	10	96	3
NMHLD	10	144	2	96
NMTAP	10	240	3
NMTAP	10	288	3
NMTAP	11	0	2
NMTAP	11	0	3
NMTAP	11	96	1
NMTAP	11	96	4
NMSTR	11	144	1
NMSCR	11	144	1	96	48	4
NMSTR	11	144	4
NMSCR	11	144	4	96	48	7
BRSTR	12	0	7
NMSI_	12	0	7	96	48	3
BRSTR	12	96	2
NMSI_	12	96	2	96	48	6
BRSTR	12	192	4
NMSI_	12	192	4	96	48	0
BRSTR	12	288	1
NMSXL	12	288	1	96	192	7
NMTAP	13	0	6
NMTAP	13	48	6
NMTAP	13	96	5
NMTAP	13	144	4
NMTAP	13	240	6
NMTAP	13	288	6
NMTAP	14	0	0
NMTAP	14	0	7
NMTAP	14	96	1
NMTAP	14	96	2
NMTAP	14	192	3
NMTAP	14	192	4
BRSTR	14	288	5
BRSI_	14	288	5	96	192	2
BRSTR	14	288	6
BRSI_	14	288	6	96	192	1
BRTAP	15	288	0
BRTAP	15	288	7
BRHLD	16	0	1	288
BRHLD	16	0	5	288
BRTAP	16	336	1
BRTAP	16	336	5
BRHLD	17	0	2	288
BRHLD	17	0	6	288
BRTAP	17	336	2
BRTAP	17	336	6
NMSTR	18	0	3
BRSSR	18	0	3	96	96	7
NMSTR	18	0	4
BRSSL	18	0	4	96	96	0
NMSTR	18	288	2
BRSI_	18	288	2	96	48	0
NMSTR	18	288	3
BRSI_	18	288	3	96	48	7
NMSTR	19	0	2
BRSI_	19	0	2	96	48	6
NMSTR	19	0	3
BRSI_	19	0	3	96	48	5
NMSTR	19	96	2
BRSI_	19	96	2	96	48	0
NMSTR	19	96	3
BRSI_	19	96	3	96	48	7
NMTAP	19	192	2
NMTAP	19	192	3
BRTAP	19	288	2
BRTAP	19	288	3
NMHLD	20	0	4	96
NMHLD	20	96	5	96
NMTAP	20	192	6
NMHLD	20	240	6	48
NMTAP	20	288	7
NMHLD	20	336	7	48
NMHLD	21	0	3	96
NMHLD	21	96	2	96
NMTAP	21	192	1
NMHLD	21	240	1	48
NMTAP	21	288	0
NMHLD	21	336	0	48
BRHLD	22	0	7	288
EXTAP	22	288	0
BRTAP	23	0	0
BRTAP	23	0	7
BRTAP	23	12	1
BRTAP	23	12	6
BRTAP	23	24	2
BRTAP	23	24	5
BRTAP	23	36	3
BRTAP	23	36	4
BRTAP	23	96	0
BRTAP	23	96	7
BRTAP	23	108	1
BRTAP	23	108	6
BRTAP	23	120	2
BRTAP	23	120	5
BRTAP	23	132	3
BRTAP	23	132	4
BRTAP	23	192	0
BRTAP	23	192	7
BRTAP	23	204	1
BRTAP	23	204	6
BRTAP	23	216	2
BRTAP	23	216	5
BRTAP	23	228	3
BRTAP	23	228	4
NMTTP	23	288	4	E	1	M1
NMSTR	24	0	3
NMSXR	24	0	3	96	192	4
NMTAP	24	192	6
NMTAP	24	288	6
NMSTR	25	0	5
NMSXR	25	0	5	96	192	6
NMTAP	25	192	0
NMTAP	25	288	0
NMSTR	26	0	7
NMSXR	26	0	7	96	192	0
NMTAP	26	192	2
NMTAP	26	288	2
BRSTR	27	0	1
NMSI_	27	0	1	96	48	3
NMSI_	27	0	1	96	192	6
CNSV_	27	144	3	0	48	4
CNSI_	27	192	4	0	96	6
NMSTR	28	0	7
NMSCL	28	0	7	96	96	4
NMTAP	28	96	2
NMSTR	28	192	0
NMSCR	28	192	0	96	96	3
NMTAP	28	288	5
NMSTR	29	0	7
NMSI_	29	0	7	96	96	3
NMTAP	29	96	2
NMSTR	29	192	1
NMSI_	29	192	1	96	96	5
NMTAP	29	288	6
BRHLD	30	0	7	384
NMTAP	31	0	0
NMTAP	31	48	0
NMTAP	31	96	0
NMTAP	31	144	0
NMTAP	31	192	1
NMTAP	31	192	5
NMTAP	31	240	1
NMTAP	31	240	5
BRTAP	31	288	1
BRTAP	31	288	5
BRTAP	31	336	1
BRTAP	31	336	5
BRTAP	32	0	1
BRTAP	32	0	5
NMTTP	32	96	2	B	0	M1
NMTTP	32	96	3	B	0	M1
NMTTP	32	168	4	B	0	M1
NMTTP	32	168	5	B	0	M1
NMTTP	32	240	2	E	0	M1
NMTTP	32	288	6	E	0	M1
NMTTP	32	336	0	A	0	M1
NMTTP	32	360	7	A	0	M1
NMTTP	33	0	1	E	0	M1
NMTTP	33	24	7	E	0	M1
NMTTP	33	48	1	B	0	M1
NMTTP	33	72	6	B	0	M1
NMTTP	33	96	2	B	0	M1
NMTTP	33	120	5	B	0	M1
NMTTP	33	144	3	E	0	M1
NMTTP	33	168	5	E	0	M1
NMTTP	33	192	3	A	0	M1
NMTTP	33	216	4	A	0	M1
NMTTP	33	264	6	A	0	M1
NMTTP	33	288	7	E	0	M1
NMTTP	33	312	7	B	0	M1
NMTTP	33	336	0	B	0	M1
NMTTP	33	360	1	E	0	M1
NMTTP	34	0	1	A	0	M1
NMTTP	34	24	2	A	0	M1
NMTTP	34	48	3	E	0	M1
NMTTP	34	72	3	B	0	M1
NMTTP	34	96	4	B	0	M1
NMTTP	34	120	5	E	0	M1
NMTTP	34	144	5	A	0	M1
BXSTR	34	192	0
BRSF_	34	192	0	96	48	4
BXTAP	34	240	1
BXTAP	34	240	7
BXTAP	34	288	0
NMSTR	35	0	5
NMSI_	35	0	5	96	48	0
NMSTR	35	96	2
NMSI_	35	96	2	96	48	7
NMSTR	35	192	4
NMSUR	35	192	4	96	96	3
NMTAP	35	288	3
EXTAP	36	0	4
NMSTR	36	96	5
NMSI_	36	96	5	96	48	2
NMSTR	36	96	6
NMSI_	36	96	6	96	48	2
BRTAP	36	192	5
BRTAP	36	192	6
NMTAP	36	288	1
NMTAP	36	336	1
NMSTR	37	0	0
NMSCR	37	0	0	96	96	4
NMSTR	37	96	4
NMSCR	37	96	4	96	96	0
NMTAP	37	192	0
NMTAP	37	288	4
NMSTR	38	0	6
NMSLR	38	0	6	96	48	4
NMSTR	38	96	2
NMSLR	38	96	2	96	72	0
CNSI_	38	144	4	0	48	2
NMTAP	38	192	1
CNSI_	38	264	0	0	72	6
NMTAP	38	288	1
NMSTR	39	0	2
NMSCR	39	0	2	96	48	5
NMTAP	39	96	7
NMTAP	39	144	7
NMSTR	39	192	6
NMSCR	39	192	6	96	48	1
NMSTR	39	288	2
NMSCL	39	288	2	96	96	6
NMSTR	39	336	2
NMSUL	39	336	2	96	48	5
BRTAP	40	192	0
BRTAP	40	192	7
BRTAP	40	288	2
BRTAP	40	288	5
NMTAP	41	0	1
NMTAP	41	24	4
NMTAP	41	48	1
NMTAP	41	72	4
NMTAP	41	96	2
NMTAP	41	120	5
NMTAP	41	144	2
NMTAP	41	168	5
NMTAP	41	192	3
NMTAP	41	216	6
NMTAP	41	240	3
NMTAP	41	264	6
BRSTR	41	288	2
NMSI_	41	288	2	96	48	5
BRSTR	42	0	5
NMSUL	42	0	5	96	144	2
BRHLD	42	288	7	288
NMTTP	43	0	6	A	1	M1
NMTTP	43	16	6	D	0	M1
NMTTP	43	32	5	A	0	M1
NMTTP	43	96	6	B	1	M1
NMTTP	43	112	5	B	0	M1
NMTTP	43	128	4	B	0	M1
NMTTP	43	192	1	B	1	M1
NMTTP	43	208	2	B	0	M1
NMTTP	43	224	3	B	0	M1
NMTTP	43	288	1	A	1	M1
NMTTP	43	304	2	D	0	M1
NMTTP	43	320	2	A	0	M1
NMSTR	44	0	4
NMSI_	44	0	4	96	48	7
NMSTR	44	96	3
NMSI_	44	96	3	96	48	0
BXTAP	44	192	7
NMSTR	44	288	6
BRSI_	44	288	6	96	48	4
BRTAP	44	336	7
NMSTR	45	0	1
BRSI_	45	0	1	96	48	3
BRTAP	45	48	0
NMSTR	45	96	6
BRSI_	45	96	6	96	48	4
BRTAP	45	144	7
NMTAP	45	192	1
BRTAP	45	240	0
BRSTR	45	288	1
BRSXR	45	288	1	96	144	4
BRSTR	45	288	6
BRSXL	45	288	6	96	144	3
BRTAP	45	336	7
BXTAP	46	192	2
BXTAP	46	192	5
EXTAP	46	288	0
EXSTR	46	288	7
NMSXR	46	288	7	96	192	3
NMTAP	47	0	3
NMTAP	47	96	2
NMTAP	47	192	1
NMTAP	47	240	1
NMTAP	47	288	1
NMTAP	47	288	3
BRSTR	48	0	0
NMSI_	48	0	0	96	48	3
BRSTR	48	0	1
NMSI_	48	0	1	96	48	3
BRTAP	48	96	0
BRTAP	48	96	1
NMTTP	48	192	4	B	0	M1
NMTTP	48	192	4	E	0	M1
NMTTP	48	192	4	A	0	M1
NMTTP	48	192	4	D	0	M1
NMTTP	48	192	5	B	0	M1
NMTTP	48	192	5	E	1	M1
NMTTP	48	192	5	A	0	M1
NMTTP	48	192	5	D	0	M1
NMTTP	48	192	6	E	0	M1
NMTTP	48	192	6	D	0	M1
NMSTR	48	288	6
BRSI_	48	288	6	96	48	2
NMTAP	48	336	6
NMSTR	49	0	1
BRSI_	49	0	1	96	48	5
NMTAP	49	48	1
NMSTR	49	96	4
BRSI_	49	96	4	96	48	7
NMTAP	49	144	4
NMSTR	49	192	3
BRSI_	49	192	3	96	48	0
NMTAP	49	240	3
NMSTR	49	288	6
BRSI_	49	288	6	96	48	3
NMTAP	49	336	6
NMSTR	50	0	2
BRSI_	50	0	2	96	48	7
NMTAP	50	48	2
NMSTR	50	96	4
BRSI_	50	96	4	96	48	0
NMTAP	50	144	4
NMHLD	50	192	1	96
BRTAP	50	288	7
NMHLD	51	0	3	96
NMHLD	51	0	6	96
NMTAP	51	144	2
NMTAP	51	144	5
NMHLD	51	192	1	96
NMHLD	51	192	4	96
NMTAP	51	336	2
NMTAP	51	336	5
NMTAP	52	0	6
NMTAP	52	48	7
NMTAP	52	96	0
NMHLD	52	144	1	96
NMTAP	52	240	0
NMTAP	52	288	7
NMHLD	52	336	6	96
NMTAP	53	48	7
NMTAP	53	96	0
NMHLD	53	144	1	96
NMTAP	53	240	0
NMTAP	53	288	7
NMTAP	53	336	6
NMTAP	54	0	3
NMTAP	54	0	5
NMTAP	54	48	2
NMTAP	54	96	1
NMSTR	54	144	0
NMSUR	54	144	0	96	48	4
NMTAP	54	240	5
BRSTR	54	288	6
NMSI_	54	288	6	96	48	1
BRSTR	55	0	2
NMSI_	55	0	2	96	48	5
NMTAP	55	0	6
NMTAP	55	96	2
BRSTR	55	96	7
NMSI_	55	96	7	96	48	4
BRSTR	55	192	0
NMSI_	55	192	0	96	48	3
NMTAP	55	192	7
NMTAP	55	288	0
BRHLD	55	288	5	96
NMTAP	56	0	3
EXTAP	56	72	3
EXTAP	56	72	5
EXHLD	56	144	2	432
EXTAP	56	144	6
NMTAP	56	240	4
NMTAP	56	288	4
NMTAP	57	0	1
NMTAP	57	48	1
NMTAP	57	96	0
NMTAP	57	144	0
NMTAP	57	192	7
NMTAP	57	240	7
BRSTR	57	288	5
BRSI_	57	288	5	96	192	2
BRSTR	57	288	6
BRSI_	57	288	6	96	192	1
BRTAP	58	288	0
BRTAP	58	288	7
NMSTR	59	0	5
NMSCL	59	0	5	96	192	2
NMTAP	59	192	0
NMTAP	59	288	0
NMSTR	60	0	5
NMSCL	60	0	5	96	192	2
NMTTP	60	192	0	C	0	M1
NMTTP	60	288	4	E	0	M1
NMSTR	61	0	5
NMSCL	61	0	5	96	192	2
NMTAP	61	192	7
NMTAP	61	288	7
NMSTR	62	0	5
NMSCL	62	0	5	96	192	2
NMTTP	62	192	5	E	0	M1
NMTTP	62	288	4	E	0	M1
NMTTP	63	0	3	E	0	M1
NMTAP	63	144	2
NMTAP	63	168	3
NMHLD	63	192	1	96
NMTAP	63	336	5
NMTAP	63	360	4
NMHLD	64	0	6	96
NMTAP	64	144	2
NMTAP	64	168	3
NMHLD	64	192	1	96
NMTAP	64	336	5
NMTAP	64	360	4
BRTAP	65	0	5
NMTAP	65	48	2
NMTAP	65	72	3
BRTAP	65	96	2
NMTAP	65	144	6
NMTAP	65	168	4
BRTAP	65	192	5
NMTAP	65	240	1
NMTAP	65	264	3
BRTAP	65	288	2
NMTAP	65	336	6
NMTAP	65	360	4
BRTAP	66	0	5
NMTAP	66	48	1
NMTAP	66	72	3
BRTAP	66	96	2
NMTAP	66	144	5
NMTAP	66	168	4
BRTAP	66	192	7
NMTAP	66	240	2
NMTAP	66	264	3
BRTAP	66	288	0
NMTAP	66	336	5
NMTAP	66	360	4
BRTAP	67	0	7
BRTAP	67	352	5
BRTAP	68	0	4
BRTAP	68	32	3
BRTAP	68	64	2
NMTTP	76	120	4	E	1	M1
BRTAP	76	120	7
BRTAP	76	192	1
NMTTP	76	192	6	E	1	M1
NMTTP	76	264	2	E	1	M1
BRTAP	76	264	5
NMTTP	76	336	0	E	1	M1
BRHLD	76	336	3	240
BRTAP	77	192	7
BRSTR	77	288	6
NMSCL	77	288	6	96	48	3
NMTAP	77	336	6
NMSTR	78	0	7
NMSV_	78	0	7	96	48	2
NMTAP	78	48	7
NMSTR	78	96	6
NMSCL	78	96	6	96	48	3
NMTAP	78	144	6
NMSTR	78	192	7
NMSV_	78	192	7	96	48	2
NMTAP	78	240	7
NMSTR	78	288	6
NMSCL	78	288	6	96	48	3
NMTAP	78	336	6
NMTAP	79	0	0
NMTAP	79	48	0
BXTAP	79	96	1
BXSTR	79	96	2
NMSI_	79	96	2	96	48	4
CNSI_	79	240	4	0	48	1
CNSI_	79	288	1	0	48	5
CNSI_	79	336	5	0	48	0
CNSI_	80	0	0	0	48	6
EXTAP	80	96	3
EXTAP	80	144	3
BRSTR	80	192	4
NMSCL	80	192	4	96	48	1
BRSTR	80	192	5
NMSCR	80	192	5	96	48	0
BRSTR	81	0	2
NMSCL	81	0	2	96	48	7
BRSTR	81	0	3
NMSCR	81	0	3	96	48	6
BRSTR	81	192	6
NMSI_	81	192	6	96	48	1
BRSTR	81	288	0
NMSI_	81	288	0	96	48	5
BRSTR	82	0	4
NMSUL	82	0	4	96	96	3
BRHLD	82	96	2	192
NMTAP	82	288	4
NMTAP	82	336	4
NMTAP	83	0	1
NMTAP	83	0	5
NMTAP	83	48	1
NMTAP	83	48	5
NMTAP	83	96	0
NMTAP	83	96	6
NMTAP	83	192	1
NMTAP	83	216	7
NMTAP	83	240	1
NMTAP	83	264	7
NMTAP	83	288	0
NMTAP	83	312	6
NMTAP	83	336	0
NMTAP	83	360	6
NMTAP	84	0	1
NMTAP	84	24	7
NMTAP	84	48	1
NMTAP	84	72	7
NMTAP	84	96	0
NMTAP	84	120	6
NMTAP	84	144	0
NMTAP	84	168	6
NMTAP	84	192	1
NMTAP	84	216	7
NMTAP	84	240	1
NMTAP	84	264	7
BRTAP	84	288	0
NMTAP	84	312	5
NMTAP	84	336	0
NMTAP	84	360	5
BRTAP	85	0	2
NMTAP	85	24	7
NMTAP	85	48	2
NMTAP	85	72	7
BRTAP	85	96	0
NMTAP	85	120	5
NMTAP	85	144	0
NMTAP	85	168	5
BRTAP	85	192	2
NMTAP	85	216	7
NMTAP	85	240	2
NMHLD	85	264	7	600
BRHLD	85	288	2	576
BRTAP	87	192	0
BRTAP	87	192	1
NMTAP	87	240	2
NMTAP	87	288	3
NMTAP	87	288	4
NMTAP	87	336	5
NMSTR	88	0	6
NMSI_	88	0	6	96	48	2
NMSTR	88	0	7
NMSI_	88	0	7	96	48	3
BRTAP	88	96	6
BRTAP	88	96	7
NMTAP	88	192	1
NMTAP	88	240	1
BRSTR	88	288	7
NMSV_	88	288	7	96	48	2
NMSV_	88	288	7	96	48	4
BRSTR	89	96	1
BRSI_	89	96	1	96	48	5
BRSTR	89	96	7
BRSI_	89	96	7	96	48	3
NMSTR	89	288	4
NMSI_	89	288	4	96	48	6
NMTAP	89	336	4
NMSTR	90	0	3
NMSI_	90	0	3	96	48	1
NMTAP	90	48	3
NMSTR	90	96	4
NMSI_	90	96	4	96	48	7
NMTAP	90	144	4
NMSTR	90	192	3
NMSI_	90	192	3	96	48	0
NMTAP	90	240	3
NMSTR	90	288	4
NMSI_	90	288	4	96	48	6
NMTAP	90	336	4
NMSTR	91	0	3
NMSI_	91	0	3	96	48	1
NMTAP	91	48	3
NMSTR	91	96	4
NMSI_	91	96	4	96	48	7
NMTAP	91	144	4
NMTAP	91	192	3
NMTAP	91	240	3
BRSTR	91	288	2
NMSXL	91	288	2	96	192	5
BRSTR	91	288	6
NMSXL	91	288	6	96	192	1
EXTAP	92	288	1
EXTAP	92	288	4
EXTAP	92	336	1
EXTAP	92	336	4
NMSTR	93	0	2
BRSCL	93	0	2	96	48	7
NMSTR	93	0	3
BRSUL	93	0	3	96	48	6
BXTAP	93	192	6
BXTAP	93	192	7
BRSTR	93	288	6
NMSCL	93	288	6	96	48	3
NMTAP	93	336	6
NMSTR	94	0	7
NMSV_	94	0	7	96	48	2
NMTAP	94	48	7
NMSTR	94	96	6
NMSCL	94	96	6	96	48	3
NMTAP	94	144	6
NMSTR	94	192	7
NMSV_	94	192	7	96	48	2
NMTAP	94	240	7
NMSTR	94	288	6
NMSCL	94	288	6	96	48	3
NMTAP	94	336	6
NMTAP	95	0	0
NMTAP	95	48	0
BXTAP	95	96	1
BXTAP	95	96	2
NMSTR	95	192	0
BRSI_	95	192	0	96	48	2
NMSTR	95	240	7
BRSI_	95	240	7	96	48	3
NMSTR	95	288	0
BRSI_	95	288	0	96	48	4
NMSTR	95	336	7
BRSI_	95	336	7	96	48	5
NMSTR	96	0	0
BRSCR	96	0	0	96	48	3
NMSTR	96	48	7
BRSCL	96	48	7	96	48	4
BRTAP	96	192	0
BRTAP	96	240	0
BRTAP	96	288	0
BRTAP	96	288	7
BRTAP	96	336	0
BRTAP	96	336	7
BRTAP	97	0	1
BRTAP	97	0	6
BRSTR	97	48	2
BRSCL	97	48	2	96	48	0
BRSTR	97	48	5
BRSCR	97	48	5	96	48	7
BRTAP	97	96	3
BRTAP	97	96	4
BRTAP	97	288	5
BRTAP	97	336	4
BRTAP	98	0	4
BRTAP	98	48	2
NMSTR	98	96	4
BRSCR	98	96	4	96	48	7
BRTAP	98	192	0
BRSTR	98	288	0
NMSI_	98	288	0	96	48	3
BRSTR	98	288	1
NMSI_	98	288	1	96	48	3
BRTAP	99	0	0
BRTAP	99	0	1
NMTTP	99	96	4	B	0	M1
NMTTP	99	96	4	E	0	M1
NMTTP	99	96	4	A	0	M1
NMTTP	99	96	4	D	0	M1
NMTTP	99	96	5	B	0	M1
NMTTP	99	96	5	E	1	M1
NMTTP	99	96	5	A	0	M1
NMTTP	99	96	5	D	0	M1
NMTTP	99	96	6	E	0	M1
NMTTP	99	96	6	D	0	M1
NMHLD	99	192	0	24
NMHLD	99	192	6	24
NMHLD	99	240	0	24
NMHLD	99	240	6	24
NMHLD	99	288	1	24
NMHLD	99	288	7	24
NMHLD	99	336	1	24
NMHLD	99	336	7	24
NMHLD	100	0	0	24
NMHLD	100	0	6	24
NMHLD	100	48	0	24
NMHLD	100	48	6	24
NMHLD	100	96	1	24
NMHLD	100	96	5	24
NMHLD	100	144	1	24
NMHLD	100	144	5	24
NMHLD	100	192	2	24
NMHLD	100	192	6	24
NMHLD	100	240	2	24
NMHLD	100	240	6	24
BXHLD	100	288	3	24
BXHLD	100	288	5	24
BXHLD	100	336	3	24
BXHLD	100	336	5	24
BXHLD	101	0	2	24
BXHLD	101	0	4	24
BXHLD	101	48	2	24
BXHLD	101	48	4	24
BXHLD	101	96	3	24
BXHLD	101	96	5	24
BXHLD	101	144	2	24
BXHLD	101	144	4	24
BRSTR	101	192	3
BRSCL	101	192	3	96	288	4
BRTAP	101	192	5
BRTAP	101	240	2
BRTAP	101	240	4
NMTTP	101	288	0	C	1	M1
NMTAP	102	288	2
NMTAP	102	336	0
NMTAP	103	0	7
NMHLD	103	48	5	96
NMTAP	103	144	7
NMTAP	103	192	0
NMHLD	103	240	2	96
NMTAP	103	336	0
NMTAP	104	0	7
NMHLD	104	48	5	96
NMTAP	104	144	7
NMTAP	104	192	0
NMTAP	104	240	1
NMTAP	104	288	2
NMTAP	104	288	4
NMTAP	104	336	5
NMTAP	105	0	6
NMSTR	105	48	7
NMSUL	105	48	7	96	48	3
NMTAP	105	144	2
BRSTR	105	192	1
BRSI_	105	192	1	96	48	6
BRTAP	105	288	1
BRSTR	105	288	5
BRSI_	105	288	5	96	48	2
BRSTR	106	0	0
BRSI_	106	0	0	96	48	3
BRTAP	106	0	5
BRTAP	106	96	0
BRSTR	106	96	7
BRSI_	106	96	7	96	48	4
BRSTR	106	192	2
NMSXR	106	192	2	96	144	7
BRTAP	106	192	7
NMTAP	106	288	3
NMTAP	106	336	3
NMTAP	107	0	4
NMTAP	107	48	4
NMTAP	107	144	6
NMTAP	107	144	7
NMSTR	107	192	6
BRSCL	107	192	6	96	48	3
NMSTR	107	192	7
BRSUL	107	192	7	96	48	2
NMSTR	108	0	0
BRSUR	108	0	0	96	48	5
NMSTR	108	0	1
BRSCR	108	0	1	96	48	4
NMSTR	108	192	6
BRSCL	108	192	6	96	96	0
NMSTR	108	192	7
BRSUL	108	192	7	96	96	0
BRTAP	109	96	0
NMTAP	109	108	1
NMTAP	109	120	2
NMTAP	109	132	3
NMTAP	109	144	4
NMTAP	109	156	5
NMTAP	109	168	6
NMTAP	109	180	7
NMTAP	109	192	0
NMTAP	109	204	1
NMTAP	109	216	2
NMTAP	109	228	3
NMTAP	109	240	4
NMTAP	109	252	5
NMTAP	109	264	6
NMTAP	109	276	7
BRTAP	109	288	0
NMTTP	109	288	0	C	1	M1

T_REC_TAP	251
T_REC_BRK	105
T_REC_XTP	12
T_REC_BXX	19
T_REC_HLD	50
T_REC_XHO	1
T_REC_BHO	11
T_REC_BXH	12
T_REC_STR	81
T_REC_BST	43
T_REC_XST	1
T_REC_XBS	3
T_REC_TTP	83
T_REC_THO	2
T_REC_SLD	83
T_REC_BSL	49
T_REC_ALL	806
T_NUM_TAP	428
T_NUM_BRK	242
T_NUM_HLD	53
T_NUM_SLD	83
T_NUM_ALL	806
T_JUDGE_TAP	598
T_JUDGE_HLD	215
T_JUDGE_SLD	132
T_JUDGE_ALL	945
TTM_EACHPAIRS	114
TTM_SCR_TAP	214000
TTM_SCR_BRK	629200
TTM_SCR_HLD	53000
TTM_SCR_SLD	124500
TTM_SCR_ALL	1020700
TTM_SCR_S	966650
TTM_SCR_SS	996500
TTM_RAT_ACV	10242

