VERSION	0.00.00	1.04.00
FES_MODE	0
BPM_DEF	180.000	180.000	180.000	180.000
MET_DEF	4	4
RESOLUTION	384
CLK_DEF	384
COMPATIBLE_CODE	MA2

BPM	0	0	180.000
MET	0	0	4	4
MET	76	0	4	3
MET	76	288	4	4

EXHLD	3	192	2	576
EXHLD	3	192	5	576
EXTAP	5	96	3
EXTAP	5	96	4
EXHLD	5	192	2	192
EXHLD	5	192	5	192
BXSTR	6	120	3
BRSF_	6	120	3	96	192	7
BXTAP	6	120	4
NMTAP	8	0	5
NMHLD	8	96	5	96
NMTAP	8	192	4
NMTAP	8	288	3
NMTAP	9	0	2
NMHLD	9	96	2	96
NMTAP	9	192	3
NMTAP	9	288	4
NMTAP	10	0	3
NMTAP	10	0	5
NMTAP	10	96	6
NMTAP	10	192	7
NMTAP	10	288	1
NMTAP	11	0	2
NMTAP	11	0	4
NMTAP	11	96	1
NMTAP	11	192	7
NMTAP	11	288	6
NMTAP	12	0	3
NMHLD	12	0	5	96
NMTAP	12	96	4
NMHLD	12	192	2	96
NMTAP	12	192	4
NMTAP	12	288	3
NMTAP	13	0	3
NMSTR	13	0	4
NMSCR	13	0	4	96	96	7
EXTAP	13	288	0
NMHLD	14	0	1	96
NMHLD	14	0	7	96
NMTAP	14	192	0
NMSTR	14	288	6
BRSF_	14	288	6	96	192	2
NMTAP	14	288	7
BXHLD	16	0	1	96
BXHLD	16	0	3	96
NMTAP	16	192	2
NMTAP	16	240	2
NMTAP	16	288	3
BXHLD	17	0	4	96
BXHLD	17	0	6	96
NMTAP	17	192	5
NMTAP	17	240	5
NMTAP	17	288	4
BXHLD	18	0	1	96
BXHLD	18	0	4	96
NMTAP	18	192	2
NMTAP	18	240	2
NMTAP	18	288	3
BXTAP	19	0	3
BXTAP	19	0	4
NMTAP	19	96	4
NMTAP	19	96	5
BXTAP	19	192	3
BXTAP	19	192	6
NMTAP	20	0	0
NMTAP	20	0	1
NMTAP	20	96	2
NMTAP	20	144	2
NMTAP	20	192	3
NMTAP	20	288	4
NMTAP	20	288	5
NMTAP	21	0	6
NMTAP	21	0	7
NMTAP	21	96	5
NMTAP	21	144	5
NMTAP	21	192	4
NMSTR	21	288	2
NMSI_	21	288	2	96	96	7
NMSTR	21	288	3
NMSI_	21	288	3	96	96	6
BRTAP	22	288	0
BRTAP	22	336	0
BRTAP	23	0	7
BRTAP	23	96	1
BRTAP	23	96	6
BRTAP	23	192	2
BRTAP	23	192	5
NMSTR	24	0	5
NMSCL	24	0	5	96	144	2
NMTAP	24	192	1
NMTAP	24	288	1
NMSTR	25	0	2
NMSCR	25	0	2	96	144	5
NMTAP	25	192	6
NMTAP	25	288	6
NMSTR	26	0	5
NMSCL	26	0	5	96	144	2
NMTAP	26	192	0
NMTAP	26	288	0
NMSTR	27	0	1
NMSI_	27	0	1	96	144	5
NMSTR	27	0	7
NMSI_	27	0	7	96	144	3
EXHLD	28	0	2	96
EXHLD	28	0	4	96
EXHLD	28	192	3	96
EXHLD	28	192	5	96
NMTAP	29	0	3
NMTAP	29	0	4
NMTAP	29	96	2
NMTAP	29	96	3
NMTAP	29	192	3
NMTAP	29	192	4
NMTAP	29	288	4
NMTAP	29	288	5
BXHLD	30	0	3	288
BXHLD	30	0	4	288
BXTAP	31	0	3
NMTAP	31	48	3
BXTAP	31	96	5
NMTAP	31	144	5
BXTAP	31	192	1
NMTAP	31	240	1
BXTAP	31	288	6
BXSTR	32	0	0
BRSCR	32	0	0	96	672	7
BXSTR	32	0	7
BRSCL	32	0	7	96	672	0
EXTAP	34	192	1
EXTAP	34	192	6
EXTAP	34	288	3
EXTAP	34	288	4
NMTAP	35	0	6
NMTAP	35	0	7
NMTAP	35	96	2
NMTAP	35	96	5
NMTAP	35	192	0
NMTAP	35	192	1
NMTAP	35	288	2
NMTAP	35	288	5
EXTAP	36	0	7
EXTAP	36	48	7
EXTAP	36	96	7
EXTAP	36	192	0
EXTAP	36	192	6
NMTAP	36	288	2
NMTAP	36	288	3
NMTAP	37	0	4
NMTAP	37	0	5
NMTAP	37	96	6
NMTAP	37	96	7
NMTAP	37	192	0
NMTAP	37	192	1
NMSTR	37	288	2
NMSSR	37	288	2	96	216	6
NMTAP	37	288	3
EXTAP	38	288	7
EXSTR	39	0	7
NMSCL	39	0	7	96	96	4
NMSTR	39	192	2
NMSCL	39	192	2	96	96	7
NMSTR	40	0	6
NMSI_	40	0	6	96	96	2
NMTAP	40	192	0
NMTAP	40	288	0
NMHLD	41	0	6	96
NMTAP	41	0	7
NMHLD	41	96	4	96
NMHLD	41	192	3	96
NMTAP	41	288	1
NMTAP	42	0	2
NMTAP	42	0	4
NMTAP	42	96	3
NMTAP	42	96	5
NMHLD	42	192	2	96
NMHLD	42	192	6	96
NMTAP	43	0	0
NMTAP	43	0	7
NMTAP	43	96	2
NMTAP	43	96	3
NMTAP	43	192	0
NMTAP	43	192	7
NMTAP	43	288	4
NMTAP	43	288	5
BRTAP	44	0	0
BRTAP	44	0	1
BRTAP	44	48	0
BRTAP	44	48	1
BRTAP	44	96	0
BRTAP	44	96	1
BRTAP	44	192	2
BRTAP	44	192	7
NMTAP	44	288	2
NMTAP	44	288	7
BXTAP	45	0	4
BXTAP	45	0	5
BXTAP	45	96	4
BXTAP	45	96	5
BXTAP	45	192	6
BXTAP	45	192	7
BXTAP	45	288	6
BXTAP	45	288	7
BXTAP	46	0	0
BXTAP	46	0	1
BXTAP	46	96	0
BXTAP	46	96	1
BXTAP	46	192	2
BXTAP	46	192	3
BXSTR	46	288	2
BRSI_	46	288	2	96	96	6
BXTAP	46	288	3
NMSTR	47	96	5
BRSI_	47	96	5	96	96	1
NMSTR	47	288	2
BRSCL	47	288	2	96	144	5
BRSUL	47	288	2	96	144	5
EXTAP	48	288	4
EXTAP	48	288	5
BXTAP	49	0	2
BXTAP	49	0	7
BXTAP	49	96	0
BXTAP	49	96	5
BXTAP	49	192	3
BXTAP	49	192	6
BXTAP	49	288	1
BXTAP	49	288	4
BXTAP	50	0	6
BXTAP	50	0	7
BXTAP	50	96	3
BXTAP	50	96	4
BXTAP	50	192	0
BXTAP	50	192	1
BXSTR	50	288	3
BRSXR	50	288	3	96	576	0
BXSTR	50	288	4
BRSXL	50	288	4	96	576	7
NMHLD	53	0	2	96
NMHLD	53	96	3	96
NMHLD	53	192	4	96
NMTAP	53	288	5
NMHLD	54	0	6	96
NMHLD	54	96	4	96
NMHLD	54	192	3	96
NMTAP	54	288	2
NMTAP	55	0	1
NMTAP	55	0	7
NMTAP	55	96	1
NMTAP	55	96	7
NMTAP	55	192	0
NMTAP	55	192	6
NMTAP	55	288	1
NMTAP	55	288	5
NMTAP	56	0	2
NMSTR	56	0	4
NMSCR	56	0	4	96	96	7
EXTAP	56	288	0
NMHLD	57	0	1	96
NMHLD	57	0	7	96
NMTAP	57	192	0
NMSTR	57	288	6
BRSF_	57	288	6	96	192	2
NMTAP	57	288	7
EXSTR	59	0	2
NMSCR	59	0	2	96	144	5
NMTAP	59	192	6
NMTAP	59	288	6
NMSTR	60	0	5
NMSCL	60	0	5	96	144	2
NMTAP	60	192	1
NMTAP	60	288	1
NMSTR	61	0	2
NMSCR	61	0	2	96	144	5
NMTAP	61	192	6
NMTAP	61	288	6
BXTAP	62	0	7
BXTAP	62	96	7
BXTAP	62	192	0
BXTAP	62	192	6
BXTAP	62	288	1
BXTAP	62	288	5
NMHLD	63	0	2	96
NMHLD	63	0	4	96
NMHLD	63	192	3	96
NMHLD	63	192	5	96
NMTAP	64	0	2
NMTAP	64	0	4
NMTAP	64	96	2
NMTAP	64	96	4
NMTAP	64	192	3
NMTAP	64	192	5
NMTAP	64	288	3
NMTAP	64	288	5
BXHLD	65	0	3	288
BXHLD	65	0	4	288
BXTAP	66	0	4
EXTAP	66	48	4
BXTAP	66	96	2
EXTAP	66	144	2
BXTAP	66	192	6
EXTAP	66	240	6
BXTAP	66	288	0
BXTAP	66	288	7
BXHLD	67	0	1	360
BXHLD	67	0	6	360
BRTAP	76	144	0
BXTAP	77	192	3
BXTAP	77	192	4
BXTAP	77	288	0
BXTAP	77	288	1
NMTAP	78	0	3
NMTAP	78	0	4
NMTAP	78	96	6
NMTAP	78	96	7
NMTAP	78	192	3
NMTAP	78	192	4
EXTAP	78	288	0
EXTAP	78	336	0
EXTAP	79	0	0
BRTAP	79	96	1
BRTAP	79	96	7
NMTAP	79	192	4
NMTAP	79	192	5
NMTAP	79	288	2
NMTAP	79	288	3
NMTAP	80	0	0
NMTAP	80	0	1
NMTAP	80	96	6
NMTAP	80	96	7
NMSTR	80	192	6
NMSSR	80	192	6	96	216	2
NMTAP	80	192	7
EXTAP	81	192	0
NMTAP	81	288	1
NMTAP	81	288	3
NMTAP	82	0	3
NMTAP	82	0	4
NMTAP	82	96	4
NMTAP	82	96	6
NMSTR	82	192	0
NMSCR	82	192	0	96	96	3
NMSTR	82	192	7
NMSCL	82	192	7	96	96	4
EXTAP	83	96	3
EXTAP	83	96	5
EXTAP	83	192	2
EXTAP	83	192	4
NMHLD	83	288	1	96
NMHLD	84	0	3	96
NMHLD	84	96	4	96
NMTAP	84	192	6
NMHLD	84	288	5	96
NMHLD	85	0	7	96
NMHLD	85	96	0	96
NMTAP	85	192	2
NMTAP	85	288	0
NMTAP	85	288	7
NMTAP	86	0	4
NMTAP	86	0	5
NMTAP	86	96	0
NMTAP	86	96	7
NMSTR	86	192	2
NMSI_	86	192	2	96	96	6
NMSTR	86	192	4
NMSI_	86	192	4	96	96	0
BXTAP	87	96	7
NMTAP	87	192	7
NMTAP	87	288	0
NMTAP	87	288	6
NMTAP	88	0	2
NMTAP	88	0	3
NMTAP	88	96	4
NMTAP	88	96	5
NMTAP	88	192	1
NMTAP	88	192	7
NMTAP	88	288	4
NMTAP	88	288	5
NMTAP	89	0	1
NMTAP	89	0	3
NMTAP	89	96	0
NMTAP	89	96	7
NMSTR	89	192	1
BRSI_	89	192	1	96	96	5
NMTAP	89	192	6
NMSTR	90	0	7
BRSI_	90	0	7	96	96	3
NMSTR	90	192	2
BRSSR	90	192	2	96	192	6
BXTAP	91	96	7
EXTAP	91	192	7
NMHLD	91	288	6	96
NMHLD	92	0	4	96
NMHLD	92	96	2	96
NMHLD	92	192	0	96
NMTAP	92	288	7
NMTAP	93	0	0
NMTAP	93	0	7
NMTAP	93	96	1
NMTAP	93	96	6
BRTAP	93	192	3
BRTAP	93	192	4
BRTAP	93	288	5
BRTAP	93	288	7
NMTAP	94	0	2
NMTAP	94	0	3
NMTAP	94	96	1
NMTAP	94	96	7
NMTAP	94	192	4
NMTAP	94	192	5
BRTAP	94	288	1
BRTAP	94	288	3
NMTAP	95	0	6
NMTAP	95	0	7
NMTAP	95	96	0
NMTAP	95	96	4
NMTAP	95	192	2
NMTAP	95	192	6
BRTAP	95	288	1
BRTAP	95	288	3
BRTAP	96	0	5
BRTAP	96	0	7
BRTAP	96	96	0
BRTAP	96	96	2
BRTAP	96	192	4
BRTAP	96	192	6
BRTAP	96	288	1
BRTAP	96	288	3
BRTAP	97	0	5
BRTAP	97	0	7
BRTAP	97	96	0
BRTAP	97	96	2
BRTAP	97	192	3
BRTAP	97	192	4
NMSTR	97	288	6
NMSI_	97	288	6	96	48	2
NMSTR	97	288	7
NMSI_	97	288	7	96	48	3
NMSTR	98	96	0
NMSI_	98	96	0	96	48	4
NMSTR	98	96	1
NMSI_	98	96	1	96	48	5
NMSTR	98	288	6
NMSI_	98	288	6	96	48	2
NMSTR	98	288	7
NMSI_	98	288	7	96	48	3
BXTAP	99	96	1
BXTAP	99	96	4
EXTAP	99	192	1
EXTAP	99	192	4
BXTAP	99	288	2
BXTAP	99	288	7
BXTAP	100	0	0
BXTAP	100	0	5
BXTAP	100	96	4
BXTAP	100	96	6
BXTAP	100	192	1
BXTAP	100	192	3
BXTAP	100	288	5
BXTAP	100	288	7
BXTAP	101	0	1
BXTAP	101	0	2
BXTAP	101	96	4
BXTAP	101	96	6
BXSTR	101	192	3
BRSXR	101	192	3	96	576	0
BXSTR	101	192	4
BRSXL	101	192	4	96	576	7
NMHLD	103	288	1	96
NMHLD	104	0	3	96
NMHLD	104	96	4	96
NMTAP	104	192	6
NMHLD	104	288	6	96
NMHLD	105	0	4	96
NMHLD	105	96	3	96
NMTAP	105	192	2
NMTAP	105	288	2
NMTAP	105	288	3
NMTAP	106	0	0
NMTAP	106	0	6
NMTAP	106	96	4
NMTAP	106	96	5
NMSTR	106	192	0
NMSCR	106	192	0	96	96	3
NMSTR	106	192	7
NMSCL	106	192	7	96	96	4
NMTAP	107	96	2
NMTAP	107	96	5
NMTAP	107	192	2
NMTAP	107	192	5
BXTAP	107	288	3
NMTAP	107	336	3
BXTAP	108	0	5
NMTAP	108	48	5
BXTAP	108	96	1
NMTAP	108	144	1
BXTAP	108	192	6
NMTAP	108	240	6
BXTAP	108	288	0
BXTAP	108	312	7
BXTAP	108	336	0
BXTAP	108	360	7
BXTAP	109	0	0
BXTAP	109	24	7
BXTAP	109	48	0
BXTAP	109	72	7
BXTAP	109	96	0
BXTAP	109	120	7
BXTAP	109	144	0
BXTAP	109	168	7
BXTAP	109	192	0
NMTTP	109	288	0	B	0	M1
NMTTP	109	288	0	C	1	M1
NMTTP	109	288	1	B	0	M1
NMTTP	109	288	2	B	0	M1
NMTTP	109	288	3	B	0	M1
NMTTP	109	288	4	B	0	M1
NMTTP	109	288	5	B	0	M1
NMTTP	109	288	6	B	0	M1
NMTTP	109	288	7	B	0	M1

T_REC_TAP	203
T_REC_BRK	40
T_REC_XTP	30
T_REC_BXX	88
T_REC_HLD	39
T_REC_XHO	8
T_REC_BHO	0
T_REC_BXH	12
T_REC_STR	34
T_REC_BST	0
T_REC_XST	2
T_REC_XBS	8
T_REC_TTP	9
T_REC_THO	0
T_REC_SLD	29
T_REC_BSL	16
T_REC_ALL	518
T_NUM_TAP	278
T_NUM_BRK	164
T_NUM_HLD	47
T_NUM_SLD	29
T_NUM_ALL	518
T_JUDGE_TAP	414
T_JUDGE_HLD	170
T_JUDGE_SLD	45
T_JUDGE_ALL	629
TTM_EACHPAIRS	159
TTM_SCR_TAP	139000
TTM_SCR_BRK	426400
TTM_SCR_HLD	47000
TTM_SCR_SLD	43500
TTM_SCR_ALL	655900
TTM_SCR_S	620350
TTM_SCR_SS	639500
TTM_RAT_ACV	10256

