VERSION	0.00.00	1.04.00
FES_MODE	0
BPM_DEF	120.000	120.000	120.000	120.000
MET_DEF	4	4
RESOLUTION	384
CLK_DEF	384
COMPATIBLE_CODE	MA2

BPM	0	0	120.000
MET	0	0	4	4

BRSTR	1	192	3
NMSI_	1	192	3	96	48	0
BRSTR	1	192	4
NMSI_	1	192	4	96	48	7
NMTAP	2	0	2
NMSTR	2	0	5
NMSCR	2	0	5	96	72	0
NMTAP	2	96	1
NMTAP	2	144	1
NMSTR	2	192	2
NMSI_	2	192	2	96	48	7
NMTAP	2	288	0
NMTAP	3	0	4
NMTAP	3	0	6
NMTAP	3	48	3
NMTAP	3	48	5
NMTAP	3	96	2
NMTAP	3	120	3
NMTAP	3	168	3
NMTAP	3	192	1
NMTAP	3	240	0
NMTAP	3	240	3
NMTAP	3	288	1
NMTAP	3	312	1
NMTAP	3	336	4
NMSTR	4	0	2
NMSCL	4	0	2	96	72	7
NMTAP	4	0	6
NMTAP	4	96	4
NMSTR	4	192	5
NMSI_	4	192	5	96	48	0
NMTAP	4	240	5
NMTAP	4	288	7
NMTAP	5	0	2
NMTAP	5	24	3
NMTAP	5	72	3
NMTAP	5	96	4
NMTAP	5	144	4
NMTAP	5	168	5
NMTAP	5	216	0
NMTAP	5	240	1
NMTAP	5	264	2
NMTAP	5	288	3
NMTAP	5	312	4
NMTAP	5	336	5
NMTAP	5	360	6
NMSTR	6	0	7
NMSI_	6	0	7	96	48	3
NMTAP	6	96	1
NMTAP	6	144	1
NMSTR	6	192	6
NMSCR	6	192	6	96	48	1
NMTAP	6	288	3
NMTAP	7	0	2
NMTAP	7	0	4
NMTAP	7	48	5
NMTAP	7	72	3
NMTAP	7	120	4
NMTAP	7	120	6
NMTAP	7	168	4
NMTAP	7	168	6
NMTAP	7	216	3
NMTAP	7	240	4
NMTAP	7	288	2
NMTAP	7	312	2
NMTAP	7	336	4
NMTAP	8	0	3
NMSTR	8	0	5
NMSI_	8	0	5	96	48	1
NMTAP	8	96	7
NMTAP	8	192	0
NMTAP	8	216	6
NMSTR	8	240	0
NMSI_	8	240	0	96	48	4
NMTAP	8	264	6
NMTAP	8	288	0
BRTAP	8	336	7
NMTAP	9	48	0
NMTAP	9	48	1
NMTAP	9	96	2
NMTAP	9	96	3
NMTAP	9	144	4
NMTAP	9	144	5
NMSTR	9	192	0
NMSI_	9	192	0	96	48	4
NMSTR	9	192	7
NMSI_	9	192	7	96	48	3
BRTAP	9	288	0
BRTAP	9	288	7
NMTAP	10	0	2
NMHLD	10	0	5	288
NMTTP	10	96	4	B	0	M1
NMTTP	10	96	4	E	0	M1
NMTTP	10	288	4	B	0	M1
NMTTP	10	288	4	E	0	M1
NMHLD	11	0	2	72
NMHLD	11	72	3	72
NMHLD	11	144	4	144
NMTAP	11	240	3
NMTAP	11	288	3
NMTAP	12	0	3
NMHLD	12	0	5	288
NMTTP	12	96	4	B	0	M1
NMTTP	12	96	4	E	0	M1
NMTTP	12	288	4	B	0	M1
NMTTP	12	288	4	E	0	M1
NMHLD	13	0	2	72
NMHLD	13	72	3	72
NMHLD	13	144	4	96
NMTAP	13	240	3
NMTAP	13	288	3
NMTAP	13	288	4
NMHLD	14	0	2	288
NMTAP	14	0	4
NMTTP	14	96	3	B	0	M1
NMTTP	14	96	4	E	0	M1
NMTTP	14	288	3	B	0	M1
NMTTP	14	288	4	E	0	M1
NMHLD	15	0	5	72
NMHLD	15	72	4	72
NMHLD	15	144	3	144
NMTAP	15	240	4
NMTAP	15	288	4
NMHLD	16	0	2	288
NMTAP	16	0	4
NMTTP	16	96	3	B	0	M1
NMTTP	16	96	4	E	0	M1
NMTTP	16	288	3	B	0	M1
NMTTP	16	288	4	E	0	M1
NMTAP	17	0	1
NMTAP	17	0	5
NMTAP	17	240	4
NMTAP	17	264	3
NMTAP	17	288	2
NMTAP	17	288	4
NMTAP	18	0	3
NMSTR	18	0	5
NMSI_	18	0	5	96	48	3
NMTAP	18	48	2
NMTAP	18	96	1
NMTAP	18	144	0
NMTAP	18	168	0
NMTAP	18	192	3
NMTAP	18	240	1
NMTAP	18	288	2
NMTAP	18	288	4
NMTAP	18	336	3
NMSTR	19	0	3
NMSI_	19	0	3	96	48	5
NMTAP	19	0	5
NMTAP	19	48	6
NMTAP	19	96	7
NMTAP	19	144	0
NMTAP	19	168	0
NMTAP	19	192	4
NMTAP	19	240	7
NMTAP	19	288	3
NMTAP	19	288	6
NMTAP	19	336	5
NMTAP	20	0	1
NMSTR	20	0	4
NMSI_	20	0	4	96	48	6
NMTAP	20	48	4
NMTAP	20	96	0
NMTAP	20	144	0
NMSTR	20	192	3
NMSI_	20	192	3	96	48	1
NMTAP	20	240	3
NMTAP	20	288	7
NMTAP	20	336	7
NMSTR	21	0	6
NMSCL	21	0	6	96	48	4
NMTAP	21	48	6
NMSTR	21	96	1
NMSCR	21	96	1	96	48	3
NMTAP	21	144	1
NMTAP	21	192	6
NMTAP	21	240	6
NMTAP	21	288	1
NMTAP	21	288	5
NMSTR	22	0	2
NMSI_	22	0	2	96	48	4
NMTAP	22	0	4
NMTAP	22	48	5
NMTAP	22	96	6
NMTAP	22	144	7
NMTAP	22	168	7
NMTAP	22	192	4
NMTAP	22	240	6
NMTAP	22	288	3
NMTAP	22	288	5
NMTAP	22	336	4
NMTAP	23	0	2
NMSTR	23	0	4
NMSI_	23	0	4	96	48	2
NMTAP	23	48	1
NMTAP	23	96	0
NMTAP	23	144	7
NMTAP	23	168	7
NMTAP	23	192	3
NMTAP	23	240	0
NMTAP	23	288	1
NMTAP	23	288	5
NMTAP	23	336	2
NMSTR	24	0	3
NMSI_	24	0	3	96	48	1
NMSTR	24	0	7
NMSI_	24	0	7	96	48	5
NMTAP	24	48	3
NMTAP	24	48	7
NMSTR	24	192	0
NMSI_	24	192	0	96	48	4
NMTAP	24	192	4
NMTAP	24	240	0
NMTAP	24	240	4
NMHLD	25	0	5	48
NMHLD	25	96	5	48
NMHLD	25	192	5	48
NMSTR	25	288	0
NMSCR	25	288	0	96	288	7
BRTAP	25	288	7
NMTTP	26	0	0	C	0	M1
NMSTR	26	288	1
NMSCR	26	288	1	96	288	6
NMTTP	27	0	0	C	0	M1
NMSTR	27	288	2
NMSCR	27	288	2	96	192	5
NMTTP	28	0	0	C	0	M1
NMSTR	28	288	1
NMSCR	28	288	1	96	288	6
NMTTP	29	0	0	C	0	M1
NMTAP	29	288	7
NMHLD	30	0	0	288
NMTAP	30	0	1
NMTAP	30	96	3
NMTAP	30	192	5
NMTAP	30	288	7
NMTAP	31	0	6
NMHLD	31	0	7	288
NMTAP	31	96	4
NMTAP	31	192	2
NMTAP	31	288	0
NMTAP	32	0	6
NMTAP	32	0	7
NMTAP	32	48	5
NMTAP	32	96	3
NMTAP	32	96	4
NMTAP	32	144	2
NMTAP	32	192	1
NMTAP	32	192	3
NMTAP	32	240	0
NMTAP	32	288	6
NMTAP	32	288	7
NMTAP	32	336	3
NMTAP	32	336	5
BRTAP	33	0	0
NMTTP	33	0	0	C	1	M1
NMTAP	33	240	0
NMTAP	33	240	7
NMTAP	33	288	0
NMTAP	33	288	7
NMSTR	34	0	6
NMSUL	34	0	6	96	48	2
NMTAP	34	24	7
NMTAP	34	72	7
NMTAP	34	96	6
NMTAP	34	144	0
NMSTR	34	192	1
NMSUR	34	192	1	96	48	5
NMTAP	34	216	7
NMTAP	34	264	7
NMTAP	34	288	1
NMTAP	34	336	0
NMTAP	35	0	7
NMTAP	35	48	5
NMTAP	35	96	1
NMHLD	35	96	3	144
NMTAP	35	144	7
NMSTR	35	192	6
NMSCL	35	192	6	96	48	3
NMHLD	35	240	7	144
NMHLD	36	0	4	144
NMSTR	36	96	5
NMSI_	36	96	5	96	48	0
NMHLD	36	144	1	144
NMTAP	36	288	7
NMTAP	36	336	6
NMTAP	37	0	0
NMHLD	37	0	4	144
NMSTR	37	96	5
NMSCR	37	96	5	96	96	3
NMHLD	37	144	1	144
NMSTR	38	0	6
NMSUL	38	0	6	96	48	2
NMTAP	38	24	7
NMTAP	38	72	7
NMTAP	38	96	6
NMTAP	38	144	0
NMSTR	38	192	1
NMSUR	38	192	1	96	48	5
NMTAP	38	216	7
NMTAP	38	264	7
NMTAP	38	288	1
NMTAP	38	336	0
NMTAP	39	0	7
NMTAP	39	48	5
NMTAP	39	96	1
NMHLD	39	96	3	144
NMTAP	39	144	7
NMSTR	39	192	6
NMSCL	39	192	6	96	48	3
NMHLD	39	240	7	144
NMTAP	40	0	6
NMTAP	40	48	6
NMTAP	40	72	7
NMTAP	40	120	7
NMTAP	40	144	6
NMTAP	40	192	2
NMTAP	40	216	3
NMTAP	40	264	3
NMSTR	40	288	2
NMSI_	40	288	2	96	48	5
NMTAP	40	336	4
NMTAP	41	0	6
NMTAP	41	48	7
NMTAP	41	96	7
NMTAP	41	144	3
NMTAP	41	168	5
NMTAP	41	192	2
NMTAP	41	216	4
NMTAP	41	288	2
NMTAP	41	288	5
NMTAP	41	336	3
NMTAP	41	336	4
NMSTR	42	0	0
NMSI_	42	0	0	96	48	4
NMSTR	42	0	7
NMSI_	42	0	7	96	48	3
BRTAP	42	96	0
BRTAP	42	96	7
NMSTR	42	192	5
NMSUR	42	192	5	96	48	1
NMTAP	42	216	3
NMTAP	42	264	3
NMTAP	42	288	5
NMTAP	42	336	4
NMTAP	43	0	3
NMTAP	43	48	1
NMHLD	43	96	0	144
NMTAP	43	96	5
NMTAP	43	144	3
NMSTR	43	192	2
NMSCL	43	192	2	96	48	7
NMHLD	43	240	3	144
NMHLD	44	0	0	144
NMSTR	44	96	1
NMSI_	44	96	1	96	48	4
NMHLD	44	144	7	144
NMTAP	44	288	2
NMTAP	44	336	1
NMHLD	45	0	0	144
NMTAP	45	0	4
NMSTR	45	96	1
NMSCR	45	96	1	96	72	6
NMHLD	45	144	7	144
NMSTR	46	0	5
NMSUR	46	0	5	96	48	1
NMTAP	46	24	4
NMTAP	46	72	4
NMTAP	46	96	5
NMTAP	46	144	3
NMSTR	46	192	2
NMSUL	46	192	2	96	48	6
NMTAP	46	216	4
NMTAP	46	264	4
NMTAP	46	288	2
NMTAP	46	336	3
NMTAP	47	0	4
NMTAP	47	48	6
NMTAP	47	96	2
NMHLD	47	96	7	144
NMTAP	47	144	4
NMSTR	47	192	5
NMSCR	47	192	5	96	48	0
NMHLD	47	240	4	144
NMSTR	48	0	7
NMSLR	48	0	7	96	96	3
NMSTR	48	96	3
NMSLR	48	96	3	96	96	7
EXHLD	48	192	0	48
EXHLD	48	264	0	48
BRTAP	48	336	0
NMTAP	49	48	0
NMTAP	49	48	7
NMSTR	49	96	1
NMSI_	49	96	1	96	48	4
NMSTR	49	96	6
NMSI_	49	96	6	96	48	3
NMTAP	49	144	2
NMTAP	49	144	5
BRTAP	49	288	1
BRTAP	49	288	6
NMTAP	50	0	2
NMTAP	50	0	4
NMTAP	50	48	5
NMTAP	50	72	4
NMTAP	50	96	6
NMTAP	50	144	6
NMTAP	50	168	4
NMTAP	50	192	5
NMTAP	50	240	2
NMTAP	50	264	3
NMTAP	50	288	1
NMTAP	50	336	1
NMTAP	50	360	3
NMTAP	51	0	2
NMTAP	51	48	5
NMTAP	51	72	4
NMTAP	51	96	6
NMTAP	51	144	6
NMTAP	51	192	3
NMTAP	51	216	5
NMTAP	51	240	2
NMTAP	51	264	4
NMTAP	51	312	0
NMTAP	51	336	7
NMTAP	52	0	1
NMTAP	52	0	4
NMTAP	52	48	2
NMTAP	52	72	3
NMTAP	52	120	3
NMTAP	52	144	2
NMHLD	52	192	1	48
NMHLD	52	192	4	48
NMTAP	52	288	3
NMSTR	52	288	6
NMSCL	52	288	6	96	48	4
NMTAP	52	336	6
NMSTR	53	0	1
NMSCR	53	0	1	96	48	3
NMTAP	53	48	1
NMSTR	53	96	7
NMSCL	53	96	7	96	48	5
NMTAP	53	144	7
NMSTR	53	192	0
NMSCR	53	192	0	96	48	2
NMTAP	53	240	0
BRTAP	53	288	7
NMTAP	54	0	3
NMTAP	54	0	5
NMTAP	54	48	2
NMTAP	54	72	3
NMTAP	54	96	1
NMTAP	54	144	1
NMTAP	54	168	3
NMTAP	54	192	2
NMTAP	54	240	5
NMTAP	54	264	4
NMTAP	54	288	6
NMTAP	54	336	6
NMTAP	54	360	4
NMTAP	55	0	5
NMTAP	55	48	2
NMTAP	55	72	3
NMTAP	55	96	1
NMTAP	55	144	1
NMTAP	55	192	4
NMTAP	55	216	2
NMTAP	55	240	5
NMTAP	55	264	3
NMTAP	55	312	7
NMTAP	55	336	0
NMTAP	56	0	3
NMTAP	56	0	6
NMTAP	56	48	5
NMTAP	56	72	4
NMTAP	56	120	4
NMTAP	56	144	5
NMTAP	56	192	3
NMTAP	56	192	6
NMTAP	56	240	1
NMSTR	56	240	4
NMSCR	56	240	4	96	144	3
NMTAP	56	288	0
BRTAP	56	336	0
NMTAP	57	192	2
NMTAP	57	192	5
NMTAP	57	240	2
NMTAP	57	240	5
NMTAP	57	288	3
NMTAP	57	312	3
NMTAP	57	336	4
NMTAP	57	360	4
NMTHO	58	0	0	192	C	1	M1
BRSTR	58	192	7
NMSI_	58	192	7	96	48	2
NMSI_	58	192	7	96	48	4
NMSTR	59	0	6
NMSCL	59	0	6	96	48	3
NMTAP	59	24	7
NMTAP	59	72	7
NMTAP	59	96	6
NMTAP	59	144	0
NMSTR	59	192	1
NMSCR	59	192	1	96	48	4
NMTAP	59	216	0
NMTAP	59	264	0
NMTAP	59	288	1
NMTAP	59	336	6
NMTAP	60	0	7
NMTAP	60	48	5
NMTAP	60	96	1
NMHLD	60	96	3	144
NMTAP	60	144	7
NMSTR	60	192	6
NMSI_	60	192	6	96	48	2
NMHLD	60	240	7	144
NMHLD	61	0	4	144
NMSTR	61	96	5
NMSXL	61	96	5	96	96	0
NMTAP	61	144	3
NMTAP	61	192	3
EXTAP	61	288	4
EXTAP	61	336	4
NMHLD	62	0	3	144
NMTAP	62	0	7
NMSTR	62	96	2
NMSXR	62	96	2	96	96	7
NMTAP	62	144	4
NMTAP	62	192	4
NMSTR	63	0	1
NMSCR	63	0	1	96	48	4
NMTAP	63	24	0
NMTAP	63	72	0
NMTAP	63	96	1
NMTAP	63	144	7
NMSTR	63	192	6
NMSCL	63	192	6	96	48	3
NMTAP	63	216	7
NMTAP	63	264	7
NMTAP	63	288	6
NMTAP	63	336	1
NMTAP	64	0	0
NMTAP	64	48	2
NMHLD	64	96	4	144
NMTAP	64	96	6
NMTAP	64	144	0
NMSTR	64	192	1
NMSI_	64	192	1	96	48	5
NMHLD	64	240	0	144
NMHLD	65	0	2	72
NMTAP	65	48	4
NMHLD	65	72	4	72
NMTAP	65	120	6
NMHLD	65	144	6	72
NMTAP	65	192	0
NMHLD	65	216	0	72
NMTAP	65	264	2
NMSTR	65	288	2
NMSI_	65	288	2	96	48	5
NMTAP	65	336	3
NMTAP	66	0	6
NMTAP	66	48	7
NMTAP	66	96	7
NMTAP	66	144	2
NMTAP	66	168	5
NMTAP	66	192	3
NMTAP	66	216	4
NMTAP	66	288	1
NMTAP	66	288	6
NMTAP	66	336	3
NMTAP	66	336	4
NMSTR	67	0	0
NMSI_	67	0	0	96	48	3
NMSTR	67	0	7
NMSI_	67	0	7	96	48	4
BRTAP	67	96	0
BRTAP	67	96	7
NMSTR	67	192	5
NMSCR	67	192	5	96	48	0
NMTAP	67	216	3
NMTAP	67	264	3
NMTAP	67	288	5
NMTAP	67	336	4
NMTAP	68	0	3
NMTAP	68	48	1
NMTAP	68	96	5
NMHLD	68	96	7	144
NMTAP	68	144	3
NMSTR	68	192	2
NMSI_	68	192	2	96	48	6
NMHLD	68	240	3	144
NMHLD	69	0	0	144
NMSTR	69	96	1
NMSXL	69	96	1	96	96	4
NMTAP	69	144	7
NMTAP	69	192	7
EXTAP	69	288	0
EXTAP	69	336	0
NMTAP	70	0	3
NMHLD	70	0	7	144
NMSTR	70	96	6
NMSXR	70	96	6	96	96	3
NMTAP	70	144	0
NMTAP	70	192	0
NMSTR	71	0	1
NMSCR	71	0	1	96	48	4
NMTAP	71	0	6
NMSTR	71	96	5
NMSCR	71	96	5	96	48	0
NMHLD	71	192	1	72
NMHLD	71	264	2	72
NMTAP	71	336	3
NMTAP	72	0	3
NMTAP	72	48	6
NMTAP	72	72	7
NMTAP	72	120	1
NMTAP	72	144	0
NMTAP	72	168	1
NMTAP	72	216	6
NMTAP	72	240	4
NMTAP	72	264	5
NMTAP	72	288	2
NMTAP	72	312	3
NMTAP	72	336	1
NMTAP	72	360	4
NMSTR	73	0	0
NMSLL	73	0	0	96	96	4
NMSTR	73	96	4
NMSLL	73	96	4	96	96	0
EXHLD	73	192	7	48
EXHLD	73	264	7	48
BRTAP	73	336	7
NMTAP	74	48	0
NMTAP	74	48	1
NMTAP	74	96	2
NMTAP	74	96	3
NMTAP	74	144	4
NMTAP	74	144	5
NMTAP	74	192	6
NMTAP	74	192	7
NMTAP	74	240	0
NMSTR	74	288	1
NMSI_	74	288	1	96	48	6
NMSTR	74	288	5
NMSI_	74	288	5	96	48	2
BRTAP	75	0	1
BRTAP	75	0	5

T_REC_TAP	396
T_REC_BRK	17
T_REC_XTP	4
T_REC_BXX	0
T_REC_HLD	52
T_REC_XHO	4
T_REC_BHO	0
T_REC_BXH	0
T_REC_STR	73
T_REC_BST	3
T_REC_XST	0
T_REC_XBS	0
T_REC_TTP	21
T_REC_THO	1
T_REC_SLD	77
T_REC_BSL	0
T_REC_ALL	648
T_NUM_TAP	494
T_NUM_BRK	20
T_NUM_HLD	57
T_NUM_SLD	77
T_NUM_ALL	648
T_JUDGE_TAP	514
T_JUDGE_HLD	159
T_JUDGE_SLD	77
T_JUDGE_ALL	750
TTM_EACHPAIRS	86
TTM_SCR_TAP	247000
TTM_SCR_BRK	52000
TTM_SCR_HLD	57000
TTM_SCR_SLD	115500
TTM_SCR_ALL	471500
TTM_SCR_S	455450
TTM_SCR_SS	469500
TTM_RAT_ACV	10042

