VERSION	0.00.00	1.04.00
FES_MODE	0
BPM_DEF	120.000	120.000	120.000	120.000
MET_DEF	4	4
RESOLUTION	384
CLK_DEF	384
COMPATIBLE_CODE	MA2

BPM	0	0	120.000
MET	0	0	4	4

EXSTR	1	192	1
NMSCR	1	192	1	96	48	4
EXTAP	1	192	7
EXTAP	1	240	1
EXTAP	1	240	7
NMHLD	2	0	6	96
NMTAP	2	96	4
NMTAP	2	192	5
NMTAP	2	240	5
NMTAP	2	288	4
NMHLD	3	0	1	96
NMTAP	3	96	3
NMTAP	3	192	2
NMTAP	3	240	2
NMTAP	3	288	3
NMTAP	4	0	4
NMHLD	4	0	5	96
NMSTR	4	96	6
NMSUL	4	96	6	96	96	2
NMHLD	5	0	2	96
NMTAP	5	0	3
NMSTR	5	96	1
NMSUR	5	96	1	96	96	5
NMHLD	6	0	4	96
NMTAP	6	0	6
NMHLD	6	96	3	96
NMTAP	6	192	1
NMTAP	6	240	1
NMTAP	6	288	0
NMTAP	7	0	6
NMTAP	7	48	6
NMTAP	7	96	7
NMTAP	7	192	0
NMTAP	7	240	0
NMTAP	7	288	7
NMTAP	8	0	4
NMTAP	8	0	6
NMTAP	8	96	1
NMTAP	8	96	3
NMTAP	8	192	5
NMTAP	8	240	5
NMTAP	8	288	3
NMHLD	8	336	3	96
NMTAP	9	48	4
NMTAP	9	96	4
NMTAP	9	144	3
NMTAP	9	144	5
NMSTR	9	192	2
NMSCL	9	192	2	96	48	7
NMTAP	9	192	6
NMHLD	10	0	5	96
NMHLD	10	144	5	96
NMTAP	10	288	4
NMTAP	10	288	5
NMHLD	11	0	6	72
NMHLD	11	72	5	72
NMTAP	11	144	4
NMTAP	11	240	4
NMTAP	11	288	3
NMTAP	11	288	5
NMHLD	12	0	2	96
NMHLD	12	144	2	96
NMTAP	12	288	2
NMTAP	12	288	3
NMHLD	13	0	1	72
NMHLD	13	72	2	72
NMTAP	13	144	3
NMTAP	13	240	3
NMTAP	13	288	2
NMTAP	13	288	4
NMHLD	14	0	5	96
NMHLD	14	144	5	96
NMTAP	14	288	4
NMTAP	14	288	6
NMHLD	15	0	6	72
NMHLD	15	72	5	72
NMTAP	15	144	4
NMTAP	15	240	4
NMTAP	15	288	3
NMTAP	15	288	5
NMHLD	16	0	2	96
NMHLD	16	144	2	96
NMTAP	16	288	1
NMTAP	16	288	3
NMTAP	17	0	4
NMTAP	17	0	5
NMTAP	17	72	3
NMTAP	17	72	4
NMTAP	17	144	2
NMTAP	17	144	3
NMTAP	17	240	0
NMTAP	17	288	1
NMTAP	17	288	7
NMTAP	18	0	2
NMTAP	18	48	3
NMTAP	18	96	1
NMTAP	18	96	4
NMTAP	18	192	5
NMTAP	18	240	4
NMTAP	18	288	3
NMTAP	18	288	6
NMTAP	19	0	2
NMTAP	19	48	2
NMTAP	19	96	4
NMTAP	19	144	3
NMSTR	19	192	5
NMSCL	19	192	5	96	48	2
NMHLD	20	0	1	72
NMHLD	20	72	2	72
NMTAP	20	144	3
NMHLD	20	192	6	72
NMHLD	20	264	5	72
NMTAP	20	336	4
NMTAP	21	0	2
NMTAP	21	48	2
NMTAP	21	96	4
NMTAP	21	144	3
NMSTR	21	192	5
NMSCL	21	192	5	96	48	2
NMTAP	22	0	1
NMTAP	22	48	0
NMTAP	22	96	2
NMTAP	22	96	7
NMTAP	22	192	6
NMTAP	22	240	7
NMTAP	22	288	0
NMTAP	22	288	5
NMTAP	23	0	4
NMTAP	23	48	4
NMTAP	23	96	3
NMTAP	23	144	5
NMSTR	23	192	2
NMSCR	23	192	2	96	48	5
NMHLD	24	0	6	72
NMHLD	24	72	5	72
NMTAP	24	144	4
NMHLD	24	192	1	72
NMHLD	24	264	2	72
NMTAP	24	336	3
NMTAP	25	0	3
NMTAP	25	96	2
NMTAP	25	96	4
NMTAP	25	192	1
NMTAP	25	192	5
NMTTP	25	288	0	C	1	M1
NMTTP	25	288	1	B	0	M1
NMTTP	25	288	5	B	0	M1
NMHLD	26	0	7	384
NMTTP	26	192	0	E	0	M1
NMTTP	26	288	2	E	0	M1
NMHLD	27	0	3	384
NMTTP	27	192	4	E	0	M1
NMTTP	27	288	6	E	0	M1
NMHLD	28	0	7	192
NMTAP	28	192	0
NMSTR	28	288	0
NMSXL	28	288	0	96	120	0
NMSTR	28	288	7
NMSXR	28	288	7	96	120	7
NMTAP	29	192	0
NMTAP	29	192	7
NMTAP	29	288	1
NMTAP	29	288	6
NMTTP	30	0	2	A	0	M1
NMTTP	30	96	3	A	0	M1
NMTTP	30	192	3	E	0	M1
NMTTP	30	288	4	E	0	M1
NMTTP	30	288	4	D	0	M1
NMTTP	31	0	5	A	0	M1
NMTTP	31	96	4	A	0	M1
NMTTP	31	192	5	E	0	M1
NMTTP	31	288	4	E	0	M1
NMTTP	31	288	4	D	0	M1
NMTAP	32	0	2
NMTAP	32	48	2
NMTAP	32	96	3
NMTAP	32	144	3
NMTAP	32	192	4
NMTAP	32	240	4
NMSTR	32	288	5
NMSXR	32	288	5	96	192	2
NMTAP	32	336	5
EXTAP	33	288	3
EXTAP	33	288	4
EXTAP	34	0	0
EXHLD	34	0	1	72
NMHLD	34	72	2	72
NMTAP	34	144	3
EXTAP	34	192	4
EXHLD	34	192	5	72
NMHLD	34	264	6	72
NMTAP	34	336	7
NMSTR	35	0	7
NMSI_	35	0	7	96	48	3
NMSTR	35	96	0
NMSI_	35	96	0	96	48	2
NMSTR	35	192	6
NMSI_	35	192	6	96	48	4
NMTAP	35	288	3
NMTAP	36	0	2
NMTAP	36	48	2
NMTAP	36	96	3
NMTAP	36	144	1
NMTAP	36	192	0
NMTAP	36	192	1
NMTAP	36	288	5
NMTAP	36	336	5
NMTAP	37	0	4
NMTAP	37	48	6
NMSTR	37	96	6
NMSCL	37	96	6	96	72	3
NMSTR	37	96	7
NMSCR	37	96	7	96	72	2
EXHLD	38	0	1	72
NMTAP	38	72	0
NMTAP	38	144	3
NMTAP	38	144	4
EXHLD	38	192	6	72
NMTAP	38	264	7
NMTAP	38	336	3
NMTAP	38	336	4
NMTAP	39	0	3
NMTAP	39	0	4
NMTAP	39	96	1
NMTAP	39	96	3
NMTAP	39	192	4
NMTAP	39	192	6
NMTAP	39	240	5
NMTAP	39	288	3
NMTAP	39	288	4
EXHLD	40	0	1	72
EXHLD	40	72	3	72
EXHLD	40	144	4	72
EXHLD	40	216	6	72
EXSTR	40	288	7
NMSCL	40	288	7	96	192	0
NMSTR	41	288	0
NMSI_	41	288	0	96	48	4
NMSTR	41	288	7
NMSI_	41	288	7	96	48	3
BXTAP	42	96	1
BXTAP	42	96	6
NMTAP	42	192	3
NMTAP	42	192	4
NMTAP	42	240	3
NMTAP	42	240	4
NMTAP	42	288	2
NMTAP	42	288	5
NMSTR	43	0	0
NMSI_	43	0	0	96	48	4
NMSTR	43	96	7
NMSI_	43	96	7	96	48	5
NMSTR	43	192	1
NMSI_	43	192	1	96	48	3
NMTAP	43	288	4
NMTAP	44	0	5
NMTAP	44	48	5
NMTAP	44	96	4
NMTAP	44	144	6
NMTAP	44	192	6
NMTAP	44	192	7
NMTAP	44	288	2
NMTAP	44	336	2
NMTAP	45	0	3
NMTAP	45	48	1
NMSTR	45	96	0
NMSCL	45	96	0	96	72	5
NMSTR	45	96	1
NMSCR	45	96	1	96	72	4
EXHLD	46	0	6	72
NMTAP	46	72	7
NMTAP	46	144	3
NMTAP	46	144	4
EXHLD	46	192	1	72
NMTAP	46	264	0
NMTAP	46	336	3
NMTAP	46	336	4
NMTAP	47	0	3
NMTAP	47	0	4
NMSTR	47	96	1
NMSCR	47	96	1	96	48	3
NMSTR	47	96	6
NMSCL	47	96	6	96	48	4
NMTAP	47	288	0
NMTAP	47	288	7
NMHLD	48	0	1	96
NMTAP	48	0	6
NMHLD	48	96	3	96
NMHLD	48	192	4	96
NMHLD	48	288	6	288
EXTAP	49	0	7
EXTAP	49	48	7
EXTAP	49	96	0
EXTAP	49	144	0
EXSTR	49	192	1
NMSI_	49	192	1	96	48	5
BRTAP	50	0	3
BRTAP	50	0	7
NMTAP	50	96	4
NMTAP	50	96	5
NMTAP	50	192	2
NMTAP	50	240	2
NMTAP	50	288	1
NMTAP	50	288	3
NMTAP	51	0	0
NMTAP	51	48	0
NMSTR	51	96	6
NMSCL	51	96	6	96	48	3
NMTAP	51	144	6
NMTAP	51	288	0
NMTAP	51	288	1
NMTAP	52	0	2
NMTAP	52	48	2
NMTAP	52	96	3
NMTAP	52	144	1
NMSTR	52	192	1
NMSCR	52	192	1	96	48	4
NMHLD	53	0	6	48
NMHLD	53	0	7	48
NMHLD	53	96	4	48
NMHLD	53	96	5	48
NMHLD	53	192	2	48
NMHLD	53	192	3	48
NMTAP	53	288	0
NMTAP	53	288	1
NMTAP	54	0	2
NMTAP	54	48	2
NMTAP	54	96	3
NMTAP	54	144	1
NMSTR	54	192	1
NMSI_	54	192	1	96	48	4
NMTAP	55	0	5
NMTAP	55	48	5
NMTAP	55	96	4
NMTAP	55	144	6
NMSTR	55	192	6
NMSI_	55	192	6	96	48	3
NMTAP	56	0	1
NMTAP	56	48	1
NMTAP	56	96	0
NMTAP	56	144	0
NMTAP	56	192	7
NMTAP	56	240	7
NMSTR	56	288	6
NMSXL	56	288	6	96	192	1
NMTAP	56	336	6
EXTAP	57	288	3
EXTAP	57	288	4
NMTTP	58	0	0	C	1	M1
NMTTP	58	0	1	B	0	M1
NMTTP	58	0	2	E	0	M1
NMTTP	58	0	5	B	0	M1
NMTTP	58	0	6	E	0	M1
NMSTR	58	192	3
NMSCL	58	192	3	96	48	1
NMSTR	58	192	4
NMSCR	58	192	4	96	48	6
EXTAP	59	0	0
EXHLD	59	0	7	72
NMHLD	59	72	5	72
NMTAP	59	144	4
EXHLD	59	192	0	72
NMHLD	59	264	2	72
NMTAP	59	336	3
NMTAP	60	0	5
NMTAP	60	48	5
NMTAP	60	96	4
NMTAP	60	144	6
NMTAP	60	192	0
NMTAP	60	240	1
NMTAP	60	240	7
EXTAP	60	288	2
EXTAP	60	288	6
NMTAP	61	0	4
NMTAP	61	0	5
NMTAP	61	48	6
NMTAP	61	96	0
NMTAP	61	96	7
NMTAP	61	144	1
NMHLD	61	192	2	48
NMHLD	61	192	3	48
NMTAP	61	288	0
NMTAP	61	288	1
NMTAP	61	336	2
NMTAP	62	0	3
NMTAP	62	0	4
NMTAP	62	48	5
NMSTR	62	96	6
NMSCL	62	96	6	96	48	3
NMTAP	62	144	6
NMTAP	62	192	7
EXTAP	62	288	0
EXTAP	62	288	1
NMTAP	63	0	2
EXHLD	63	0	6	72
NMTAP	63	72	7
NMTAP	63	144	1
NMTAP	63	144	5
EXHLD	63	192	1	72
NMTAP	63	192	5
NMTAP	63	264	0
NMTAP	63	336	3
NMTAP	63	336	7
NMTAP	64	0	3
NMSTR	64	0	7
NMSI_	64	0	7	96	48	3
NMSTR	64	96	0
NMSI_	64	96	0	96	48	2
NMSTR	64	192	6
NMSI_	64	192	6	96	48	4
NMTAP	64	288	7
NMHLD	65	0	2	48
NMHLD	65	0	3	48
NMTAP	65	72	1
NMTAP	65	72	4
NMHLD	65	144	4	48
NMHLD	65	144	5	48
NMTAP	65	216	3
NMTAP	65	216	6
NMTAP	65	288	0
NMTAP	65	288	7
NMTAP	65	336	0
NMTAP	65	336	7
NMTAP	66	0	1
NMTAP	66	0	6
NMTAP	66	48	2
NMTAP	66	48	5
NMTAP	66	96	3
NMTAP	66	96	4
BXTAP	66	144	1
BXTAP	66	144	6
NMSTR	66	288	0
NMSCR	66	288	0	96	48	3
NMSTR	66	288	7
NMSCL	66	288	7	96	48	4
NMTTP	67	96	0	C	1	M1
NMTTP	67	96	1	B	0	M1
NMTTP	67	96	2	E	0	M1
NMTTP	67	96	5	B	0	M1
NMTTP	67	96	6	E	0	M1
NMTAP	67	192	7
NMTAP	67	240	7
EXTAP	67	288	0
EXTAP	67	288	6
NMTAP	68	0	2
NMTAP	68	48	2
NMTAP	68	96	3
NMTAP	68	144	1
NMTAP	68	192	7
NMTAP	68	240	0
NMTAP	68	240	6
EXTAP	68	288	1
EXTAP	68	288	5
NMTAP	69	0	2
NMTAP	69	0	3
NMTAP	69	48	1
NMTAP	69	96	0
NMTAP	69	96	7
NMTAP	69	144	6
NMHLD	69	192	4	48
NMHLD	69	192	5	48
NMTAP	69	288	6
NMTAP	69	288	7
NMTAP	69	336	5
NMTAP	70	0	3
NMTAP	70	0	4
NMTAP	70	48	2
NMSTR	70	96	1
NMSCR	70	96	1	96	48	4
NMTAP	70	144	1
NMTAP	70	192	0
EXSTR	70	288	6
NMSCL	70	288	6	96	144	0
EXTAP	70	336	6
EXTAP	71	0	7
EXTAP	71	192	6
EXTAP	71	192	7
EXTAP	71	264	3
EXTAP	71	264	4
EXTAP	71	336	0
EXTAP	71	336	1
NMTAP	72	0	0
NMTAP	72	0	1
NMTAP	72	48	2
NMTAP	72	96	3
NMTAP	72	96	4
NMTAP	72	144	5
NMTAP	72	192	6
NMTAP	72	192	7
NMTAP	72	240	6
NMTAP	72	240	7
BRTAP	72	288	0
BRTAP	72	288	5
NMSTR	73	0	3
NMSCL	73	0	3	96	48	0
NMTAP	73	0	4
NMSTR	73	96	7
NMSCL	73	96	7	96	48	4
NMSTR	73	192	1
NMSI_	73	192	1	96	48	5
NMTAP	74	0	4
NMTAP	74	48	3
NMTAP	74	48	5
NMTAP	74	96	2
NMTAP	74	96	6
NMTAP	74	144	1
NMTAP	74	144	7
NMSTR	74	192	0
NMSF_	74	192	0	96	48	4
BRTAP	75	0	2
BRTAP	75	0	6

T_REC_TAP	286
T_REC_BRK	6
T_REC_XTP	30
T_REC_BXX	4
T_REC_HLD	54
T_REC_XHO	14
T_REC_BHO	0
T_REC_BXH	0
T_REC_STR	41
T_REC_BST	0
T_REC_XST	4
T_REC_XBS	0
T_REC_TTP	27
T_REC_THO	0
T_REC_SLD	45
T_REC_BSL	0
T_REC_ALL	511
T_NUM_TAP	388
T_NUM_BRK	10
T_NUM_HLD	68
T_NUM_SLD	45
T_NUM_ALL	511
T_JUDGE_TAP	398
T_JUDGE_HLD	140
T_JUDGE_SLD	45
T_JUDGE_ALL	583
TTM_EACHPAIRS	109
TTM_SCR_TAP	194000
TTM_SCR_BRK	26000
TTM_SCR_HLD	68000
TTM_SCR_SLD	67500
TTM_SCR_ALL	355500
TTM_SCR_S	343900
TTM_SCR_SS	354500
TTM_RAT_ACV	10028

