VERSION	0.00.00	1.04.00
FES_MODE	0
BPM_DEF	175.000	175.000	175.000	175.000
MET_DEF	4	4
RESOLUTION	384
CLK_DEF	384
COMPATIBLE_CODE	MA2

BPM	0	0	175.000
MET	0	0	4	4

NMHLD	1	0	2	672
NMTAP	1	0	4
NMTAP	1	96	4
NMTAP	1	192	4
NMTAP	1	288	4
NMTAP	2	0	3
NMTAP	2	96	3
NMTAP	2	192	3
NMTAP	2	288	3
NMSTR	3	0	2
NMSCL	3	0	2	96	288	5
NMTAP	3	0	4
NMTAP	3	96	4
NMTAP	3	192	4
NMTAP	3	288	4
NMTAP	4	0	3
NMTAP	4	96	3
NMTAP	4	192	3
NMTAP	4	288	2
NMTAP	4	288	4
NMTAP	5	0	2
NMTAP	5	48	2
NMTAP	5	96	3
NMTAP	5	144	3
NMTAP	5	192	4
NMTAP	5	240	4
NMTAP	5	288	5
NMTAP	5	336	5
NMTAP	6	0	1
NMTAP	6	48	1
NMTAP	6	96	3
NMTAP	6	144	3
NMTAP	6	192	4
NMTAP	6	240	4
NMTAP	6	288	6
NMTAP	6	336	6
NMTAP	7	0	0
NMTAP	7	24	7
NMTAP	7	48	0
NMTAP	7	72	7
NMTAP	7	96	1
NMTAP	7	120	6
NMTAP	7	144	1
NMTAP	7	168	6
NMTAP	7	192	2
NMTAP	7	216	5
NMTAP	7	240	2
NMTAP	7	264	5
NMSTR	7	288	3
NMSI_	7	288	3	96	48	5
NMHLD	8	0	5	288
CNSI_	8	48	5	0	48	7
CNSI_	8	96	7	0	48	1
CNSI_	8	144	1	0	48	4
BXTAP	8	288	0
NMTAP	9	0	1
NMTAP	9	0	4
NMTAP	9	48	2
NMTAP	9	96	3
NMTAP	9	144	2
NMTAP	9	192	1
NMTAP	9	192	4
NMTAP	9	240	5
NMTAP	9	288	2
NMTAP	9	336	2
NMTAP	10	0	3
NMTAP	10	0	6
NMTAP	10	48	5
NMTAP	10	96	4
NMTAP	10	144	5
NMTAP	10	192	3
NMTAP	10	192	6
NMTAP	10	240	2
NMTAP	10	288	4
NMTAP	10	336	4
NMTAP	11	0	2
NMTAP	11	0	4
NMTAP	11	48	1
NMTAP	11	96	5
NMTAP	11	144	6
NMTAP	11	192	1
NMTAP	11	192	7
NMTAP	11	240	2
NMTAP	11	288	5
NMTAP	11	336	5
NMSTR	12	0	3
NMSV_	12	0	3	96	96	4
NMTAP	12	48	3
NMTAP	12	96	7
NMTAP	12	144	6
NMSTR	12	192	5
NMSV_	12	192	5	96	96	2
NMTAP	12	240	5
NMTAP	12	288	0
NMTAP	12	336	0
NMTAP	13	0	1
NMTAP	13	48	3
NMTAP	13	96	2
NMTAP	13	96	4
NMTAP	13	144	5
NMTAP	13	192	6
NMTAP	13	240	4
NMTAP	13	288	3
NMTAP	13	288	5
NMTAP	13	336	2
NMTAP	14	0	1
NMTAP	14	48	3
NMTAP	14	96	2
NMTAP	14	96	4
NMTAP	14	144	5
NMSTR	14	192	6
NMSI_	14	192	6	96	48	0
NMTAP	14	240	6
NMTAP	14	288	3
NMTAP	14	336	2
NMSTR	15	0	1
NMSI_	15	0	1	96	48	3
NMTAP	15	48	1
NMTAP	15	96	4
NMTAP	15	144	5
NMSTR	15	192	6
NMSI_	15	192	6	96	48	4
NMTAP	15	240	6
NMTAP	15	288	3
NMTAP	15	336	2
NMSTR	16	0	1
NMSI_	16	0	1	96	48	4
NMTAP	16	48	1
NMTAP	16	96	7
CNSI_	16	144	4	0	48	2
NMTAP	16	144	6
CNSI_	16	192	2	0	48	0
NMHLD	16	192	5	96
BXTAP	16	288	0
NMTAP	17	0	6
NMTAP	17	24	7
NMTAP	17	48	6
NMTAP	17	96	0
NMTAP	17	96	5
NMTAP	17	144	1
NMTAP	17	192	2
NMTAP	17	240	4
NMTAP	17	288	3
NMTAP	17	288	5
NMTAP	17	336	3
NMTAP	17	336	5
NMTAP	18	0	5
NMTAP	18	24	4
NMTAP	18	48	5
NMTAP	18	96	3
NMTAP	18	96	6
NMTAP	18	144	2
NMTAP	18	192	1
NMTAP	18	192	3
NMTAP	18	240	0
NMTAP	18	288	1
NMTAP	18	288	3
NMTAP	18	336	2
NMTAP	18	336	4
NMTAP	19	0	5
NMTAP	19	24	4
NMTAP	19	48	5
NMTAP	19	96	3
NMTAP	19	96	6
NMTAP	19	144	2
NMTAP	19	192	1
NMTAP	19	192	7
NMTAP	19	240	6
NMTAP	19	288	0
NMTAP	19	288	5
NMTAP	19	336	0
NMTAP	19	336	5
NMTAP	20	0	6
NMTAP	20	24	7
NMTAP	20	48	6
NMTAP	20	96	0
NMTAP	20	96	5
NMTAP	20	144	1
NMTAP	20	192	2
NMTAP	20	192	6
NMTAP	20	240	5
NMTAP	20	288	3
NMTAP	20	288	5
NMTAP	20	336	3
NMTAP	20	336	5
NMSTR	21	0	4
NMSI_	21	0	4	96	48	0
NMTAP	21	48	4
NMSTR	21	96	3
NMSI_	21	96	3	96	48	1
NMTAP	21	144	3
EXTAP	21	192	0
NMTAP	21	240	7
NMTAP	21	288	0
NMTAP	21	288	6
NMTAP	21	336	5
NMSTR	22	0	4
NMSI_	22	0	4	96	48	6
NMTAP	22	48	4
NMSTR	22	96	2
NMSI_	22	96	2	96	48	0
NMTAP	22	144	2
NMSTR	22	192	7
NMSI_	22	192	7	96	48	3
NMTAP	22	240	7
EXTAP	22	288	0
NMTAP	22	336	1
NMTAP	23	0	2
NMTAP	23	0	4
NMTAP	23	48	2
NMTAP	23	48	4
NMTAP	23	96	1
NMTAP	23	96	5
NMTAP	23	144	1
NMTAP	23	144	5
NMTAP	23	192	0
NMTAP	23	216	6
NMTAP	23	240	0
NMTAP	23	264	6
NMTAP	23	288	1
NMTAP	23	312	7
NMTAP	23	336	1
NMTAP	23	360	7
NMTHO	24	0	0	192	C	0	M1
NMSTR	24	192	7
NMSI_	24	192	7	96	48	3
BRTAP	24	288	7
NMHLD	25	0	2	384
EXTAP	25	0	4
NMSTR	26	0	3
NMSXL	26	0	3	96	384	6
NMHLD	27	0	0	384
NMSTR	28	0	6
NMSXR	28	0	6	96	384	3
NMHLD	29	0	2	384
NMSTR	30	0	3
NMSXR	30	0	3	96	384	5
NMTHO	31	0	0	384	C	0	M1
NMHLD	32	0	6	288
EXTAP	33	0	3
EXHLD	33	0	5	768
NMTTP	33	192	4	B	0	M1
NMTTP	33	192	4	A	0	M1
NMTTP	34	0	6	B	0	M1
NMTTP	34	0	6	A	0	M1
NMHLD	34	192	0	768
NMTTP	35	192	4	B	0	M1
NMTTP	35	192	4	A	0	M1
NMTTP	36	0	2	B	0	M1
NMTTP	36	0	2	A	0	M1
NMTAP	36	192	1
NMTAP	37	0	0
NMHLD	37	0	1	960
NMTTP	37	192	0	B	0	M1
NMTTP	37	192	0	A	0	M1
NMTTP	38	0	2	B	0	M1
NMTTP	38	0	2	A	0	M1
NMTTP	38	192	4	B	0	M1
NMTTP	38	192	4	A	0	M1
NMTTP	39	0	6	B	0	M1
NMTTP	39	0	6	A	0	M1
NMHLD	39	192	0	384
NMTHO	40	0	0	384	C	1	M1
NMTAP	41	0	0
NMTAP	41	96	0
NMTAP	41	192	0
NMTAP	41	288	0
NMTAP	42	0	1
NMTAP	42	96	1
NMHLD	42	192	0	144
NMTAP	42	192	1
NMTAP	42	288	1
NMTAP	43	0	2
NMTAP	43	96	2
NMTAP	43	192	2
NMTAP	43	288	2
NMTAP	44	0	3
NMTAP	44	96	3
NMTAP	44	192	3
NMHLD	44	192	5	144
NMTAP	44	288	3
NMTAP	45	0	4
NMTAP	45	96	4
NMTAP	45	192	4
NMTAP	45	288	4
NMTAP	46	0	5
NMTAP	46	96	5
NMHLD	46	192	4	144
NMTAP	46	192	5
NMTAP	46	288	5
NMTAP	47	0	6
NMTAP	47	96	6
NMTAP	47	192	6
NMTAP	47	288	6
NMTAP	48	0	7
NMTAP	48	96	7
NMHLD	48	192	3	96
NMHLD	48	192	7	96
NMTAP	49	0	6
NMTAP	49	48	4
NMTAP	49	96	5
NMHLD	49	144	3	144
NMTAP	49	192	6
NMTAP	49	288	6
NMTAP	50	0	6
NMTAP	50	48	4
NMSTR	50	96	5
NMSV_	50	96	5	96	96	3
NMTAP	50	192	3
NMTAP	51	0	1
NMTAP	51	48	3
NMTAP	51	96	2
NMHLD	51	144	4	144
NMTAP	51	192	1
NMTAP	51	288	1
NMTAP	52	0	1
NMTAP	52	48	3
NMSTR	52	96	2
NMSV_	52	96	2	96	96	4
NMTAP	52	192	4
NMTAP	53	0	6
NMTAP	53	48	4
NMTAP	53	96	5
NMHLD	53	144	3	96
NMTAP	53	192	6
NMTAP	53	288	6
NMTAP	54	0	6
NMTAP	54	48	4
NMSTR	54	96	5
NMSV_	54	96	5	96	96	2
NMTAP	54	192	3
NMTAP	55	0	1
NMTAP	55	48	3
NMTAP	55	96	2
NMHLD	55	144	4	96
NMTAP	55	192	1
NMTAP	55	288	1
NMTAP	56	0	1
NMTAP	56	48	3
NMSTR	56	96	2
NMSV_	56	96	2	96	96	7
NMTAP	56	192	4
NMHLD	57	0	6	96
NMTAP	57	0	7
NMHLD	57	96	4	96
NMHLD	57	192	3	96
NMSTR	57	288	1
NMSI_	57	288	1	96	96	5
NMTAP	58	0	0
CNSI_	58	96	5	0	96	3
NMTAP	58	96	7
CNSI_	58	192	3	0	96	7
NMTAP	58	192	6
NMTAP	58	288	5
NMTAP	59	0	0
NMHLD	59	0	5	96
NMHLD	59	96	7	96
NMHLD	59	192	0	96
NMSTR	59	288	2
NMSI_	59	288	2	96	96	6
NMTAP	60	0	3
NMTAP	60	96	4
CNSI_	60	96	6	0	96	0
NMHLD	60	192	5	96
NMTTP	60	288	2	B	0	M1
NMTTP	60	288	2	E	0	M1
NMTTP	60	336	6	B	0	M1
NMTTP	60	336	7	E	0	M1
NMTAP	61	0	0
NMTAP	61	48	0
NMTAP	61	96	1
NMTAP	61	96	7
NMTAP	61	144	7
NMTAP	61	192	2
NMTAP	61	240	2
NMTAP	61	288	3
NMTAP	61	288	5
NMTAP	61	336	5
NMTAP	62	0	1
NMTAP	62	0	3
NMTAP	62	48	1
NMTAP	62	96	2
NMTAP	62	96	4
NMTAP	62	144	4
NMTAP	62	192	3
NMTAP	62	192	5
NMTAP	62	240	3
NMTAP	62	288	2
NMTAP	62	288	4
NMTAP	62	336	4
NMTAP	63	0	3
NMTAP	63	24	4
NMTAP	63	48	3
NMTAP	63	72	4
NMTAP	63	96	2
NMTAP	63	120	5
NMTAP	63	144	2
NMTAP	63	168	5
NMTAP	63	192	1
NMTAP	63	216	6
NMTAP	63	240	1
NMTAP	63	264	6
NMSTR	63	288	0
NMSCL	63	288	0	96	144	2
NMTAP	63	312	7
NMTAP	63	336	0
NMTAP	63	360	7
NMTAP	64	0	0
NMSTR	64	192	7
BRSI_	64	192	7	96	48	3
NMTAP	64	288	7
BRTAP	65	0	1
BRTAP	65	0	4
NMTAP	65	48	0
NMTAP	65	96	1
NMTAP	65	96	3
NMTAP	65	144	5
NMTAP	65	168	5
NMTAP	65	192	4
NMTAP	65	240	6
NMTAP	65	264	7
NMTAP	65	288	5
NMTAP	65	312	0
NMHLD	65	336	4	48
NMTAP	66	0	1
NMTAP	66	24	3
NMTAP	66	48	2
NMTAP	66	72	4
NMTAP	66	96	3
NMTAP	66	120	5
NMTAP	66	144	4
NMTAP	66	192	3
NMTAP	66	192	6
NMTAP	66	240	7
NMTAP	66	288	1
NMTAP	66	288	4
NMTAP	66	336	0
NMTAP	67	0	3
NMTAP	67	0	5
NMTAP	67	48	6
NMTAP	67	72	6
NMTAP	67	96	7
NMTAP	67	144	0
NMTAP	67	144	6
NMTAP	67	192	1
NMTAP	67	192	5
NMTAP	67	240	2
NMTAP	67	264	4
NMTAP	67	288	3
NMTAP	67	336	4
NMTAP	67	336	5
NMTAP	68	0	4
NMTAP	68	0	5
NMTAP	68	48	6
NMTAP	68	72	7
NMTAP	68	96	5
NMTAP	68	120	0
NMTAP	68	144	4
NMTAP	68	168	1
NMTAP	68	192	3
NMTAP	68	216	2
NMTAP	68	240	3
NMTAP	68	288	1
NMTAP	68	288	4
BRTAP	69	0	3
BRTAP	69	0	6
NMTAP	69	48	7
NMTAP	69	96	4
NMTAP	69	96	6
NMTAP	69	144	2
NMTAP	69	168	2
NMTAP	69	192	3
NMTAP	69	240	1
NMTAP	69	264	0
NMTAP	69	288	2
NMTAP	69	312	7
NMHLD	69	336	3	48
NMTAP	70	0	6
NMTAP	70	24	4
NMTAP	70	48	5
NMTAP	70	72	3
NMTAP	70	96	4
NMTAP	70	120	2
NMTAP	70	144	3
NMSTR	70	192	1
NMSI_	70	192	1	96	48	4
NMTAP	70	192	4
NMTAP	70	240	0
NMTAP	70	240	5
BRTAP	70	288	1
BRTAP	70	288	4
EXTAP	71	0	4
NMTAP	71	0	5
NMTAP	71	48	6
NMTAP	71	72	6
NMTAP	71	96	7
NMTAP	71	144	0
NMTAP	71	144	5
NMTAP	71	192	1
NMTAP	71	192	4
NMTAP	71	240	2
NMTAP	71	240	3
NMTAP	71	288	3
NMTAP	71	288	4
NMTAP	71	336	4
NMTAP	71	336	5
NMTAP	72	0	3
NMTAP	72	0	6
NMTAP	72	48	1
NMTAP	72	72	0
NMTAP	72	120	6
NMTAP	72	144	7
NMSTR	72	192	0
NMSUR	72	192	0	96	48	4
NMSTR	72	192	4
NMSI_	72	192	4	96	48	7
EXTAP	72	288	0
EXTAP	72	288	4
BRTAP	73	0	3
BRTAP	73	0	6
NMTAP	73	48	5
NMTAP	73	72	5
NMSTR	73	96	4
NMSI_	73	96	4	96	48	0
NMTAP	73	144	6
BRTAP	73	192	4
NMTAP	73	240	7
NMTAP	73	264	7
NMSTR	73	288	1
NMSI_	73	288	1	96	48	4
NMTAP	73	336	6
BRTAP	74	0	1
NMTAP	74	48	5
NMTAP	74	72	5
NMTAP	74	96	3
NMTAP	74	144	2
NMTAP	74	144	4
NMTAP	74	192	1
NMTAP	74	192	5
NMTAP	74	240	0
NMTAP	74	240	6
NMSTR	74	288	7
NMSI_	74	288	7	96	48	4
NMTAP	74	336	0
NMTAP	75	0	1
BRTAP	75	0	7
NMTAP	75	48	2
NMTAP	75	72	2
NMSTR	75	96	3
NMSI_	75	96	3	96	48	7
NMTAP	75	144	1
BRTAP	75	192	3
NMTAP	75	240	0
NMTAP	75	264	0
NMSTR	75	288	6
NMSI_	75	288	6	96	48	3
NMTAP	75	336	1
BRTAP	76	0	6
NMTAP	76	48	2
NMTAP	76	72	2
NMTAP	76	96	4
NMTAP	76	144	3
NMTAP	76	144	5
BRSTR	76	192	4
NMSI_	76	192	4	96	48	0
BRSTR	76	192	6
NMSI_	76	192	6	96	48	4
BRTAP	76	288	4
BRTAP	76	288	6
BRTAP	77	0	1
BRTAP	77	0	3
NMTAP	77	48	2
NMTAP	77	72	2
NMSTR	77	96	3
NMSI_	77	96	3	96	48	7
NMTAP	77	144	1
BRTAP	77	192	3
NMTAP	77	240	0
NMTAP	77	264	0
NMSTR	77	288	6
NMSI_	77	288	6	96	48	3
NMTAP	77	336	1
BRTAP	78	0	6
NMTAP	78	48	2
NMTAP	78	72	2
NMSTR	78	96	4
NMSCR	78	96	4	96	48	7
NMTAP	78	144	1
NMSTR	78	192	0
NMSI_	78	192	0	96	48	4
BRTAP	78	192	4
BRTAP	78	288	0
EXTAP	78	288	7
BRTAP	79	0	3
BRTAP	79	0	5
NMTAP	79	48	6
NMTAP	79	72	6
NMSTR	79	96	4
NMSI_	79	96	4	96	48	0
NMTAP	79	144	7
BRTAP	79	192	4
NMTAP	79	240	6
NMTAP	79	264	6
NMSTR	79	288	1
NMSUR	79	288	1	96	96	4
NMTAP	79	336	4
BRTAP	80	0	1
CNSI_	80	96	4	0	48	6
CNSI_	80	144	6	0	72	0
CNSI_	80	216	0	0	72	2
BXTAP	80	288	7
BRTAP	81	0	0
BRTAP	81	0	6
BRTAP	81	48	0
BRTAP	81	48	6
BRTAP	81	96	1
BRTAP	81	96	5
NMTAP	81	144	2
NMTAP	81	144	4
NMTAP	81	192	5
NMTAP	81	216	4
NMTAP	81	240	6
NMTAP	81	288	3
NMTAP	81	288	7
NMTAP	81	336	6
NMTAP	81	360	4
NMSTR	82	0	5
NMSI_	82	0	5	96	48	0
NMSTR	82	48	2
NMSI_	82	48	2	96	48	4
NMTAP	82	96	5
NMTAP	82	144	2
NMSTR	82	192	6
NMSI_	82	192	6	96	48	3
NMTAP	82	240	7
NMTAP	82	288	0
NMTAP	82	288	6
NMTAP	83	0	0
NMTAP	83	0	4
NMTAP	83	48	1
NMTAP	83	72	3
NMTAP	83	96	2
NMTAP	83	144	3
NMTAP	83	144	4
NMTAP	83	192	5
NMTAP	83	216	4
NMTAP	83	240	6
NMTAP	83	288	0
NMTAP	83	288	7
NMTAP	83	336	1
NMTAP	83	360	3
NMSTR	84	0	2
NMSI_	84	0	2	96	48	7
NMSTR	84	48	5
NMSI_	84	48	5	96	48	3
NMTAP	84	96	2
NMTAP	84	144	5
NMSTR	84	192	1
NMSI_	84	192	1	96	48	4
NMTAP	84	240	0
BRTAP	84	288	1
NMTAP	84	288	7
EXTAP	85	0	3
EXTAP	85	0	5
NMTAP	85	48	6
NMTAP	85	72	6
NMTAP	85	96	7
NMTAP	85	144	0
NMTAP	85	144	5
NMTAP	85	192	2
NMTAP	85	216	2
NMTAP	85	240	3
NMTAP	85	288	2
NMTAP	85	288	4
NMTAP	85	336	5
NMTAP	85	360	5
NMSTR	86	0	4
NMSI_	86	0	4	96	48	0
NMSTR	86	48	6
NMSI_	86	48	6	96	48	3
NMTAP	86	96	4
NMTAP	86	144	6
EXSTR	86	192	0
BRSCL	86	192	0	96	48	5
BRSCR	86	192	0	96	48	3
BRTAP	86	288	0
EXTAP	87	0	3
EXTAP	87	0	5
NMTAP	87	48	6
NMTAP	87	72	4
NMTAP	87	120	4
NMTAP	87	144	5
NMTAP	87	192	2
NMTAP	87	192	4
NMTAP	87	240	1
NMTAP	87	264	3
NMTAP	87	312	3
NMTAP	87	336	2
NMHLD	88	0	2	48
NMHLD	88	0	7	48
NMHLD	88	72	3	48
NMHLD	88	72	4	48
NMTAP	88	144	0
NMTAP	88	144	5
NMSTR	88	192	0
NMSI_	88	192	0	96	48	3
NMSTR	88	192	5
NMSI_	88	192	5	96	48	0
EXTAP	88	288	0
EXTAP	88	288	5
BRTAP	89	0	2
BRTAP	89	0	7
NMTAP	89	48	1
NMTAP	89	72	1
NMSTR	89	96	0
NMSI_	89	96	0	96	48	4
NMTAP	89	144	2
BRTAP	89	192	0
NMTAP	89	240	3
NMTAP	89	264	3
NMSTR	89	288	5
NMSI_	89	288	5	96	48	0
NMTAP	89	336	2
BRTAP	90	0	5
NMTAP	90	48	1
NMTAP	90	72	1
NMTAP	90	96	7
NMTAP	90	144	0
NMTAP	90	144	6
NMHLD	90	192	1	96
NMTAP	90	192	5
NMTAP	90	240	4
NMSTR	90	288	3
NMSI_	90	288	3	96	48	0
NMTAP	90	336	4
BRTAP	91	0	3
NMTAP	91	0	5
NMTAP	91	48	6
NMTAP	91	72	6
NMSTR	91	96	7
NMSI_	91	96	7	96	48	3
NMTAP	91	144	5
BRTAP	91	192	7
NMTAP	91	240	4
NMTAP	91	264	4
NMSTR	91	288	2
NMSI_	91	288	2	96	48	7
NMTAP	91	336	5
BRTAP	92	0	2
NMTAP	92	48	6
NMTAP	92	72	6
NMTAP	92	96	0
NMTAP	92	144	1
NMTAP	92	144	7
BRSTR	92	192	2
NMSI_	92	192	2	96	48	7
BRSTR	92	192	6
NMSI_	92	192	6	96	48	3
BRTAP	92	288	2
BRTAP	92	288	6
BXTAP	93	0	0
BXTAP	93	0	4
NMTAP	93	48	1
NMTAP	93	96	3
NMTAP	93	96	7
NMTAP	93	144	6
BRSTR	93	192	3
NMSI_	93	192	3	96	48	7
NMTAP	93	192	5
NMSTR	93	240	2
NMSI_	93	240	2	96	48	0
NMTAP	93	288	3
NMTAP	93	336	2
BRSTR	94	0	6
NMSI_	94	0	6	96	48	3
NMSTR	94	48	7
NMSI_	94	48	7	96	48	2
NMTAP	94	96	6
NMTAP	94	144	7
BXSTR	94	192	3
BRSF_	94	192	3	96	48	7
BXTAP	94	288	3
BXTAP	95	0	0
EXTAP	95	24	6
EXTAP	95	48	0
EXTAP	95	72	6
NMTAP	95	96	1
NMTAP	95	120	5
NMTAP	95	144	1
NMTAP	95	168	5
BXTAP	95	192	2
NMTAP	95	204	3
NMTAP	95	216	4
NMTAP	95	228	5
NMTAP	95	240	6
NMTAP	95	252	7
NMTAP	95	264	0
NMTAP	95	276	1
NMSTR	95	288	2
NMSUR	95	288	2	96	144	4
NMTAP	95	300	3
NMTAP	95	312	4
NMTAP	95	324	5
NMTAP	95	336	6
NMTAP	95	348	7
NMTAP	95	360	0
NMTAP	95	372	1
BXTAP	96	0	2
BRTAP	96	288	1
BRTAP	96	288	7
NMTAP	97	0	2
NMHLD	97	0	6	288
NMTAP	97	96	2
NMTAP	97	192	4
NMTAP	97	288	4
NMTAP	98	0	3
NMTAP	98	0	5
NMTAP	98	96	3
NMTAP	98	96	5
NMTAP	98	192	3
NMTTP	98	192	6	A	0	M1
NMTTP	98	192	7	E	0	M1
NMTAP	98	288	3
NMTTP	98	288	5	E	0	M1
NMTTP	98	288	5	A	0	M1
NMHLD	99	0	1	288
NMTAP	99	0	5
NMTAP	99	96	5
NMTAP	99	192	3
NMTAP	99	288	3
NMTAP	100	0	2
NMTAP	100	0	4
NMTAP	100	96	2
NMTAP	100	96	4
NMTTP	100	192	1	E	0	M1
NMTTP	100	192	1	A	0	M1
NMTAP	100	192	4
NMTTP	100	288	2	A	0	M1
NMTTP	100	288	3	E	0	M1
NMTAP	100	288	4
NMTAP	101	0	3
NMTAP	101	0	4
NMTAP	101	48	3
NMTAP	101	48	4
NMTAP	101	96	2
NMTAP	101	144	4
NMTAP	101	192	1
NMTAP	101	192	5
NMTAP	101	240	1
NMTAP	101	240	5
NMTAP	101	288	6
NMTAP	101	336	0
NMTAP	102	0	1
NMTAP	102	0	7
NMTAP	102	48	1
NMTAP	102	48	7
NMTAP	102	96	2
NMTAP	102	144	4
NMTAP	102	192	3
NMTAP	102	192	5
NMTAP	102	240	3
NMTAP	102	240	5
NMTAP	102	288	2
NMTAP	102	288	6
NMTAP	102	336	2
NMTAP	102	336	6
NMTAP	103	0	7
NMTAP	103	24	1
NMTAP	103	48	7
NMTAP	103	72	1
NMTAP	103	96	6
NMTAP	103	120	0
NMTAP	103	144	6
NMTAP	103	168	0
NMTAP	103	192	4
NMTAP	103	216	2
NMTAP	103	240	4
NMTAP	103	264	2
NMTAP	103	288	5
NMTAP	103	312	3
NMTAP	103	336	5
NMTAP	103	360	3
BRHLD	104	0	6	96
NMTAP	104	96	0
NMTAP	104	120	7
NMTAP	104	144	0
NMTAP	104	168	7
NMSTR	104	192	0
NMSV_	104	192	0	96	48	2
BRSV_	104	192	0	96	48	6
NMTAP	104	240	1
NMTAP	104	240	7
BRTAP	104	288	0
CNSI_	104	336	2	0	48	4
CNSI_	104	336	6	0	48	4

T_REC_TAP	608
T_REC_BRK	46
T_REC_XTP	17
T_REC_BXX	9
T_REC_HLD	35
T_REC_XHO	1
T_REC_BHO	1
T_REC_BXH	0
T_REC_STR	58
T_REC_BST	6
T_REC_XST	1
T_REC_XBS	1
T_REC_TTP	28
T_REC_THO	3
T_REC_SLD	63
T_REC_BSL	5
T_REC_ALL	882
T_NUM_TAP	712
T_NUM_BRK	68
T_NUM_HLD	39
T_NUM_SLD	63
T_NUM_ALL	882
T_JUDGE_TAP	774
T_JUDGE_HLD	191
T_JUDGE_SLD	68
T_JUDGE_ALL	1033
TTM_EACHPAIRS	131
TTM_SCR_TAP	356000
TTM_SCR_BRK	176800
TTM_SCR_HLD	39000
TTM_SCR_SLD	94500
TTM_SCR_ALL	666300
TTM_SCR_S	639750
TTM_SCR_SS	659500
TTM_RAT_ACV	10103

