VERSION	0.00.00	1.04.00
FES_MODE	0
BPM_DEF	175.000	175.000	175.000	175.000
MET_DEF	4	4
RESOLUTION	384
CLK_DEF	384
COMPATIBLE_CODE	MA2

BPM	0	0	175.000
MET	0	0	4	4

NMTAP	1	0	3
NMTAP	1	96	3
NMTAP	1	192	2
NMTAP	1	192	4
NMTAP	1	288	2
NMTAP	1	288	4
NMTAP	2	0	3
NMTAP	2	96	3
NMTAP	2	192	2
NMTAP	2	192	4
NMTAP	2	288	1
NMTAP	2	288	5
NMTAP	3	0	4
NMTAP	3	96	4
NMTAP	3	192	3
NMTAP	3	192	5
NMTAP	3	288	3
NMTAP	3	288	5
NMTAP	4	0	4
NMTAP	4	96	4
NMTAP	4	192	3
NMTAP	4	192	5
NMTAP	4	288	2
NMTAP	4	288	6
NMTAP	5	0	3
NMTAP	5	48	3
NMTAP	5	96	4
NMTAP	5	144	4
NMTAP	5	192	2
NMTAP	5	240	2
NMTAP	5	288	3
NMTAP	5	336	3
NMTAP	6	0	1
NMTAP	6	48	1
NMTAP	6	96	5
NMTAP	6	144	5
NMTAP	6	192	3
NMTAP	6	240	3
NMTAP	6	288	6
NMTAP	6	336	6
NMTAP	7	0	0
NMTAP	7	24	7
NMTAP	7	48	0
NMTAP	7	72	7
NMTAP	7	96	0
NMTAP	7	120	7
NMTAP	7	144	0
NMTAP	7	168	7
NMTAP	7	192	0
NMTAP	7	216	7
NMTAP	7	240	0
NMTAP	7	264	7
NMTAP	7	288	0
NMTAP	7	312	7
NMTAP	7	336	0
NMTAP	7	360	7
NMHLD	8	0	0	288
BRTAP	8	288	7
NMHLD	9	0	6	96
NMTAP	9	96	4
NMTAP	9	192	3
NMTAP	9	288	2
NMTAP	9	288	4
NMHLD	10	0	1	96
NMTAP	10	96	3
NMTAP	10	192	4
NMTAP	10	288	3
NMTAP	10	288	5
NMHLD	11	0	6	96
NMTAP	11	96	4
NMTAP	11	192	7
NMTAP	11	288	0
NMTAP	11	288	6
NMHLD	12	0	1	96
NMTAP	12	96	3
NMTAP	12	192	0
NMTAP	12	288	1
NMTAP	12	288	7
NMHLD	13	0	6	96
NMTAP	13	96	4
NMTAP	13	192	3
NMTAP	13	288	2
NMTAP	13	288	4
NMHLD	14	0	1	96
NMTAP	14	96	3
NMTAP	14	192	4
NMTAP	14	288	3
NMTAP	14	288	5
NMHLD	15	0	6	96
NMTAP	15	96	4
NMTAP	15	192	7
NMTAP	15	288	0
NMTAP	15	288	6
NMHLD	16	0	1	96
NMTAP	16	96	3
NMTAP	16	192	0
NMTAP	16	288	1
NMTAP	16	288	7
NMHLD	17	0	6	96
NMTAP	17	96	4
NMTAP	17	192	3
NMTAP	17	192	5
NMTAP	17	288	2
NMTAP	17	288	4
NMHLD	18	0	1	96
NMTAP	18	96	3
NMTAP	18	192	2
NMTAP	18	192	4
NMTAP	18	288	3
NMTAP	18	288	5
NMHLD	19	0	6	96
NMTAP	19	96	4
NMTAP	19	192	6
NMTAP	19	192	7
NMTAP	19	288	0
NMTAP	19	288	7
NMTAP	20	0	0
NMHLD	20	0	1	96
NMTAP	20	96	3
NMTAP	20	192	0
NMTAP	20	192	1
NMTAP	20	288	0
NMTAP	20	288	7
NMTAP	21	0	6
NMTAP	21	48	6
NMTAP	21	96	4
NMTAP	21	144	4
NMTAP	21	192	5
NMTAP	21	240	5
NMTAP	21	288	3
NMTAP	21	336	3
NMTAP	22	0	4
NMTAP	22	48	4
NMTAP	22	96	2
NMTAP	22	144	2
NMTAP	22	192	3
NMTAP	22	240	3
NMTAP	22	288	1
NMTAP	22	336	1
NMTAP	23	0	4
NMTAP	23	48	4
NMTAP	23	96	2
NMTAP	23	144	2
NMTAP	23	192	6
NMTAP	23	240	6
NMTAP	23	288	4
NMTAP	23	336	4
NMSTR	24	0	7
NMSCR	24	0	7	96	192	5
EXHLD	25	0	7	288
NMHLD	26	0	0	288
NMHLD	26	0	6	288
NMHLD	27	0	2	672
NMHLD	27	0	4	672
NMHLD	29	0	0	288
NMHLD	30	0	1	288
NMHLD	30	0	7	288
NMHLD	31	0	3	672
NMHLD	31	0	5	672
NMSTR	33	0	2
NMSXR	33	0	2	96	480	7
NMHLD	33	0	4	672
NMHLD	35	0	3	672
NMSTR	35	0	5
NMSXL	35	0	5	96	480	0
NMHLD	37	0	2	384
NMTAP	37	0	4
NMHLD	38	0	0	384
NMHLD	39	0	7	384
NMHLD	40	0	5	1152
NMTTP	41	0	4	E	0	M1
NMTTP	41	96	5	E	0	M1
NMTTP	41	192	6	E	0	M1
NMTTP	41	288	7	E	0	M1
NMTTP	42	0	0	E	0	M1
NMTTP	42	96	1	E	0	M1
NMTTP	42	192	2	E	0	M1
NMTTP	42	288	3	E	0	M1
NMHLD	43	0	3	768
NMTTP	43	96	5	E	0	M1
NMTTP	43	192	4	E	0	M1
NMTTP	43	288	3	E	0	M1
NMTTP	44	0	2	E	0	M1
NMTTP	44	96	1	E	0	M1
NMTTP	44	192	0	E	0	M1
NMTTP	44	288	7	E	0	M1
NMHLD	45	0	5	384
NMTTP	45	96	5	E	0	M1
NMTTP	45	192	4	E	0	M1
NMTTP	45	288	3	E	0	M1
NMHLD	46	0	2	384
NMTTP	46	96	1	E	0	M1
NMTTP	46	192	0	E	0	M1
NMTTP	46	288	7	E	0	M1
NMHLD	47	0	5	384
NMTTP	47	96	5	E	0	M1
NMTTP	47	192	4	E	0	M1
NMTTP	47	288	3	E	0	M1
NMHLD	48	0	2	288
NMTTP	48	96	1	E	0	M1
NMTTP	48	192	0	E	0	M1
NMTTP	48	288	7	E	0	M1
NMHLD	49	0	3	96
NMHLD	49	0	5	96
NMHLD	49	144	3	96
NMHLD	49	144	5	96
NMTAP	49	288	3
NMTAP	49	288	5
NMHLD	50	0	2	96
NMHLD	50	0	4	96
NMHLD	50	144	2	96
NMHLD	50	144	4	96
NMTAP	50	288	2
NMTAP	50	288	4
NMHLD	51	0	3	96
NMHLD	51	0	5	96
NMHLD	51	144	2	96
NMHLD	51	144	6	96
NMTAP	51	288	3
NMTAP	51	288	5
NMHLD	52	0	2	96
NMHLD	52	0	4	96
NMHLD	52	144	1	96
NMHLD	52	144	5	96
NMTAP	52	288	2
NMTAP	52	288	4
NMHLD	53	0	3	96
NMHLD	53	0	6	96
NMHLD	53	144	2	96
NMHLD	53	144	5	96
NMTAP	53	288	1
NMTAP	53	288	4
NMHLD	54	0	1	96
NMHLD	54	0	4	96
NMHLD	54	144	2	96
NMHLD	54	144	5	96
NMTAP	54	288	3
NMTAP	54	288	6
NMHLD	55	0	6	96
NMHLD	55	0	7	96
NMHLD	55	144	0	96
NMHLD	55	144	7	96
NMTAP	55	288	0
NMTAP	55	288	1
NMHLD	56	0	0	96
NMHLD	56	0	1	96
NMHLD	56	144	0	96
NMHLD	56	144	7	96
NMTAP	56	288	6
NMTAP	56	288	7
NMTAP	57	0	4
NMTAP	57	0	5
NMTAP	57	96	4
NMTAP	57	96	5
NMTAP	57	192	2
NMTAP	57	192	3
NMTAP	57	288	2
NMTAP	57	288	3
NMTAP	58	0	4
NMTAP	58	0	6
NMTAP	58	96	4
NMTAP	58	96	6
NMTAP	58	192	1
NMTAP	58	192	3
NMTAP	58	288	1
NMTAP	58	288	3
NMTAP	59	0	0
NMTAP	59	0	1
NMTAP	59	96	0
NMTAP	59	96	1
NMTAP	59	192	6
NMTAP	59	192	7
NMTAP	59	288	6
NMTAP	59	288	7
NMTAP	60	0	0
NMTAP	60	0	2
NMTAP	60	96	0
NMTAP	60	96	2
NMSTR	60	192	0
NMSI_	60	192	0	96	48	4
NMTAP	60	192	7
NMTAP	61	0	5
NMTAP	61	48	5
NMTAP	61	96	5
NMTAP	61	144	5
NMTAP	61	192	4
NMTAP	61	192	5
NMTAP	61	240	4
NMTAP	61	240	5
NMTAP	61	288	4
NMTAP	61	288	5
NMTAP	61	336	4
NMTAP	61	336	5
NMTAP	62	0	3
NMTAP	62	0	6
NMTAP	62	48	3
NMTAP	62	48	6
NMTAP	62	96	3
NMTAP	62	96	6
NMTAP	62	144	3
NMTAP	62	144	6
NMTAP	62	192	2
NMTAP	62	192	7
NMTAP	62	240	2
NMTAP	62	240	7
NMTAP	62	288	2
NMTAP	62	288	7
NMTAP	62	336	2
NMTAP	62	336	7
NMTAP	63	0	1
NMTAP	63	24	0
NMTAP	63	48	1
NMTAP	63	72	0
NMTAP	63	96	1
NMTAP	63	120	0
NMTAP	63	144	1
NMTAP	63	168	0
NMTAP	63	192	1
NMTAP	63	216	0
NMTAP	63	240	1
NMTAP	63	264	0
NMTAP	63	288	1
NMTAP	63	312	0
NMTAP	63	336	1
NMTAP	63	360	0
NMHLD	64	0	1	192
NMSTR	64	192	7
NMSI_	64	192	7	96	48	3
BRTAP	64	288	2
BXSTR	65	0	1
NMSI_	65	0	1	96	48	3
BXSTR	65	0	4
NMSI_	65	0	4	96	48	0
NMTAP	65	192	2
NMTAP	65	240	2
NMTAP	65	288	3
NMTAP	65	336	1
NMHLD	66	0	4	192
NMTAP	66	96	7
NMHLD	66	192	3	192
NMTAP	66	288	0
NMTAP	67	0	5
NMTAP	67	48	5
NMTAP	67	96	4
NMTAP	67	144	6
NMTAP	67	192	3
NMTAP	67	240	3
NMTAP	67	288	2
NMTAP	67	288	4
NMSTR	68	0	1
NMSI_	68	0	1	96	48	3
NMSTR	68	0	5
NMSI_	68	0	5	96	48	7
NMSTR	68	192	2
NMSI_	68	192	2	96	48	5
NMHLD	68	192	6	96
NMSTR	69	0	3
NMSI_	69	0	3	96	48	7
NMSTR	69	0	6
NMSI_	69	0	6	96	48	4
NMTAP	69	192	5
NMTAP	69	240	5
NMTAP	69	288	4
NMTAP	69	336	6
NMHLD	70	0	3	192
NMTAP	70	96	0
NMHLD	70	192	4	192
NMTAP	70	288	7
NMTAP	71	0	2
NMTAP	71	48	2
NMTAP	71	96	3
NMTAP	71	144	1
NMTAP	71	192	4
NMTAP	71	240	4
NMTAP	71	288	3
NMTAP	71	288	5
NMSTR	72	0	6
NMSI_	72	0	6	96	48	2
NMSTR	72	96	0
NMSI_	72	96	0	96	48	4
NMTAP	72	192	7
NMTAP	72	288	3
NMTAP	72	288	5
NMHLD	73	0	2	192
NMTAP	73	96	4
NMTAP	73	144	5
NMHLD	73	192	6	192
NMTAP	73	288	4
NMTAP	73	336	3
NMHLD	74	0	2	192
NMTAP	74	96	4
NMTAP	74	144	5
NMTAP	74	192	6
NMTAP	74	240	6
NMTAP	74	288	4
NMTAP	74	336	4
NMHLD	75	0	5	192
NMTAP	75	96	3
NMTAP	75	144	2
NMHLD	75	192	1	192
NMTAP	75	288	3
NMTAP	75	336	4
NMHLD	76	0	5	192
NMTAP	76	96	3
NMTAP	76	144	2
EXHLD	76	192	1	192
EXTAP	76	288	4
NMTAP	76	336	5
NMHLD	77	0	6	192
NMTAP	77	96	0
NMTAP	77	144	1
NMHLD	77	192	2	192
NMTAP	77	288	0
NMTAP	77	336	7
NMHLD	78	0	6	192
NMTAP	78	96	0
NMTAP	78	144	1
NMTAP	78	192	2
NMTAP	78	240	2
NMTAP	78	288	0
NMTAP	78	336	0
NMHLD	79	0	1	192
NMTAP	79	96	7
NMTAP	79	144	6
NMHLD	79	192	5	96
NMSTR	79	288	7
NMSXR	79	288	7	96	192	0
EXTAP	80	288	0
EXTAP	80	288	7
NMSTR	81	0	3
NMSI_	81	0	3	96	48	7
NMSTR	81	0	6
NMSI_	81	0	6	96	48	4
NMSTR	81	192	0
NMSI_	81	192	0	96	48	4
NMSTR	81	192	5
NMSI_	81	192	5	96	48	7
NMTAP	82	0	3
NMTAP	82	48	3
NMTAP	82	96	6
NMTAP	82	144	6
NMHLD	82	192	2	96
NMTAP	82	288	3
NMSTR	83	0	1
NMSI_	83	0	1	96	48	3
NMSTR	83	0	4
NMSI_	83	0	4	96	48	0
NMSTR	83	192	2
NMSI_	83	192	2	96	48	0
NMSTR	83	192	7
NMSI_	83	192	7	96	48	3
NMTAP	84	0	4
NMTAP	84	48	4
NMTAP	84	96	1
NMTAP	84	144	1
NMHLD	84	192	5	96
NMTAP	84	288	4
NMSTR	85	0	3
NMSI_	85	0	3	96	48	7
NMSTR	85	0	6
NMSI_	85	0	6	96	48	4
NMSTR	85	192	0
NMSI_	85	192	0	96	48	4
NMSTR	85	192	5
NMSI_	85	192	5	96	48	7
NMTAP	86	0	3
NMTAP	86	48	3
NMTAP	86	96	7
NMTAP	86	144	7
NMTAP	86	192	0
NMTAP	86	240	0
NMTAP	86	288	3
NMHLD	87	0	1	96
NMTAP	87	0	4
NMHLD	87	96	3	96
NMHLD	87	192	4	96
NMHLD	87	288	6	96
NMSTR	88	0	0
NMSI_	88	0	0	96	48	4
NMSTR	88	96	5
NMSI_	88	96	5	96	48	1
NMHLD	88	192	3	96
BRTAP	88	288	7
NMHLD	89	0	4	96
NMSTR	89	0	5
NMSCR	89	0	5	96	48	7
NMSTR	89	192	2
NMSCL	89	192	2	96	48	0
NMHLD	89	192	3	96
NMHLD	90	0	4	96
NMSTR	90	0	5
NMSCR	90	0	5	96	48	7
NMTAP	90	192	2
NMTAP	90	192	3
NMTAP	90	288	1
NMTAP	90	288	4
NMSTR	91	0	2
NMSCL	91	0	2	96	48	0
NMHLD	91	0	3	96
NMHLD	91	192	4	96
NMSTR	91	192	5
NMSCR	91	192	5	96	48	7
NMSTR	92	0	2
NMSCL	92	0	2	96	48	0
NMHLD	92	0	3	96
NMTAP	92	192	4
NMTAP	92	192	5
NMTAP	92	288	4
NMTAP	92	288	5
NMTAP	93	0	2
NMTAP	93	48	2
NMTAP	93	96	3
NMTAP	93	144	1
NMTAP	93	192	5
NMTAP	93	240	5
NMTAP	93	288	4
NMTAP	93	336	6
NMTAP	94	0	0
NMTAP	94	48	0
NMTAP	94	96	3
NMTAP	94	144	2
NMTAP	94	192	7
NMTAP	94	240	7
NMTAP	94	288	4
NMTAP	94	336	5
NMTAP	95	0	0
NMTAP	95	24	7
NMTAP	95	48	0
NMTAP	95	72	7
NMTAP	95	96	1
NMTAP	95	120	6
NMTAP	95	144	1
NMTAP	95	168	6
NMTAP	95	192	0
NMTAP	95	216	7
NMTAP	95	240	0
NMTAP	95	264	7
NMTAP	95	288	1
NMTAP	95	312	6
NMTAP	95	336	1
NMTAP	95	360	6
BRHLD	96	0	0	192
NMSTR	96	192	7
NMSI_	96	192	7	96	48	3
BRTAP	96	288	2
NMHLD	97	0	1	384
NMTAP	97	192	3
NMTAP	97	288	4
NMHLD	98	0	6	384
NMTAP	98	192	4
NMTAP	98	288	3
NMHLD	99	0	2	384
NMTAP	99	96	3
NMTAP	99	192	3
NMTAP	99	288	4
NMHLD	100	0	5	288
NMTAP	100	96	4
NMTAP	100	192	4
NMTAP	100	288	3
NMTAP	101	0	6
NMTAP	101	48	6
NMTAP	101	96	4
NMTAP	101	144	4
NMTAP	101	192	5
NMTAP	101	240	5
NMTAP	101	288	2
NMTAP	101	336	2
NMTAP	102	0	4
NMTAP	102	48	4
NMTAP	102	96	2
NMTAP	102	144	2
NMTAP	102	192	3
NMTAP	102	240	3
NMTAP	102	288	1
NMTAP	102	336	1
NMTAP	103	0	7
NMTAP	103	48	6
NMTAP	103	96	5
NMTAP	103	144	4
NMTAP	103	192	3
NMTAP	103	240	2
NMTAP	103	288	1
NMTAP	103	336	0
NMSTR	104	0	7
NMSI_	104	0	7	96	48	3
NMTAP	104	96	2
NMSTR	104	192	1
BRSI_	104	192	1	96	48	6
BRTAP	104	288	5

T_REC_TAP	376
T_REC_BRK	5
T_REC_XTP	3
T_REC_BXX	0
T_REC_HLD	99
T_REC_XHO	2
T_REC_BHO	1
T_REC_BXH	0
T_REC_STR	36
T_REC_BST	0
T_REC_XST	0
T_REC_XBS	2
T_REC_TTP	27
T_REC_THO	0
T_REC_SLD	37
T_REC_BSL	1
T_REC_ALL	589
T_NUM_TAP	442
T_NUM_BRK	9
T_NUM_HLD	101
T_NUM_SLD	37
T_NUM_ALL	589
T_JUDGE_TAP	449
T_JUDGE_HLD	436
T_JUDGE_SLD	38
T_JUDGE_ALL	923
TTM_EACHPAIRS	108
TTM_SCR_TAP	221000
TTM_SCR_BRK	23400
TTM_SCR_HLD	101000
TTM_SCR_SLD	55500
TTM_SCR_ALL	400900
TTM_SCR_S	388000
TTM_SCR_SS	400000
TTM_RAT_ACV	10022

