VERSION	0.00.00	1.04.00
FES_MODE	0
BPM_DEF	175.000	175.000	175.000	175.000
MET_DEF	4	4
RESOLUTION	384
CLK_DEF	384
COMPATIBLE_CODE	MA2

BPM	0	0	175.000
MET	0	0	4	4

NMTAP	1	0	0
NMTAP	1	24	7
NMTAP	1	48	0
NMTAP	1	96	2
NMTAP	1	144	2
NMTAP	1	192	4
NMTAP	1	240	3
NMSTR	1	288	5
NMSI_	1	288	5	96	48	3
NMTAP	1	336	4
NMHLD	2	0	2	768
BXTAP	2	0	5
NMTAP	2	96	3
NMTAP	2	192	3
NMTAP	2	288	3
NMTAP	3	0	1
NMTAP	3	96	0
NMTAP	3	192	7
NMTAP	3	288	6
NMHLD	4	0	5	768
NMTAP	4	96	4
NMTAP	4	192	4
NMTAP	4	288	4
NMTAP	5	0	6
NMTAP	5	96	7
NMTAP	5	192	0
NMTAP	5	288	1
NMHLD	6	0	2	384
NMTAP	6	96	3
NMTAP	6	192	3
NMTAP	6	288	4
NMHLD	7	0	5	384
NMTAP	7	96	4
NMTAP	7	192	4
NMTAP	7	288	3
NMHLD	8	0	2	384
NMTAP	8	96	3
NMTAP	8	192	3
NMTAP	8	288	4
NMHLD	9	0	5	192
NMTAP	9	96	4
NMTAP	9	192	4
EXTAP	9	288	3
EXTAP	9	288	4
EXTAP	9	336	3
EXTAP	9	336	4
EXHLD	10	0	2	72
NMTAP	10	72	3
NMTAP	10	96	2
NMTAP	10	144	3
NMHLD	10	192	1	72
NMTAP	10	264	3
NMTAP	10	288	1
NMTAP	10	336	3
NMHLD	11	0	0	72
NMTAP	11	72	3
NMTAP	11	96	0
NMTAP	11	144	3
NMTAP	11	192	1
NMTAP	11	240	2
NMTAP	11	288	3
NMTAP	11	336	4
NMTAP	12	0	2
NMHLD	12	0	5	72
NMTAP	12	72	4
NMTAP	12	96	5
NMTAP	12	144	4
NMHLD	12	192	6	72
NMTAP	12	264	4
NMTAP	12	288	6
NMTAP	12	336	4
NMHLD	13	0	7	72
NMTAP	13	72	4
NMTAP	13	96	7
NMTAP	13	144	4
NMTAP	13	192	6
NMTAP	13	240	5
NMTAP	13	288	4
NMTAP	13	336	3
NMTAP	14	0	5
NMTAP	14	48	3
NMTAP	14	48	4
NMTAP	14	96	2
NMTAP	14	144	3
NMTAP	14	144	4
NMTAP	14	192	6
NMTAP	14	240	4
NMTAP	14	240	5
NMTAP	14	288	1
NMTAP	14	336	2
NMTAP	14	336	3
NMTAP	15	0	7
NMTAP	15	48	4
NMTAP	15	48	6
NMTAP	15	96	0
NMTAP	15	144	1
NMTAP	15	144	3
NMTAP	15	192	6
NMTAP	15	240	0
NMTAP	15	240	7
NMTAP	15	288	1
NMTAP	15	336	0
NMTAP	15	336	7
NMTAP	16	0	1
NMTAP	16	24	6
NMTAP	16	48	1
NMTAP	16	72	6
NMTAP	16	96	2
NMTAP	16	120	5
NMTAP	16	144	2
NMTAP	16	168	5
NMTAP	16	192	3
NMTAP	16	216	4
NMTAP	16	240	3
NMTAP	16	264	4
NMTAP	16	288	2
NMTAP	16	312	5
NMTAP	16	336	1
NMTAP	16	360	6
EXHLD	17	0	0	192
NMTTP	17	96	6	D	0	M1
NMTTP	17	144	0	C	0	M1
NMTTP	17	192	2	D	0	M1
EXSTR	17	288	3
NMSI_	17	288	3	96	48	0
NMSTR	18	0	0
BRSI_	18	0	0	96	48	3
BRTAP	18	96	7
NMTAP	18	192	7
NMTAP	18	240	6
NMTAP	18	264	4
NMTAP	18	288	6
NMTAP	18	336	2
NMTAP	19	0	2
NMTAP	19	48	1
NMTAP	19	72	3
NMTAP	19	96	1
NMTAP	19	144	5
NMTAP	19	192	6
NMTAP	19	240	6
NMTAP	19	288	3
NMTAP	19	288	5
NMTAP	19	336	4
NMTAP	20	0	2
NMTAP	20	0	3
NMTAP	20	48	1
NMTAP	20	72	3
NMTAP	20	96	1
NMTAP	20	144	5
NMTAP	20	192	5
NMTAP	20	240	6
NMTAP	20	264	4
NMTAP	20	288	6
NMTAP	20	336	2
NMTAP	21	0	2
NMTAP	21	48	1
NMTAP	21	72	3
NMTAP	21	96	1
NMTAP	21	144	2
NMTAP	21	144	4
NMHLD	21	192	2	96
NMSTR	21	192	4
NMSUL	21	192	4	96	48	7
NMSTR	22	0	2
NMSI_	22	0	2	96	48	4
NMTAP	22	48	2
NMSTR	22	96	6
NMSI_	22	96	6	96	48	0
NMTAP	22	144	6
NMSTR	22	192	1
NMSI_	22	192	1	96	48	5
NMTAP	22	240	1
EXTAP	22	288	5
NMTAP	22	336	6
NMSTR	23	0	7
NMSI_	23	0	7	96	48	1
NMTAP	23	48	7
NMSTR	23	96	3
NMSI_	23	96	3	96	48	5
NMTAP	23	144	3
NMSTR	23	192	6
NMSI_	23	192	6	96	48	2
NMTAP	23	240	6
EXTAP	23	288	2
NMTAP	23	336	1
NMSTR	24	0	0
NMSI_	24	0	0	96	48	3
NMSTR	24	96	3
NMSI_	24	96	3	96	48	6
NMSTR	24	192	6
NMSI_	24	192	6	96	48	1
NMTAP	24	240	5
EXSTR	24	288	4
BRSV_	24	288	4	96	48	3
BRSV_	24	288	4	96	48	5
CNSI_	25	48	3	0	48	1
CNSI_	25	48	5	0	48	7
NMTAP	25	192	0
BRTAP	25	288	1
BRTAP	25	288	7
NMHLD	26	0	4	48
NMHLD	26	0	6	48
NMHLD	26	96	3	48
NMHLD	26	96	5	48
NMHLD	26	192	2	48
NMHLD	26	192	4	48
NMHLD	26	288	1	48
NMHLD	26	288	3	48
NMHLD	27	0	0	48
NMHLD	27	0	1	48
NMHLD	27	96	1	48
NMHLD	27	96	2	48
NMHLD	27	192	2	48
NMHLD	27	192	3	48
NMHLD	27	288	3	48
NMHLD	27	288	4	48
NMHLD	28	0	5	48
NMHLD	28	0	7	48
NMHLD	28	96	0	48
NMHLD	28	96	6	48
NMHLD	28	192	1	48
NMHLD	28	192	7	48
NMSTR	28	288	0
NMSI_	28	288	0	96	48	5
NMSTR	28	288	1
NMSI_	28	288	1	96	48	4
CNSCL	29	48	4	0	48	2
CNSCR	29	48	5	0	48	7
NMTAP	29	192	3
NMTAP	29	192	5
NMTAP	29	240	7
NMTAP	29	264	0
NMSTR	29	288	7
NMSI_	29	288	7	96	48	2
NMTAP	29	336	1
NMHLD	30	0	3	576
NMSTR	30	0	7
NMSI_	30	0	7	96	48	4
NMSTR	30	96	7
NMSCR	30	96	7	96	48	2
NMSTR	30	192	7
NMSCL	30	192	7	96	48	4
NMSTR	30	288	7
NMSI_	30	288	7	96	48	2
NMSTR	31	0	7
NMSI_	31	0	7	96	48	4
NMSTR	31	96	7
BRSCL	31	96	7	96	96	2
BXTAP	31	192	7
NMSTR	31	288	0
NMSI_	31	288	0	96	48	5
NMSTR	32	0	0
NMSI_	32	0	0	96	48	3
NMHLD	32	0	4	288
NMSTR	32	96	0
NMSCL	32	96	0	96	48	5
NMSTR	32	192	0
NMSCR	32	192	0	96	48	3
NMTAP	32	288	0
NMTTP	33	0	5	A	1	M1
NMTTP	33	48	6	A	1	M1
NMTTP	33	96	7	A	1	M1
BRTAP	33	192	2
BRTAP	33	240	1
NMTAP	33	288	0
NMSTR	33	288	7
NMSI_	33	288	7	96	48	2
NMHLD	34	0	3	480
NMSTR	34	0	7
NMSI_	34	0	7	96	48	4
NMSTR	34	96	7
NMSCR	34	96	7	96	48	2
NMSTR	34	192	7
NMSCL	34	192	7	96	48	4
NMSTR	34	288	7
NMSI_	34	288	7	96	48	2
NMSTR	35	0	7
NMSI_	35	0	7	96	48	4
NMTAP	35	96	7
EXTAP	35	192	4
EXTAP	35	216	5
EXTAP	35	240	6
NMSTR	35	288	0
NMSCL	35	288	0	96	48	5
NMSTR	36	0	0
NMSCR	36	0	0	96	48	3
NMHLD	36	0	4	192
NMSTR	36	96	0
NMSI_	36	96	0	96	48	5
NMSTR	36	192	0
NMSI_	36	192	0	96	48	3
NMTAP	36	288	0
NMSTR	36	288	4
NMSCR	36	288	4	96	96	0
NMSTR	37	0	0
NMSCR	37	0	0	96	96	4
NMSTR	37	96	4
BRSCR	37	96	4	96	96	0
NMTAP	37	192	0
EXTAP	37	288	4
EXSTR	38	0	6
BRSI_	38	0	6	96	48	4
EXSTR	38	0	7
BRSI_	38	0	7	96	48	3
EXSTR	38	96	6
NMSI_	38	96	6	96	48	2
EXSTR	38	96	7
NMSI_	38	96	7	96	48	1
EXSTR	38	192	6
BRSI_	38	192	6	96	48	4
EXSTR	38	192	7
BRSI_	38	192	7	96	48	3
EXSTR	38	288	6
NMSI_	38	288	6	96	48	2
EXSTR	38	288	7
NMSI_	38	288	7	96	48	1
EXSTR	39	0	6
BRSI_	39	0	6	96	48	4
EXSTR	39	0	7
BRSI_	39	0	7	96	48	3
EXTAP	39	96	6
EXTAP	39	96	7
EXHLD	39	192	5	48
EXHLD	39	240	4	48
EXHLD	39	288	3	48
EXTAP	39	336	2
EXSTR	40	0	0
BRSI_	40	0	0	96	48	4
EXSTR	40	0	1
BRSI_	40	0	1	96	48	3
EXSTR	40	96	0
NMSI_	40	96	0	96	48	6
EXSTR	40	96	1
NMSI_	40	96	1	96	48	5
EXSTR	40	192	0
BRSI_	40	192	0	96	48	4
EXSTR	40	192	1
BRSI_	40	192	1	96	48	3
EXTAP	40	288	0
EXTAP	40	288	1
NMSTR	41	0	4
NMSUR	41	0	4	96	48	0
NMTAP	41	48	3
NMTAP	41	48	5
NMSTR	41	192	2
NMSUL	41	192	2	96	48	6
NMTAP	41	240	1
NMTAP	41	240	3
EXSTR	42	0	4
BRSI_	42	0	4	96	48	0
EXSTR	42	0	5
BRSI_	42	0	5	96	48	7
EXSTR	42	96	4
NMSI_	42	96	4	96	48	2
EXSTR	42	96	5
NMSI_	42	96	5	96	48	1
EXSTR	42	192	4
BRSI_	42	192	4	96	48	0
EXSTR	42	192	5
BRSI_	42	192	5	96	48	7
EXSTR	42	288	4
NMSI_	42	288	4	96	48	2
EXSTR	42	288	5
NMSI_	42	288	5	96	48	1
EXSTR	43	0	4
BRSI_	43	0	4	96	48	0
EXSTR	43	0	5
BRSI_	43	0	5	96	48	7
EXTAP	43	96	4
EXTAP	43	96	5
NMTHO	43	192	0	96	C	0	M1
NMTTP	43	288	3	B	0	M1
NMTTP	43	288	6	B	0	M1
NMTAP	44	0	1
NMTAP	44	24	0
NMTAP	44	48	1
NMTAP	44	72	0
NMTAP	44	96	2
NMTAP	44	120	7
NMTAP	44	144	2
NMTAP	44	168	7
NMTAP	44	192	3
NMTAP	44	216	6
NMTAP	44	240	3
NMTAP	44	264	6
NMTAP	44	288	4
NMTAP	44	312	5
NMTAP	44	336	4
NMTAP	44	360	5
EXTAP	45	0	4
EXTAP	45	16	3
EXTAP	45	32	2
EXTAP	45	48	1
EXTAP	45	64	0
EXTAP	45	80	7
EXTAP	45	96	6
EXTAP	45	112	5
EXTAP	45	128	4
EXTAP	45	144	3
EXTAP	45	160	2
EXTAP	45	176	1
NMTTP	45	192	5	A	0	M1
NMTTP	45	204	6	D	0	M1
NMTTP	45	216	6	A	0	M1
NMTTP	45	228	7	D	0	M1
NMTTP	45	240	7	A	0	M1
NMTTP	45	252	0	D	0	M1
NMTTP	45	264	0	A	0	M1
NMTTP	45	276	1	D	0	M1
NMTTP	45	288	1	A	0	M1
NMTTP	45	300	2	D	0	M1
NMTTP	45	312	2	A	0	M1
NMTTP	45	324	3	D	0	M1
NMTTP	45	336	3	A	0	M1
NMTTP	45	348	4	D	0	M1
NMTTP	45	360	4	A	0	M1
NMTTP	45	372	5	D	0	M1
BXHLD	46	0	0	768
NMTTP	46	0	5	A	1	M1
NMHLD	50	0	2	336
NMTAP	50	336	4
NMHLD	51	0	5	336
NMTAP	51	336	4
NMHLD	52	0	3	624
NMTAP	52	336	4
NMHLD	53	0	4	240
NMTAP	53	288	3
NMTAP	53	288	4
NMHLD	54	0	4	384
NMTTP	54	96	2	B	0	M1
NMTTP	54	192	4	B	0	M1
NMTTP	54	288	5	D	0	M1
NMHLD	55	0	3	384
NMTTP	55	96	5	B	0	M1
NMTTP	55	192	3	B	0	M1
NMTTP	55	288	3	D	0	M1
NMHLD	56	0	5	384
NMTTP	56	96	4	B	0	M1
NMTTP	56	192	5	B	0	M1
NMTTP	56	288	6	D	0	M1
NMHLD	57	0	2	384
NMTTP	57	96	3	B	0	M1
NMTTP	57	192	2	B	0	M1
NMTTP	57	288	2	D	0	M1
NMHLD	58	0	6	384
NMTTP	58	96	4	B	0	M1
NMTTP	58	192	6	B	0	M1
NMTTP	58	288	7	D	0	M1
NMHLD	59	0	1	384
NMTTP	59	96	3	B	0	M1
NMTTP	59	192	1	B	0	M1
NMTTP	59	288	1	D	0	M1
NMHLD	60	0	7	384
NMTTP	60	96	5	B	0	M1
NMTTP	60	192	7	B	0	M1
NMTTP	60	288	0	D	0	M1
NMHLD	61	0	0	384
NMTTP	61	96	2	B	0	M1
NMTTP	61	192	0	B	0	M1
NMTTP	61	288	0	D	0	M1
NMSTR	62	0	7
NMSI_	62	0	7	96	48	5
NMSTR	62	96	0
NMSI_	62	96	0	96	48	4
EXTAP	62	96	7
EXTAP	62	192	0
NMSTR	62	192	1
NMSI_	62	192	1	96	48	3
EXTAP	62	288	1
NMTAP	62	288	5
NMSTR	63	0	6
NMSI_	63	0	6	96	48	4
EXTAP	63	96	6
NMSTR	63	96	7
NMSI_	63	96	7	96	48	3
NMSTR	63	192	0
NMSI_	63	192	0	96	48	2
EXTAP	63	192	7
EXTAP	63	288	0
NMSTR	63	288	4
NMSI_	63	288	4	96	48	1
NMSTR	64	0	3
NMSI_	64	0	3	96	48	6
EXTAP	64	0	4
EXTAP	64	96	3
NMSTR	64	96	5
NMSI_	64	96	5	96	48	1
NMSTR	64	192	2
NMSI_	64	192	2	96	48	6
EXTAP	64	192	5
EXTAP	64	288	2
NMSTR	64	288	7
NMSI_	64	288	7	96	48	2
NMSTR	65	0	0
NMSI_	65	0	0	96	48	5
EXTAP	65	0	7
EXTAP	65	96	0
EXSTR	65	192	3
BRSSR	65	192	3	96	48	7
EXSTR	65	192	4
BRSSL	65	192	4	96	48	0
EXTAP	66	0	1
NMTAP	66	48	0
NMTAP	66	96	7
NMTAP	66	144	6
NMTAP	66	192	4
NMTAP	66	192	5
NMTAP	66	240	3
NMTAP	66	288	2
NMTAP	66	336	1
NMTAP	67	0	0
NMTAP	67	0	7
NMTAP	67	48	1
NMTAP	67	96	2
NMTAP	67	144	3
NMTAP	67	192	4
NMTAP	67	240	5
NMTAP	67	288	6
NMTAP	67	336	7
NMTAP	68	0	7
NMTAP	68	24	0
NMTAP	68	48	7
NMTAP	68	72	0
NMTAP	68	96	6
NMTAP	68	120	1
NMTAP	68	144	5
NMTAP	68	168	2
NMTAP	68	192	4
NMTAP	68	216	3
NMTAP	68	240	5
NMTAP	68	264	2
NMTAP	68	288	4
NMTAP	68	312	3
NMTAP	68	336	6
NMTAP	68	360	1
BXHLD	69	0	7	192
NMSTR	69	96	0
NMSI_	69	96	0	96	48	4
BRTAP	69	192	0
NMTTP	69	288	3	B	0	M1
NMTTP	69	288	4	B	1	M1
NMTTP	69	288	5	B	0	M1
EXTAP	70	0	0
NMTAP	70	24	7
NMTAP	70	48	1
NMTAP	70	72	6
NMSTR	70	96	2
NMSI_	70	96	2	96	48	7
NMSTR	70	144	4
NMSI_	70	144	4	96	48	0
NMSTR	70	192	2
NMSUR	70	192	2	96	48	7
NMTAP	70	240	4
NMTAP	70	288	2
EXTAP	71	0	6
NMTAP	71	24	3
NMTAP	71	48	5
NMTAP	71	72	3
NMSTR	71	96	4
NMSI_	71	96	4	96	48	6
NMSTR	71	144	2
NMSI_	71	144	2	96	48	6
NMSTR	71	192	4
NMSV_	71	192	4	96	48	7
NMTAP	71	240	2
NMTAP	71	288	4
EXTAP	72	0	0
NMTAP	72	24	7
NMTAP	72	48	2
NMTAP	72	72	4
NMSTR	72	96	1
NMSCR	72	96	1	96	48	3
NMTAP	72	144	5
NMSTR	72	192	1
NMSI_	72	192	1	96	48	4
NMTAP	72	240	6
NMTAP	72	288	1
CNSI_	72	336	4	0	48	7
NMTAP	72	336	5
NMTAP	73	0	5
NMTAP	73	72	1
NMTAP	73	72	4
NMTAP	73	144	2
NMTAP	73	144	7
NMSTR	73	192	0
BRSI_	73	192	0	96	48	3
NMTAP	73	192	1
BRTAP	73	288	3
EXTAP	74	0	7
NMTAP	74	24	2
NMTAP	74	48	6
NMTAP	74	72	3
NMSTR	74	96	5
NMSI_	74	96	5	96	48	0
NMSTR	74	144	3
NMSI_	74	144	3	96	48	7
NMSTR	74	192	5
NMSUL	74	192	5	96	48	0
NMTAP	74	240	3
NMTAP	74	288	5
EXTAP	75	0	1
NMTAP	75	24	4
NMTAP	75	48	2
NMTAP	75	72	4
NMSTR	75	96	3
NMSI_	75	96	3	96	48	1
NMSTR	75	144	5
NMSI_	75	144	5	96	48	1
NMSTR	75	192	3
NMSV_	75	192	3	96	48	0
NMTAP	75	240	5
NMTAP	75	288	3
EXTAP	76	0	7
NMTAP	76	24	0
NMTAP	76	48	5
NMTAP	76	72	3
NMSTR	76	96	6
NMSCL	76	96	6	96	48	4
NMTAP	76	144	2
NMSTR	76	192	6
NMSI_	76	192	6	96	48	3
NMTAP	76	240	1
NMTAP	76	288	6
NMTAP	76	336	2
CNSI_	76	336	3	0	48	0
NMTAP	77	0	2
NMTAP	77	72	3
NMTAP	77	72	5
NMTAP	77	144	1
NMTAP	77	144	7
NMSTR	77	192	1
BRSV_	77	192	1	96	48	3
NMSTR	77	192	7
BRSV_	77	192	7	96	48	5
EXTAP	78	0	0
NMTAP	78	24	6
NMTAP	78	48	0
NMTAP	78	72	6
NMHLD	78	96	2	48
NMTAP	78	144	0
NMHLD	78	192	5	48
NMTAP	78	240	7
NMSTR	78	288	3
NMSLL	78	288	3	96	48	6
NMTAP	78	336	5
NMHLD	79	0	6	288
CNSCL	79	48	6	0	48	4
CNSSR	79	96	4	0	192	0
EXTAP	80	0	5
NMTAP	80	24	2
NMTAP	80	48	5
NMTAP	80	72	2
NMHLD	80	96	6	48
NMTAP	80	144	4
NMHLD	80	192	1	48
NMTAP	80	240	3
NMSTR	80	288	7
NMSUL	80	288	7	96	96	6
NMTAP	80	336	4
NMHLD	81	0	2	288
CNSCL	81	96	6	0	192	0
NMTAP	82	0	1
NMHLD	82	0	7	48
NMTAP	82	48	1
NMTAP	82	96	0
NMHLD	82	96	6	48
NMTAP	82	144	0
NMHLD	82	192	5	48
NMTAP	82	192	7
NMTAP	82	240	7
NMHLD	82	288	4	48
NMTAP	82	288	6
NMTAP	82	336	6
NMHLD	83	0	3	48
NMTAP	83	0	5
NMTAP	83	48	5
NMHLD	83	96	2	48
NMTAP	83	96	4
NMTAP	83	144	4
NMHLD	83	192	1	48
NMTAP	83	192	3
NMTAP	83	240	3
NMSTR	83	288	0
NMSCL	83	288	0	96	192	1
NMSCR	83	288	0	96	192	7
NMTAP	83	288	2
NMTAP	83	336	0
NMTAP	84	288	0
NMTAP	84	288	7
BXHLD	85	0	3	192
BXTAP	85	0	6
BRSTR	85	96	4
BRSI_	85	96	4	96	48	0
BRTAP	85	144	5
BRTAP	85	192	4
NMTTP	85	288	0	E	1	M1
NMTTP	85	288	1	E	0	M1
NMTTP	85	288	7	E	0	M1
EXTAP	86	0	2
NMTAP	86	24	3
NMTAP	86	48	0
NMTAP	86	72	7
NMSTR	86	96	1
NMSI_	86	96	1	96	48	4
NMSTR	86	144	0
NMSCL	86	144	0	96	48	5
NMSTR	86	192	1
NMSUL	86	192	1	96	48	5
NMTAP	86	240	0
NMTAP	86	288	1
EXTAP	87	0	5
NMTAP	87	24	4
NMTAP	87	48	7
NMTAP	87	72	0
NMSTR	87	96	6
NMSI_	87	96	6	96	48	3
NMSTR	87	144	7
NMSCR	87	144	7	96	48	2
NMSTR	87	192	6
NMSUR	87	192	6	96	48	2
NMTAP	87	240	7
NMTAP	87	288	6
EXTAP	88	0	2
NMTAP	88	24	3
NMTAP	88	48	0
NMTAP	88	72	7
NMHLD	88	96	1	48
NMTAP	88	144	4
NMTAP	88	168	3
NMHLD	88	192	5	144
EXTAP	88	240	4
EXTAP	88	264	3
EXTAP	88	288	2
EXTAP	88	312	1
EXTAP	88	336	0
NMTAP	89	0	0
NMTAP	89	72	2
NMTAP	89	72	4
NMTAP	89	144	6
NMTAP	89	144	7
NMSTR	89	192	6
BRSI_	89	192	6	96	48	3
NMSTR	89	192	7
BRSI_	89	192	7	96	48	2
NMTAP	89	288	6
NMTAP	89	288	7
EXTAP	90	0	2
NMTAP	90	24	3
NMTAP	90	48	0
NMTAP	90	72	7
NMSTR	90	96	1
NMSI_	90	96	1	96	48	5
NMSTR	90	144	0
NMSI_	90	144	0	96	48	4
NMSTR	90	192	1
NMSCR	90	192	1	96	48	4
NMTAP	90	240	0
NMTAP	90	288	1
EXTAP	91	0	5
NMTAP	91	24	4
NMTAP	91	48	7
NMTAP	91	72	0
NMSTR	91	96	6
NMSI_	91	96	6	96	48	2
NMSTR	91	144	7
NMSI_	91	144	7	96	48	3
NMSTR	91	192	6
NMSCL	91	192	6	96	48	3
NMTAP	91	240	7
NMTAP	91	288	6
NMTAP	92	0	2
NMTAP	92	24	3
NMTAP	92	48	2
EXTAP	92	96	6
EXTAP	92	120	5
EXTAP	92	144	4
EXTAP	92	168	1
EXTAP	92	192	2
EXTAP	92	216	3
EXTAP	92	240	7
EXTAP	92	264	6
EXTAP	92	288	5
EXTAP	92	312	0
EXTAP	92	336	1
EXTAP	92	360	2
EXSTR	93	0	3
NMSCR	93	0	3	96	96	7
NMSTR	93	96	7
NMSCR	93	96	7	96	96	3
NMTAP	93	192	3
BRTAP	93	288	7
EXTAP	94	0	6
NMTAP	94	24	7
NMTAP	94	48	4
NMTAP	94	72	3
NMSTR	94	96	5
NMSI_	94	96	5	96	48	0
NMSTR	94	144	4
NMSCL	94	144	4	96	48	1
NMSTR	94	192	5
NMSUL	94	192	5	96	48	1
NMTAP	94	240	4
NMTAP	94	288	5
EXTAP	95	0	1
NMTAP	95	24	0
NMTAP	95	48	3
NMTAP	95	72	4
NMSTR	95	96	2
NMSI_	95	96	2	96	48	7
NMSTR	95	144	3
NMSCR	95	144	3	96	48	6
NMSTR	95	192	2
NMSUR	95	192	2	96	48	6
NMTAP	95	240	3
NMTAP	95	288	2
EXTAP	96	0	6
NMTAP	96	24	7
NMTAP	96	48	4
NMTAP	96	72	3
NMHLD	96	96	5	48
NMTAP	96	144	2
NMTAP	96	168	3
NMHLD	96	192	1	144
EXTAP	96	240	4
EXTAP	96	264	5
EXTAP	96	288	6
EXTAP	96	312	7
EXTAP	96	336	0
NMTAP	97	0	0
NMTAP	97	72	3
NMTAP	97	72	5
NMTAP	97	144	0
NMTAP	97	144	1
NMSTR	97	192	0
BRSI_	97	192	0	96	48	5
NMSTR	97	192	1
BRSI_	97	192	1	96	48	4
NMTAP	97	288	0
NMTAP	97	288	1
NMTAP	98	0	4
NMTAP	98	0	6
NMTAP	98	48	7
NMTAP	98	96	4
NMTAP	98	96	5
NMTAP	98	144	3
NMTAP	98	192	2
NMTAP	98	192	4
NMTAP	98	240	7
NMTAP	98	288	3
NMTAP	98	288	4
NMTAP	98	336	2
NMTAP	99	0	1
NMTAP	99	0	3
NMTAP	99	48	0
NMTAP	99	96	2
NMTAP	99	96	3
NMTAP	99	144	4
NMTAP	99	192	3
NMTAP	99	192	5
NMTAP	99	240	0
NMTAP	99	288	3
NMTAP	99	288	4
NMTAP	99	336	5
BRTAP	100	0	3
NMTAP	100	24	4
NMTAP	100	48	2
NMTAP	100	72	5
NMTAP	100	96	1
NMTAP	100	120	6
NMTAP	100	144	0
NMTAP	100	168	7
BRTAP	100	192	0
NMTAP	100	216	7
NMTAP	100	240	1
NMTAP	100	264	6
NMTAP	100	288	2
NMTAP	100	312	5
NMTAP	100	336	3
NMTAP	100	360	4
BXTAP	101	0	2
EXTAP	101	16	1
EXTAP	101	32	0
EXTAP	101	48	7
EXTAP	101	64	6
EXTAP	101	80	5
EXTAP	101	96	4
EXTAP	101	112	3
EXTAP	101	128	2
EXTAP	101	144	1
EXTAP	101	160	0
EXTAP	101	176	7
NMTTP	101	192	3	A	0	M1
NMTTP	101	204	4	D	0	M1
NMTTP	101	216	4	A	0	M1
NMTTP	101	228	5	D	0	M1
NMTTP	101	240	5	A	0	M1
NMTTP	101	252	6	D	0	M1
NMTTP	101	264	6	A	0	M1
NMTTP	101	276	7	D	0	M1
NMTTP	101	288	7	A	0	M1
NMTTP	101	300	0	D	0	M1
NMTTP	101	312	0	A	0	M1
NMTTP	101	324	1	D	0	M1
NMTTP	101	336	1	A	0	M1
NMTTP	101	348	2	D	0	M1
NMTTP	101	360	2	A	0	M1
NMTTP	101	372	3	D	0	M1
NMTTP	102	0	3	A	1	M1
BRTAP	102	0	7

T_REC_TAP	382
T_REC_BRK	13
T_REC_XTP	91
T_REC_BXX	4
T_REC_HLD	67
T_REC_XHO	5
T_REC_BHO	0
T_REC_BXH	3
T_REC_STR	98
T_REC_BST	1
T_REC_XST	31
T_REC_XBS	0
T_REC_TTP	72
T_REC_THO	1
T_REC_SLD	101
T_REC_BSL	31
T_REC_ALL	900
T_NUM_TAP	674
T_NUM_BRK	52
T_NUM_HLD	73
T_NUM_SLD	101
T_NUM_ALL	900
T_JUDGE_TAP	692
T_JUDGE_HLD	288
T_JUDGE_SLD	132
T_JUDGE_ALL	1112
TTM_EACHPAIRS	101
TTM_SCR_TAP	337000
TTM_SCR_BRK	135200
TTM_SCR_HLD	73000
TTM_SCR_SLD	151500
TTM_SCR_ALL	696700
TTM_SCR_S	670800
TTM_SCR_SS	691500
TTM_RAT_ACV	10075

