VERSION	0.00.00	1.04.00
FES_MODE	0
BPM_DEF	175.000	175.000	175.000	175.000
MET_DEF	4	4
RESOLUTION	384
CLK_DEF	384
COMPATIBLE_CODE	MA2

BPM	0	0	175.000
MET	0	0	4	4

NMHLD	2	0	6	1536
NMTAP	2	96	4
NMTAP	2	192	4
NMTAP	2	288	4
NMTAP	3	0	4
NMTAP	3	96	4
NMTAP	3	192	4
NMTAP	3	288	4
NMTAP	4	0	5
NMTAP	4	96	5
NMTAP	4	192	5
NMTAP	4	288	5
NMTAP	5	0	4
NMTAP	5	96	4
NMTAP	5	192	4
NMTAP	5	288	4
NMHLD	6	0	1	1536
NMTAP	6	96	3
NMTAP	6	192	3
NMTAP	6	288	3
NMTAP	7	0	3
NMTAP	7	96	3
NMTAP	7	192	3
NMTAP	7	288	3
NMTAP	8	0	2
NMTAP	8	96	2
NMTAP	8	192	2
NMTAP	8	288	2
NMTAP	9	0	3
NMTAP	9	96	3
NMTAP	9	192	3
NMTAP	9	288	3
NMHLD	10	0	6	768
NMTAP	10	96	4
NMTAP	10	192	4
NMTAP	10	288	4
NMTAP	11	0	5
NMTAP	11	96	5
NMTAP	11	192	4
NMTAP	11	288	4
NMHLD	12	0	1	768
NMTAP	12	96	3
NMTAP	12	192	3
NMTAP	12	288	3
NMTAP	13	0	2
NMTAP	13	96	2
NMTAP	13	192	3
NMTAP	13	288	3
NMHLD	14	0	5	192
NMTAP	14	96	4
NMHLD	14	192	2	192
NMTAP	14	288	3
NMHLD	15	0	6	192
NMTAP	15	96	4
NMHLD	15	192	1	192
NMTAP	15	288	3
NMTAP	16	0	4
NMTAP	16	48	4
NMTAP	16	96	2
NMTAP	16	144	2
NMTAP	16	192	5
NMTAP	16	240	5
NMSTR	16	288	3
NMSCL	16	288	3	96	96	0
NMSCR	16	288	3	96	96	6
NMTAP	17	192	0
NMTAP	17	192	6
NMTAP	17	288	2
NMTAP	17	288	4
NMTAP	18	0	3
BRTAP	18	96	0
BRTAP	18	96	6
NMTAP	18	192	5
NMTAP	18	288	4
NMTAP	18	288	6
NMTAP	19	0	2
NMTAP	19	96	1
NMTAP	19	96	3
NMTAP	19	192	5
NMTAP	19	288	4
NMTAP	19	288	6
NMTAP	20	0	2
NMTAP	20	96	1
NMTAP	20	96	3
NMTAP	20	192	7
NMTAP	20	288	4
NMTAP	20	288	6
NMTAP	21	0	0
NMTAP	21	96	1
NMTAP	21	96	3
NMTAP	21	192	7
NMTAP	21	288	4
NMTAP	21	288	6
NMTAP	22	0	3
NMTAP	22	96	0
NMTAP	22	96	2
NMTAP	22	192	4
NMTAP	22	288	5
NMTAP	22	288	7
NMTAP	23	0	3
NMTAP	23	96	0
NMTAP	23	96	2
NMTAP	23	192	4
NMTAP	23	288	5
NMSTR	23	288	7
NMSCL	23	288	7	96	240	0
BRHLD	25	0	0	192
BRHLD	25	0	7	192
EXTAP	25	288	2
EXTAP	25	288	5
NMHLD	26	0	3	48
NMHLD	26	0	4	48
NMHLD	26	96	4	48
NMHLD	26	96	5	48
NMHLD	26	192	5	48
NMHLD	26	192	6	48
NMHLD	26	288	6	48
NMHLD	26	288	7	48
NMHLD	27	0	0	48
NMHLD	27	0	7	48
NMHLD	27	96	0	48
NMHLD	27	96	1	48
NMHLD	27	192	1	48
NMHLD	27	192	2	48
NMHLD	27	288	2	48
NMHLD	27	288	3	48
NMHLD	28	0	3	48
NMHLD	28	0	4	48
NMHLD	28	96	4	48
NMHLD	28	96	5	48
NMHLD	28	192	5	48
NMHLD	28	192	6	48
NMHLD	28	288	6	48
NMHLD	28	288	7	48
NMTAP	29	0	0
NMTAP	29	0	7
NMSTR	29	96	0
NMSI_	29	96	0	96	96	4
NMSTR	29	96	7
NMSI_	29	96	7	96	96	3
NMHLD	30	0	4	48
NMHLD	30	0	5	48
NMHLD	30	96	6	48
NMHLD	30	96	7	48
NMHLD	30	192	4	48
NMHLD	30	192	5	48
NMHLD	30	288	0	48
NMHLD	30	288	6	48
NMHLD	31	0	4	48
NMHLD	31	0	5	48
NMHLD	31	96	6	48
NMHLD	31	96	7	48
NMTAP	31	192	3
NMHLD	31	192	5	96
NMTAP	31	288	2
NMHLD	32	0	2	48
NMHLD	32	0	3	48
NMHLD	32	96	0	48
NMHLD	32	96	1	48
NMHLD	32	192	2	48
NMHLD	32	192	3	48
NMHLD	32	288	1	48
NMHLD	32	288	7	48
NMTAP	33	0	2
NMTAP	33	0	3
NMTAP	33	48	2
NMTAP	33	48	3
NMHLD	33	96	1	48
NMHLD	33	96	3	48
NMHLD	33	192	2	48
NMHLD	33	192	4	48
NMHLD	33	288	3	48
NMHLD	33	288	5	48
NMHLD	34	0	4	48
NMHLD	34	0	5	48
NMHLD	34	96	6	48
NMHLD	34	96	7	48
NMHLD	34	192	4	48
NMHLD	34	192	5	48
NMHLD	34	288	0	48
NMHLD	34	288	6	48
NMHLD	35	0	4	48
NMHLD	35	0	5	48
NMHLD	35	96	6	48
NMHLD	35	96	7	48
NMTAP	35	192	3
NMHLD	35	192	5	96
BRTAP	35	288	2
NMHLD	36	0	2	48
NMHLD	36	0	3	48
NMHLD	36	96	0	48
NMHLD	36	96	1	48
NMHLD	36	192	2	48
NMHLD	36	192	3	48
NMHLD	36	288	1	48
NMHLD	36	288	7	48
NMTAP	37	0	2
NMTAP	37	0	3
NMTAP	37	48	2
NMTAP	37	48	3
NMHLD	37	96	1	48
NMHLD	37	96	3	48
NMHLD	37	192	2	48
NMHLD	37	192	4	48
NMTAP	37	288	3
NMTAP	37	288	5
NMHLD	38	0	4	48
NMHLD	38	0	6	48
NMHLD	38	96	4	48
NMHLD	38	96	6	48
NMHLD	38	192	0	48
NMHLD	38	192	7	48
NMHLD	38	288	0	48
NMHLD	38	288	7	48
NMHLD	39	0	1	48
NMHLD	39	0	3	48
NMSTR	39	96	1
NMSI_	39	96	1	96	96	4
NMSTR	39	96	3
NMSI_	39	96	3	96	96	6
NMHLD	40	0	3	48
NMHLD	40	0	6	48
NMHLD	40	96	3	48
NMHLD	40	96	6	48
NMHLD	40	192	1	48
NMHLD	40	192	4	48
NMHLD	40	288	1	48
NMHLD	40	288	4	48
NMSTR	41	0	2
NMSI_	41	0	2	96	96	7
NMTAP	41	0	5
NMSTR	41	192	6
NMSI_	41	192	6	96	96	3
NMHLD	42	0	2	48
NMHLD	42	96	1	48
NMHLD	42	96	3	48
NMHLD	42	192	2	48
NMHLD	42	288	3	48
NMHLD	42	288	4	48
NMHLD	43	0	5	48
NMSTR	43	96	4
NMSI_	43	96	4	96	96	1
NMSTR	43	96	6
NMSI_	43	96	6	96	96	3
NMTAP	44	0	0
NMTAP	44	48	0
NMTAP	44	96	6
NMTAP	44	144	6
NMTAP	44	192	4
NMTAP	44	240	4
NMTAP	44	288	7
NMTAP	44	336	7
NMTAP	45	0	1
NMTAP	45	48	2
NMTAP	45	96	3
NMTAP	45	144	4
NMTAP	45	192	5
NMTAP	45	240	6
NMSTR	45	288	7
NMSCL	45	288	7	96	384	4
NMTTP	46	0	0	C	1	M1
CNSUL	47	0	4	0	384	3
CNSCL	48	0	3	0	384	0
NMSTR	49	288	0
NMSCR	49	288	0	96	384	3
CNSUR	51	0	3	0	384	4
CNSCR	52	0	4	0	384	7
NMTHO	54	0	0	2880	C	1	M1
NMTTP	54	0	1	B	0	M1
NMTTP	54	0	5	B	0	M1
NMTTP	54	192	0	B	0	M1
NMTTP	55	0	7	B	0	M1
NMTTP	55	192	6	B	0	M1
NMTTP	56	0	5	B	0	M1
NMTTP	56	192	4	B	0	M1
NMTTP	57	0	3	B	0	M1
NMTTP	57	192	2	B	0	M1
NMTTP	58	0	6	E	0	M1
NMTTP	58	96	7	E	0	M1
NMTTP	58	192	0	E	0	M1
NMTTP	58	288	1	E	0	M1
NMTTP	59	0	2	E	0	M1
NMTTP	59	96	3	E	0	M1
NMTTP	59	192	4	E	0	M1
NMTTP	59	288	5	E	0	M1
NMTTP	60	0	6	E	0	M1
NMTTP	60	96	7	E	0	M1
NMTTP	60	192	0	E	0	M1
NMTTP	60	288	1	E	0	M1
NMTTP	61	0	2	E	0	M1
NMTTP	61	96	3	E	0	M1
NMTTP	61	192	4	E	0	M1
NMTAP	62	0	6
NMHLD	62	96	6	672
NMTAP	62	192	4
NMTAP	62	288	4
NMTAP	63	0	5
NMTAP	63	96	5
NMTAP	63	192	7
NMTAP	63	288	7
NMTAP	64	0	0
NMHLD	64	96	0	480
NMTAP	64	192	2
NMTAP	64	288	2
NMTAP	65	0	3
NMTAP	65	96	3
NMTAP	65	192	4
BRTAP	65	288	3
BRTAP	65	288	5
NMTAP	66	0	2
NMTAP	66	48	2
NMTAP	66	96	4
NMTAP	66	144	4
NMTAP	66	192	3
NMTAP	66	240	3
NMTAP	66	288	5
NMTAP	66	336	5
NMTAP	67	0	4
NMTAP	67	48	4
NMTAP	67	96	6
NMTAP	67	144	6
NMTAP	67	192	1
NMTAP	67	240	1
NMTAP	67	288	5
NMTAP	67	336	5
NMTAP	68	0	3
NMTAP	68	24	4
NMTAP	68	48	3
NMTAP	68	72	4
NMTAP	68	96	3
NMTAP	68	120	4
NMTAP	68	144	3
NMTAP	68	168	4
NMTAP	68	192	2
NMTAP	68	216	5
NMTAP	68	240	2
NMTAP	68	264	5
NMTAP	68	288	2
NMTAP	68	312	5
NMTAP	68	336	2
NMTAP	68	360	5
NMHLD	69	0	3	192
NMSTR	69	192	7
BRSI_	69	192	7	96	48	3
BRTAP	69	288	2
NMTAP	70	0	0
NMTAP	70	48	0
NMSTR	70	96	6
NMSI_	70	96	6	96	48	3
NMSTR	70	192	2
NMSI_	70	192	2	96	48	7
EXTAP	70	288	4
NMTAP	71	0	5
NMTAP	71	48	5
NMSTR	71	96	1
NMSI_	71	96	1	96	48	4
NMSTR	71	192	7
NMSI_	71	192	7	96	48	3
EXTAP	71	288	2
NMTAP	72	0	0
NMTAP	72	48	0
NMSTR	72	96	6
NMSI_	72	96	6	96	48	3
NMSTR	72	192	2
NMSI_	72	192	2	96	48	7
EXTAP	72	288	4
EXTAP	73	0	6
EXTAP	73	0	7
NMTAP	73	96	4
NMTAP	73	96	5
NMTAP	73	192	2
NMTAP	73	192	3
NMTAP	73	288	0
NMTAP	73	288	1
NMTAP	74	0	7
NMTAP	74	48	7
NMSTR	74	96	1
NMSI_	74	96	1	96	48	4
NMSTR	74	192	5
NMSI_	74	192	5	96	48	0
EXTAP	74	288	3
NMTAP	75	0	2
NMTAP	75	48	2
NMSTR	75	96	6
NMSI_	75	96	6	96	48	3
NMSTR	75	192	0
NMSI_	75	192	0	96	48	4
EXTAP	75	288	5
NMTAP	76	0	7
NMTAP	76	48	7
NMSTR	76	96	1
NMSI_	76	96	1	96	48	4
NMSTR	76	192	5
NMSI_	76	192	5	96	48	0
EXTAP	76	288	3
EXTAP	77	0	0
EXTAP	77	0	1
NMTAP	77	96	2
NMTAP	77	96	3
NMTAP	77	192	4
NMTAP	77	192	5
NMTAP	77	288	6
NMTAP	77	288	7
NMTAP	78	0	0
NMTAP	78	48	0
NMSTR	78	96	6
NMSI_	78	96	6	96	48	3
NMSTR	78	192	2
NMSI_	78	192	2	96	48	7
NMSTR	78	288	4
NMSXR	78	288	4	96	240	5
EXHLD	79	0	0	384
NMTAP	80	0	7
NMTAP	80	48	7
NMSTR	80	96	1
NMSI_	80	96	1	96	48	4
NMSTR	80	192	5
NMSI_	80	192	5	96	48	0
NMSTR	80	288	3
NMSXL	80	288	3	96	240	2
EXHLD	81	0	7	384
NMSTR	82	0	0
NMSI_	82	0	0	96	48	4
NMSTR	82	96	7
NMSI_	82	96	7	96	48	5
NMSTR	82	192	1
NMSI_	82	192	1	96	48	3
NMTAP	82	288	6
NMSTR	83	0	7
NMSI_	83	0	7	96	48	3
NMSTR	83	96	0
NMSI_	83	96	0	96	48	2
NMSTR	83	192	6
NMSI_	83	192	6	96	48	4
NMSTR	83	288	1
NMSXR	83	288	1	96	240	4
EXHLD	84	0	5	384
EXTAP	85	0	4
NMTAP	85	144	0
NMTAP	85	144	1
NMSTR	85	192	0
BRSI_	85	192	0	96	48	5
NMSTR	85	192	1
BRSI_	85	192	1	96	48	4
NMTAP	86	0	6
NMTAP	86	48	6
NMTAP	86	96	4
NMTAP	86	144	7
NMTAP	86	192	2
NMTAP	86	240	2
NMTAP	86	288	3
NMTAP	86	336	3
NMSTR	87	0	0
NMSI_	87	0	0	96	48	3
NMSI_	87	0	0	96	48	5
NMSTR	87	192	7
NMSI_	87	192	7	96	48	2
NMSI_	87	192	7	96	48	4
NMTAP	88	0	6
NMTAP	88	48	6
NMTAP	88	96	2
NMTAP	88	144	7
NMTAP	88	192	0
NMTAP	88	240	0
NMTAP	88	288	3
NMTAP	88	336	3
NMHLD	89	0	2	72
NMHLD	89	72	0	72
NMHLD	89	144	7	72
NMHLD	89	216	5	72
NMTAP	89	288	3
NMTAP	90	0	1
NMTAP	90	48	1
NMTAP	90	96	3
NMTAP	90	144	0
NMTAP	90	192	7
NMTAP	90	240	7
NMTAP	90	288	4
NMTAP	90	336	4
NMSTR	91	0	7
NMSI_	91	0	7	96	48	2
NMSI_	91	0	7	96	48	4
NMSTR	91	192	0
NMSI_	91	192	0	96	48	3
NMSI_	91	192	0	96	48	5
NMTAP	92	0	2
NMTAP	92	48	2
NMTAP	92	96	4
NMTAP	92	144	1
NMTAP	92	192	5
NMTAP	92	240	5
NMTAP	92	288	4
NMTAP	92	336	6
NMTAP	93	0	0
NMTAP	93	0	7
NMTAP	93	48	1
NMTAP	93	96	2
NMTAP	93	144	3
NMTAP	93	192	4
NMTAP	93	240	5
NMTAP	93	288	6
NMTAP	93	288	7
NMTAP	94	0	1
NMTAP	94	48	1
NMTAP	94	96	0
NMTAP	94	144	2
NMTAP	94	192	6
NMTAP	94	240	6
NMTAP	94	288	4
NMTAP	94	336	4
NMSTR	95	0	7
NMSI_	95	0	7	96	48	2
NMSI_	95	0	7	96	48	4
NMSTR	95	192	3
NMSI_	95	192	3	96	48	0
NMSI_	95	192	3	96	48	6
NMTAP	96	0	1
NMTAP	96	48	1
NMTAP	96	96	0
NMTAP	96	144	2
NMTAP	96	192	7
NMTAP	96	240	7
NMTAP	96	288	4
NMTAP	96	336	4
NMHLD	97	0	5	72
NMHLD	97	72	7	72
NMHLD	97	144	0	72
NMHLD	97	216	2	72
NMTAP	97	288	4
NMTAP	98	0	3
NMTAP	98	48	3
NMTAP	98	96	2
NMTAP	98	144	2
NMTAP	98	192	1
NMTAP	98	240	1
NMTAP	98	288	0
NMTAP	98	336	0
NMTAP	99	0	7
NMTAP	99	48	7
NMTAP	99	96	6
NMTAP	99	144	6
NMTAP	99	192	5
NMTAP	99	240	5
NMTAP	99	288	4
NMTAP	99	336	4
NMTAP	100	0	3
NMTAP	100	24	4
NMTAP	100	48	3
NMTAP	100	72	4
NMTAP	100	96	3
NMTAP	100	120	4
NMTAP	100	144	3
NMTAP	100	168	4
NMTAP	100	192	2
NMTAP	100	216	5
NMTAP	100	240	2
NMTAP	100	264	5
NMTAP	100	288	2
NMTAP	100	312	5
NMTAP	100	336	2
NMTAP	100	360	5
BRSTR	101	0	3
NMSCL	101	0	3	96	288	4
NMTTP	102	0	0	C	1	M1

T_REC_TAP	288
T_REC_BRK	6
T_REC_XTP	13
T_REC_BXX	0
T_REC_HLD	120
T_REC_XHO	3
T_REC_BHO	2
T_REC_BXH	0
T_REC_STR	46
T_REC_BST	1
T_REC_XST	0
T_REC_XBS	0
T_REC_TTP	26
T_REC_THO	1
T_REC_SLD	51
T_REC_BSL	3
T_REC_ALL	560
T_NUM_TAP	373
T_NUM_BRK	12
T_NUM_HLD	124
T_NUM_SLD	51
T_NUM_ALL	560
T_JUDGE_TAP	380
T_JUDGE_HLD	351
T_JUDGE_SLD	54
T_JUDGE_ALL	785
TTM_EACHPAIRS	89
TTM_SCR_TAP	186500
TTM_SCR_BRK	31200
TTM_SCR_HLD	124000
TTM_SCR_SLD	76500
TTM_SCR_ALL	418200
TTM_SCR_S	404500
TTM_SCR_SS	417000
TTM_RAT_ACV	10028

