VERSION	0.00.00	1.04.00
FES_MODE	0
BPM_DEF	175.000	175.000	175.000	175.000
MET_DEF	4	4
RESOLUTION	384
CLK_DEF	384
COMPATIBLE_CODE	MA2

BPM	0	0	175.000
MET	0	0	4	4

NMTAP	2	0	1
NMTAP	2	96	1
NMTAP	2	192	1
NMTAP	3	0	2
NMTAP	3	96	2
NMTAP	3	192	2
NMTAP	4	0	3
NMTAP	4	96	3
NMTAP	4	192	3
NMTAP	5	0	4
NMTAP	5	0	5
NMTAP	6	0	6
NMTAP	6	96	6
NMTAP	6	192	6
NMTAP	7	0	5
NMTAP	7	96	5
NMTAP	7	192	5
NMTAP	8	0	4
NMTAP	8	96	4
NMTAP	8	192	4
NMTAP	9	0	2
NMTAP	9	0	3
EXTAP	10	96	0
EXTAP	10	96	1
NMTAP	10	288	0
NMTAP	10	288	1
NMTAP	11	96	2
NMTAP	11	96	3
NMTAP	11	288	2
NMTAP	11	288	3
NMTAP	12	96	4
NMTAP	12	96	5
NMTAP	12	288	4
NMTAP	12	288	5
NMTAP	13	96	6
NMTAP	13	96	7
NMTAP	13	288	6
NMTAP	13	288	7
EXTAP	14	0	6
NMTAP	14	96	6
NMTAP	14	192	5
NMTAP	14	288	5
NMTAP	15	0	4
NMTAP	15	96	4
NMTAP	15	192	3
NMTAP	15	288	3
NMTAP	16	0	2
NMTAP	16	96	2
NMTAP	16	192	1
NMTAP	16	288	1
BRTAP	17	0	0
BRTAP	17	0	7
NMHLD	18	0	1	192
NMHLD	18	192	2	192
NMHLD	19	0	3	192
NMTAP	19	192	4
NMHLD	20	0	6	192
NMHLD	20	192	5	192
NMHLD	21	0	4	192
NMTAP	21	192	3
NMHLD	22	0	2	192
NMHLD	22	192	1	192
NMHLD	23	0	0	192
NMTAP	23	192	7
NMHLD	24	0	5	192
NMHLD	24	192	6	192
NMHLD	25	0	7	192
NMTAP	25	192	0
NMTAP	26	0	6
NMTAP	26	0	7
NMTAP	26	96	6
NMTAP	26	96	7
NMTAP	26	192	4
NMTAP	26	192	5
NMTAP	26	288	4
NMTAP	26	288	5
NMTAP	27	0	2
NMTAP	27	0	3
NMTAP	27	96	2
NMTAP	27	96	3
NMTAP	27	192	0
NMTAP	27	192	1
NMTAP	27	288	0
NMTAP	27	288	1
NMTAP	28	0	6
NMTAP	28	0	7
NMTAP	28	96	6
NMTAP	28	96	7
NMTAP	28	192	4
NMTAP	28	192	5
NMTAP	28	288	4
NMTAP	28	288	5
NMHLD	29	0	3	192
NMHLD	29	0	4	192
NMTAP	30	0	1
NMTAP	30	96	1
NMTAP	30	192	2
NMTAP	30	288	2
NMTAP	31	0	3
NMTAP	31	96	3
NMTAP	31	192	4
NMTAP	31	192	5
NMTAP	32	0	6
NMTAP	32	96	6
NMTAP	32	192	5
NMTAP	32	288	5
NMTAP	33	0	4
NMTAP	33	96	4
NMTAP	33	192	2
NMTAP	33	192	3
NMTAP	34	0	2
NMTAP	34	96	2
NMTAP	34	192	1
NMTAP	34	288	1
NMTAP	35	0	0
NMTAP	35	96	0
NMTAP	35	192	6
NMTAP	35	192	7
NMTAP	36	0	5
NMTAP	36	96	5
NMTAP	36	192	6
NMTAP	36	288	6
NMTAP	37	0	7
NMTAP	37	96	7
NMTAP	37	192	0
NMTAP	37	192	1
NMTAP	38	0	1
NMTAP	38	96	2
NMTAP	38	192	3
NMTAP	38	288	4
NMHLD	39	0	5	192
NMTAP	39	192	4
NMTAP	40	0	6
NMTAP	40	96	5
NMTAP	40	192	4
NMTAP	40	288	3
NMHLD	41	0	2	192
NMTAP	41	192	3
NMTAP	42	0	2
NMTAP	42	96	1
NMTAP	42	192	0
NMTAP	42	288	7
NMHLD	43	0	6	192
NMTAP	43	192	7
NMTAP	44	0	5
NMTAP	44	96	6
NMTAP	44	192	7
NMTAP	44	288	0
NMHLD	45	0	1	192
EXTAP	45	192	0
NMSTR	46	0	0
NMSI_	46	0	0	96	192	5
NMSTR	46	0	1
NMSI_	46	0	1	96	192	4
NMSTR	48	0	3
NMSI_	48	0	3	96	192	0
NMSTR	48	0	4
NMSI_	48	0	4	96	192	7
NMSTR	50	0	6
NMSI_	50	0	6	96	192	3
NMSTR	50	0	7
NMSI_	50	0	7	96	192	2
NMSTR	52	0	3
NMSI_	52	0	3	96	192	0
NMSTR	52	0	4
NMSI_	52	0	4	96	192	7
NMSTR	54	0	1
NMSCR	54	0	1	96	192	4
NMSTR	55	0	5
NMSCR	55	0	5	96	192	0
NMSTR	56	0	1
NMSCR	56	0	1	96	192	4
NMTAP	57	0	5
NMTAP	57	96	6
NMTAP	57	192	0
NMTAP	57	192	7
NMSTR	58	0	6
NMSCL	58	0	6	96	192	3
NMSTR	59	0	2
NMSCL	59	0	2	96	192	7
NMSTR	60	0	6
NMSCL	60	0	6	96	192	3
NMTAP	61	0	2
NMTAP	61	96	1
NMTAP	61	192	0
NMTAP	61	192	7
NMTTP	62	0	1	B	0	L1
NMTTP	62	96	2	B	0	L1
NMTTP	62	192	3	B	0	L1
NMTTP	63	0	6	B	0	L1
NMTTP	63	96	5	B	0	L1
NMTTP	63	192	4	B	0	L1
NMTTP	64	0	0	B	0	L1
NMTTP	64	96	1	B	0	L1
NMTTP	64	192	2	B	0	L1
NMTTP	64	192	3	B	0	L1
NMTTP	65	0	7	B	0	L1
NMTTP	65	96	6	B	0	L1
NMTTP	65	192	4	B	0	L1
NMTTP	65	192	5	B	0	L1
NMTTP	66	0	1	E	0	L1
NMTTP	66	96	2	E	0	L1
NMTTP	66	192	3	E	0	L1
NMTTP	66	288	4	E	0	L1
NMTTP	67	0	5	E	0	L1
NMTTP	67	96	6	E	0	L1
NMTTP	67	192	7	E	0	L1
NMTTP	67	288	0	E	0	L1
NMTHO	68	0	0	384	C	1	L1
NMTAP	70	0	1
NMTAP	70	96	1
NMTAP	70	192	0
NMTAP	70	192	1
NMTAP	70	288	0
NMTAP	70	288	1
NMTAP	71	0	2
NMTAP	71	96	2
NMTAP	71	192	2
NMTAP	71	192	3
NMTAP	71	288	2
NMTAP	71	288	3
NMTAP	72	0	4
NMTAP	72	96	4
NMTAP	72	192	4
NMTAP	72	192	5
NMTAP	72	288	4
NMTAP	72	288	5
NMTAP	73	0	6
NMTAP	73	0	7
NMTAP	73	96	6
NMTAP	73	96	7
NMTAP	73	192	0
NMTAP	73	192	5
NMTAP	74	0	6
NMTAP	74	96	6
NMTAP	74	192	6
NMTAP	74	192	7
NMTAP	74	288	6
NMTAP	74	288	7
NMTAP	75	0	5
NMTAP	75	96	5
NMTAP	75	192	4
NMTAP	75	192	5
NMTAP	75	288	4
NMTAP	75	288	5
NMTAP	76	0	3
NMTAP	76	96	3
NMTAP	76	192	2
NMTAP	76	192	3
NMTAP	76	288	2
NMTAP	76	288	3
NMTAP	77	0	0
NMTAP	77	0	1
NMTAP	77	96	0
NMTAP	77	96	1
NMTAP	77	192	2
NMTAP	77	192	7
NMTAP	78	0	2
NMTAP	78	96	2
NMTAP	78	192	0
NMTAP	78	192	1
NMTAP	78	288	0
NMTAP	78	288	1
EXTAP	79	0	7
EXTAP	79	48	7
EXTAP	79	96	7
NMTAP	79	192	6
NMTAP	79	192	7
NMTAP	80	0	5
NMTAP	80	96	5
NMTAP	80	192	6
NMTAP	80	192	7
NMTAP	80	288	6
NMTAP	80	288	7
EXTAP	81	0	0
EXTAP	81	48	0
EXTAP	81	96	0
NMTAP	81	192	0
NMTAP	81	192	1
NMTAP	82	0	1
NMTAP	82	96	1
NMTAP	82	192	2
NMTAP	82	288	2
NMTAP	83	0	3
NMTAP	83	96	3
NMTAP	83	192	4
NMTAP	83	288	4
NMTAP	84	0	5
NMTAP	84	96	5
NMTAP	84	192	6
NMTAP	84	288	6
BRTAP	85	0	0
BRTAP	85	0	7
NMTAP	86	0	0
NMTAP	86	96	1
NMTAP	86	192	2
NMTAP	86	288	3
NMTAP	87	0	4
NMTAP	87	96	5
NMTAP	87	192	6
NMTAP	87	192	7
NMTAP	88	0	7
NMTAP	88	96	6
NMTAP	88	192	5
NMTAP	88	288	4
NMTAP	89	0	3
NMTAP	89	96	2
NMTAP	89	192	0
NMTAP	89	192	1
NMTAP	90	0	2
NMTAP	90	96	1
NMTAP	90	192	0
NMTAP	90	288	7
NMTAP	91	0	6
NMTAP	91	96	5
NMTAP	91	192	4
NMTAP	91	192	5
NMTAP	92	0	4
NMTAP	92	96	5
NMTAP	92	192	6
NMTAP	92	288	7
NMTAP	93	0	0
NMTAP	93	96	1
NMTAP	93	192	2
NMTAP	93	192	3
NMTAP	94	0	1
NMTAP	94	48	1
NMTAP	94	96	1
NMTAP	94	192	2
NMTAP	94	192	3
NMTAP	94	288	2
NMTAP	94	288	3
NMTAP	95	0	4
NMTAP	95	48	4
NMTAP	95	96	4
NMTAP	95	192	4
NMTAP	95	192	5
NMTAP	96	0	6
NMTAP	96	48	6
NMTAP	96	96	6
NMTAP	96	192	4
NMTAP	96	192	5
NMTAP	96	288	4
NMTAP	96	288	5
NMTAP	97	0	3
NMTAP	97	48	3
NMTAP	97	96	3
NMTAP	97	192	2
NMTAP	97	192	3
NMTAP	98	0	2
NMTAP	98	48	2
NMTAP	98	96	2
NMTAP	98	192	0
NMTAP	98	192	1
NMTAP	98	288	0
NMTAP	98	288	1
NMTAP	99	0	7
NMTAP	99	48	7
NMTAP	99	96	7
NMTAP	99	192	6
NMTAP	99	192	7
NMTAP	100	0	5
NMTAP	100	48	5
NMTAP	100	96	5
NMTAP	100	192	6
NMTAP	100	240	6
NMTAP	100	288	6
NMTAP	101	0	7
NMTAP	101	48	7
NMTAP	101	96	7
NMTAP	101	192	0
NMTAP	101	240	0
NMTAP	101	288	0
BRTAP	102	0	0
BRTAP	102	0	7

T_REC_TAP	290
T_REC_BRK	6
T_REC_XTP	10
T_REC_BXX	0
T_REC_HLD	18
T_REC_XHO	0
T_REC_BHO	0
T_REC_BXH	0
T_REC_STR	14
T_REC_BST	0
T_REC_XST	0
T_REC_XBS	0
T_REC_TTP	22
T_REC_THO	1
T_REC_SLD	14
T_REC_BSL	0
T_REC_ALL	375
T_NUM_TAP	336
T_NUM_BRK	6
T_NUM_HLD	19
T_NUM_SLD	14
T_NUM_ALL	375
T_JUDGE_TAP	342
T_JUDGE_HLD	80
T_JUDGE_SLD	14
T_JUDGE_ALL	436
TTM_EACHPAIRS	73
TTM_SCR_TAP	168000
TTM_SCR_BRK	15600
TTM_SCR_HLD	19000
TTM_SCR_SLD	21000
TTM_SCR_ALL	223600
TTM_SCR_S	216350
TTM_SCR_SS	223000
TTM_RAT_ACV	10026

