VERSION	0.00.00	1.04.00
FES_MODE	0
BPM_DEF	175.000	175.000	175.000	175.000
MET_DEF	4	4
RESOLUTION	384
CLK_DEF	384
COMPATIBLE_CODE	MA2

BPM	0	0	175.000
MET	0	0	4	4

NMTAP	1	0	0
EXTAP	1	0	1
EXTAP	1	72	2
NMTAP	1	72	6
EXTAP	1	144	4
NMSTR	1	144	5
NMSLL	1	144	5	96	72	6
EXTAP	2	0	6
NMTAP	2	0	7
NMTAP	2	72	1
EXTAP	2	72	5
NMSTR	2	144	2
NMSLR	2	144	2	96	72	1
EXTAP	2	144	3
NMSTR	3	0	0
NMSI_	3	0	0	96	48	4
EXTAP	3	0	1
NMSTR	3	96	3
NMSI_	3	96	3	96	48	7
NMTAP	3	192	6
NMSTR	3	240	6
NMSI_	3	240	6	96	48	2
NMTAP	3	336	6
NMTAP	3	336	7
NMTAP	4	48	0
NMTAP	4	48	1
NMTAP	4	96	2
NMTAP	4	96	3
NMTAP	4	144	4
NMTAP	4	144	5
NMSTR	4	192	3
BRSI_	4	192	3	96	48	0
NMSTR	4	192	7
BRSI_	4	192	7	96	48	4
NMSTR	5	0	1
NMSI_	5	0	1	96	48	5
NMTAP	5	0	5
BRTAP	5	96	0
BRTAP	5	96	1
NMTAP	5	192	6
NMTAP	5	240	6
NMTAP	5	288	4
NMSTR	5	336	3
NMSI_	5	336	3	96	48	1
NMTAP	5	336	5
NMSTR	6	48	7
NMSI_	6	48	7	96	48	3
NMTAP	6	144	0
NMTAP	6	240	0
NMTAP	6	240	1
NMTAP	6	288	2
NMTAP	6	288	7
NMTAP	7	0	4
NMHLD	7	0	5	96
NMTAP	7	96	7
NMTAP	7	192	4
NMTAP	7	192	6
NMTAP	7	240	4
NMTAP	7	240	6
NMTAP	7	336	3
NMHLD	7	336	4	96
NMTAP	8	48	6
NMTAP	8	144	5
NMTAP	8	144	7
NMSTR	8	192	0
NMSI_	8	192	0	96	48	4
NMSTR	8	192	4
NMSI_	8	192	4	96	48	6
EXSTR	9	0	3
NMSI_	9	0	3	96	48	1
EXSTR	9	0	7
NMSI_	9	0	7	96	48	3
BRTAP	9	96	3
BRTAP	9	96	7
NMTAP	9	192	0
NMTAP	9	240	0
NMTAP	9	288	3
NMTAP	9	336	2
NMSTR	9	336	4
NMSI_	9	336	4	96	48	6
NMSTR	10	48	0
NMSI_	10	48	0	96	48	4
NMTAP	10	144	7
NMTAP	10	240	6
NMTAP	10	240	7
NMTAP	10	288	0
NMTAP	10	288	5
NMSTR	11	0	2
NMSCL	11	0	2	96	48	7
NMTAP	11	0	3
NMTAP	11	96	6
NMTAP	11	192	4
NMTAP	11	192	5
NMTAP	11	240	3
NMTAP	11	240	6
NMTAP	11	336	1
NMTAP	11	336	4
NMSTR	12	48	5
NMSCR	12	48	5	96	144	3
NMTAP	12	96	4
NMTAP	12	144	3
NMHLD	13	0	4	96
NMTAP	13	0	5
NMTAP	13	144	3
NMHLD	13	144	4	96
NMTAP	13	288	3
NMTAP	13	288	5
NMHLD	14	0	4	96
NMHLD	14	0	6	96
NMHLD	14	144	2	96
NMHLD	14	144	4	96
EXTAP	14	288	0
NMTAP	15	0	2
NMHLD	15	0	3	96
NMHLD	15	144	3	96
NMTAP	15	144	4
NMTAP	15	288	2
NMTAP	15	288	4
NMHLD	16	0	1	96
NMHLD	16	0	3	96
NMHLD	16	144	3	96
NMHLD	16	144	5	96
EXTAP	16	288	7
NMHLD	17	0	4	96
NMTAP	17	0	5
NMTAP	17	144	3
NMHLD	17	144	4	96
NMTAP	17	288	3
NMTAP	17	288	5
NMTAP	18	0	2
NMHLD	18	0	3	96
NMHLD	18	144	3	96
NMTAP	18	144	4
NMSTR	18	240	5
NMSI_	18	240	5	96	48	7
EXTAP	18	288	4
NMTAP	18	336	3
NMSTR	19	48	4
NMSI_	19	48	4	96	48	0
NMTAP	19	96	3
NMTAP	19	144	2
NMHLD	19	240	1	96
NMTAP	19	336	0
NMSTR	20	0	1
NMSCR	20	0	1	96	96	4
BRTAP	20	0	7
NMSTR	20	96	4
NMSCR	20	96	4	96	96	7
NMSTR	20	192	7
NMSCR	20	192	7	96	96	2
NMTAP	20	288	2
NMHLD	21	0	5	96
NMTAP	21	96	4
NMHLD	21	144	6	96
NMTAP	21	240	7
NMTAP	21	288	0
NMTAP	21	288	6
NMHLD	22	0	2	96
NMTAP	22	96	3
NMTAP	22	144	1
NMTAP	22	144	4
NMTAP	22	240	0
NMTAP	22	288	2
NMTAP	22	336	4
NMHLD	23	0	6	96
NMTAP	23	96	4
NMHLD	23	144	5	96
NMTAP	23	240	4
NMTAP	23	288	3
NMTAP	23	288	6
NMHLD	24	0	1	96
NMTAP	24	96	3
NMHLD	24	144	2	96
NMTAP	24	240	3
NMTAP	24	288	1
NMTAP	24	336	7
NMTAP	25	0	0
NMTAP	25	0	6
NMTAP	25	96	2
NMTAP	25	96	3
NMSTR	25	144	1
NMSCL	25	144	1	96	96	6
NMTAP	25	144	4
NMSTR	25	240	6
NMSCL	25	240	6	96	96	3
NMSTR	25	336	3
NMSCL	25	336	3	96	96	0
NMSTR	26	48	0
NMSCL	26	48	0	96	96	5
NMSTR	26	144	5
NMSCL	26	144	5	96	96	2
NMTAP	26	240	2
NMHLD	26	336	7	96
NMTAP	27	48	0
NMTAP	27	96	1
NMTAP	27	96	7
NMTAP	27	144	2
NMTAP	27	144	6
NMSTR	27	240	1
NMSXR	27	240	1	96	240	6
NMSTR	27	240	5
NMSXR	27	240	5	96	240	2
NMSTR	28	288	0
NMSCR	28	288	0	96	624	6
NMTAP	28	288	4
NMHLD	29	0	7	624
NMHLD	31	0	0	576
NMSTR	31	0	7
NMSCL	31	0	7	96	480	1
NMTTP	33	0	2	D	0	M1
NMTTP	33	8	3	D	0	M1
NMTTP	33	16	4	D	0	M1
EXHLD	33	24	4	1272
EXTAP	33	24	5
NMTTP	35	0	6	D	0	M1
NMTTP	35	8	5	D	0	M1
NMTTP	35	16	4	D	0	M1
EXHLD	35	24	3	504
NMHLD	37	0	2	144
NMTAP	37	0	6
NMHLD	37	144	3	144
NMHLD	37	288	4	144
NMHLD	38	96	3	96
NMHLD	38	96	5	96
NMTAP	38	240	2
NMTAP	38	240	6
NMTAP	39	0	1
NMHLD	39	0	5	144
NMHLD	39	144	4	144
NMHLD	39	288	3	144
NMHLD	40	96	2	96
NMHLD	40	96	4	96
NMTAP	40	240	1
NMTAP	40	240	5
NMTAP	41	0	4
NMTAP	41	0	6
NMTAP	41	96	4
NMTAP	41	96	5
NMTAP	41	192	2
NMTAP	41	192	3
NMTAP	41	288	1
NMTAP	41	288	3
NMTAP	42	0	0
NMTAP	42	48	0
NMTAP	42	96	6
NMTAP	42	144	6
NMTAP	42	192	2
NMTAP	42	240	2
NMTAP	42	288	4
NMTAP	42	336	4
NMTAP	43	0	1
NMTAP	43	24	3
NMTAP	43	48	1
NMTAP	43	72	3
NMTAP	43	96	2
NMTAP	43	120	4
NMTAP	43	144	2
NMTAP	43	168	4
NMTAP	43	192	3
NMTAP	43	216	5
NMTAP	43	240	3
NMTAP	43	264	5
NMSTR	43	288	4
NMSCR	43	288	4	96	192	3
NMTAP	43	312	6
NMTAP	43	336	4
NMTAP	43	360	6
NMTTP	44	288	0	C	1	M1
NMTTP	44	288	2	B	0	M1
NMTTP	44	288	2	A	0	M1
NMTTP	44	288	6	B	0	M1
NMTTP	44	288	6	A	0	M1
NMSTR	45	0	0
NMSF_	45	0	0	96	48	4
BRTAP	45	96	0
NMTAP	45	192	2
NMSTR	45	192	6
NMSCL	45	192	6	96	48	3
NMTAP	45	288	1
NMHLD	45	336	1	96
NMTAP	46	48	0
NMTAP	46	96	1
NMTAP	46	96	7
NMTAP	46	144	2
NMTAP	46	144	6
NMTAP	46	240	4
NMTAP	46	240	5
NMTAP	46	288	6
NMTAP	46	336	7
NMSTR	47	0	0
NMSV_	47	0	0	96	48	3
NMSTR	47	0	6
NMSV_	47	0	6	96	48	3
EXTAP	47	96	0
EXTAP	47	96	6
NMSTR	47	192	1
NMSCR	47	192	1	96	48	4
NMTAP	47	192	5
NMTAP	47	288	6
NMHLD	47	336	6	96
NMTAP	48	48	7
NMTAP	48	96	0
NMTAP	48	96	6
NMTAP	48	144	1
NMTAP	48	144	5
NMTAP	48	240	2
NMTAP	48	240	3
NMTAP	48	288	1
NMTAP	48	336	0
NMSTR	49	0	1
NMSCR	49	0	1	96	48	4
NMSTR	49	0	7
NMSCL	49	0	7	96	48	4
EXTAP	49	96	1
EXTAP	49	96	7
NMHLD	49	192	0	96
NMTAP	49	288	6
NMSTR	49	336	6
NMSLL	49	336	6	96	96	2
NMSTR	50	48	2
NMSLL	50	48	2	96	96	6
NMSTR	50	144	6
NMSCL	50	144	6	96	96	2
NMSTR	50	240	2
NMSCL	50	240	2	96	96	6
NMTAP	50	336	6
NMTAP	51	48	2
NMTAP	51	96	1
NMTAP	51	144	0
NMTAP	51	192	6
NMTAP	51	192	7
NMTAP	51	240	5
NMTAP	51	288	3
NMTAP	51	288	4
NMTAP	51	336	2
EXSTR	52	0	0
NMSI_	52	0	0	96	48	4
NMTAP	52	0	1
EXTAP	52	96	0
EXSTR	52	96	7
NMSI_	52	96	7	96	48	3
NMTAP	52	192	6
EXTAP	52	192	7
NMTAP	52	288	5
NMTAP	52	312	4
NMTAP	52	336	5
NMTAP	52	360	4
NMSTR	53	0	6
NMSI_	53	0	6	96	48	2
BRTAP	53	96	6
BRTAP	53	96	7
NMSTR	53	192	1
NMSCR	53	192	1	96	48	4
NMTAP	53	192	5
NMTAP	53	288	6
NMHLD	53	336	6	96
NMTAP	54	48	7
NMTAP	54	96	4
NMTAP	54	96	5
NMTAP	54	144	3
NMTAP	54	144	7
NMTAP	54	240	2
NMTAP	54	240	3
NMTAP	54	288	1
NMTAP	54	336	0
NMSTR	55	0	1
NMSV_	55	0	1	96	48	4
NMSTR	55	0	7
NMSV_	55	0	7	96	48	4
EXTAP	55	96	1
EXTAP	55	96	7
NMTAP	55	192	2
NMSTR	55	192	6
NMSCL	55	192	6	96	48	3
NMTAP	55	288	1
NMHLD	55	336	1	96
NMTAP	56	48	0
NMTAP	56	96	2
NMTAP	56	96	3
NMTAP	56	144	0
NMTAP	56	144	4
NMTAP	56	240	4
NMTAP	56	240	5
NMTAP	56	288	6
NMTAP	56	336	7
NMSTR	57	0	0
NMSCR	57	0	0	96	48	3
NMSTR	57	0	6
NMSCL	57	0	6	96	48	3
EXTAP	57	96	0
EXTAP	57	96	6
NMHLD	57	192	7	96
NMTAP	57	288	5
NMSTR	57	336	5
NMSLL	57	336	5	96	96	1
NMSTR	58	48	1
NMSLL	58	48	1	96	96	5
NMSTR	58	144	5
NMSCL	58	144	5	96	96	1
NMSTR	58	240	1
NMSCL	58	240	1	96	96	5
NMSTR	58	336	5
NMSCL	58	336	5	96	240	5
NMSLL	58	336	5	96	96	1
CNSLL	59	144	1	0	144	5
NMSTR	60	0	0
NMSCR	60	0	0	96	48	3
NMSTR	60	96	0
NMSCL	60	96	0	96	48	5
EXTAP	60	96	4
NMSTR	60	192	0
BRSF_	60	192	0	96	48	4
EXTAP	60	192	4
EXTAP	60	288	0
NMSTR	61	0	2
NMSI_	61	0	2	96	48	7
NMSTR	61	0	6
NMSI_	61	0	6	96	48	3
BRTAP	61	96	2
BRTAP	61	96	6
NMTAP	61	192	1
NMTAP	61	192	5
NMSTR	61	240	1
NMSCL	61	240	1	96	96	3
NMTAP	61	240	5
NMTAP	61	336	3
NMTAP	62	48	7
NMTAP	62	96	7
NMTAP	62	144	3
NMTAP	62	144	6
NMTAP	62	192	2
NMTAP	62	192	5
NMTAP	62	240	1
NMTAP	62	240	4
NMSTR	62	288	0
NMSCR	62	288	0	96	48	3
NMTAP	62	288	3
EXTAP	63	0	0
NMSTR	63	0	7
NMSCL	63	0	7	96	48	4
NMTAP	63	96	4
EXTAP	63	96	7
NMTAP	63	192	2
NMTAP	63	192	3
NMSTR	63	240	1
NMSLR	63	240	1	96	96	7
NMTAP	63	240	4
NMHLD	63	336	6	144
NMTAP	64	96	0
NMTAP	64	144	1
NMTAP	64	144	7
NMSTR	64	192	2
NMSI_	64	192	2	96	48	0
NMSTR	64	192	6
NMSI_	64	192	6	96	48	4
NMTAP	65	0	3
NMTAP	65	0	7
NMTAP	65	48	0
NMTAP	65	96	1
NMTAP	65	96	5
NMTAP	65	144	2
NMTAP	65	192	3
NMHLD	65	192	7	96
NMTAP	65	288	5
NMSTR	65	336	4
NMSCL	65	336	4	96	48	1
NMTAP	65	336	6
NMSTR	66	48	7
NMSCL	66	48	7	96	48	4
NMSTR	66	144	2
NMSCL	66	144	2	96	48	7
NMTAP	66	240	5
NMTAP	66	288	5
NMTAP	66	336	4
NMTAP	67	0	3
NMHLD	67	0	6	96
NMTAP	67	96	7
NMTAP	67	144	6
NMTAP	67	192	4
NMTAP	67	192	5
NMTAP	67	240	3
NMTAP	67	288	2
NMTAP	67	288	4
NMTAP	67	336	1
NMHLD	67	336	5	96
NMSTR	68	48	4
NMSXL	68	48	4	96	120	3
NMTAP	68	96	3
NMTAP	68	144	2
EXTAP	68	288	2
EXTAP	68	312	3
EXTAP	68	336	2
EXTAP	68	360	3
NMSTR	69	0	1
NMSI_	69	0	1	96	48	5
BRTAP	69	96	0
BRTAP	69	96	1
NMTAP	69	192	2
NMTAP	69	192	6
NMTAP	69	240	2
NMSTR	69	240	6
NMSCR	69	240	6	96	96	4
NMTAP	69	336	4
NMTAP	70	48	0
NMTAP	70	96	0
NMTAP	70	144	1
NMTAP	70	144	4
NMTAP	70	192	2
NMTAP	70	192	5
NMTAP	70	240	3
NMTAP	70	240	6
NMTAP	70	288	4
NMSTR	70	288	7
NMSCL	70	288	7	96	48	4
NMSTR	71	0	0
NMSCR	71	0	0	96	48	3
EXTAP	71	0	7
EXTAP	71	96	0
NMTAP	71	96	3
NMTAP	71	192	4
NMTAP	71	192	5
NMSTR	71	240	2
NMSXR	71	240	2	96	144	3
NMSTR	71	240	6
NMSXR	71	240	6	96	144	7
EXHLD	72	144	0	96
EXHLD	72	144	4	96
NMTAP	72	288	0
NMTAP	72	288	4
NMTAP	72	336	3
NMTAP	72	336	7
NMTAP	73	0	2
NMSTR	73	0	6
NMSI_	73	0	6	96	48	2
EXTAP	73	96	0
NMTAP	73	144	0
NMTAP	73	192	1
NMTAP	73	192	3
NMTAP	73	240	2
NMTAP	73	288	4
NMTAP	73	288	6
NMTAP	73	336	3
NMHLD	73	336	7	96
NMTAP	74	48	0
NMTAP	74	96	1
NMTAP	74	96	7
NMTAP	74	144	2
NMTAP	74	144	6
NMTAP	74	240	4
NMTAP	74	240	5
NMTAP	74	288	3
NMTAP	74	288	4
NMTAP	74	336	2
NMTAP	74	336	3
NMSTR	75	0	1
NMSI_	75	0	1	96	48	5
NMTAP	75	48	1
NMSTR	75	96	0
NMSI_	75	96	0	96	48	4
NMTAP	75	144	0
NMSTR	75	192	7
NMSI_	75	192	7	96	48	3
NMTAP	75	240	7
NMSTR	75	288	6
NMSI_	75	288	6	96	48	2
NMTAP	75	336	6
NMSTR	76	0	0
NMSCR	76	0	0	96	96	7
NMTAP	76	96	0
NMTAP	76	96	7
EXTAP	76	240	2
EXTAP	76	240	3
BRTAP	76	288	0
BRTAP	76	288	4
NMTAP	77	0	2
NMSTR	77	0	6
BRSI_	77	0	6	96	48	2
EXTAP	77	96	6
EXTAP	77	96	7
NMTAP	77	192	1
NMTAP	77	240	1
NMTAP	77	288	3
NMTAP	77	336	2
NMSTR	77	336	4
NMSI_	77	336	4	96	48	6
NMSTR	78	48	0
NMSI_	78	48	0	96	48	4
NMTAP	78	144	7
NMTAP	78	240	6
NMTAP	78	240	7
NMTAP	78	288	0
NMTAP	78	288	5
NMHLD	79	0	2	96
NMTAP	79	0	3
NMTAP	79	96	0
NMTAP	79	192	1
NMTAP	79	192	3
NMTAP	79	240	1
NMTAP	79	240	3
NMHLD	79	336	3	96
NMTAP	79	336	4
NMTAP	80	48	1
NMTAP	80	144	0
NMTAP	80	144	2
NMSTR	80	192	3
NMSI_	80	192	3	96	48	1
NMSTR	80	192	7
NMSI_	80	192	7	96	48	3
NMSTR	81	0	0
BRSI_	81	0	0	96	48	4
NMSTR	81	0	4
BRSI_	81	0	4	96	48	6
EXTAP	81	96	0
EXTAP	81	96	4
NMTAP	81	192	7
NMTAP	81	240	7
NMTAP	81	288	4
NMSTR	81	336	3
NMSI_	81	336	3	96	48	1
NMTAP	81	336	5
NMSTR	82	48	7
NMSI_	82	48	7	96	48	3
NMTAP	82	144	0
NMTAP	82	240	0
NMTAP	82	240	1
NMTAP	82	288	2
NMTAP	82	288	7
NMTAP	83	0	4
NMSTR	83	0	5
NMSCR	83	0	5	96	48	0
NMTAP	83	96	1
NMTAP	83	192	2
NMTAP	83	192	3
NMTAP	83	240	1
NMTAP	83	240	4
NMTAP	83	336	4
NMTAP	83	336	5
NMTAP	84	0	3
NMSTR	84	0	6
NMSI_	84	0	6	96	48	1
NMSTR	84	96	2
NMSI_	84	96	2	96	48	5
EXTAP	84	96	6
EXTAP	84	192	2
NMSTR	84	192	7
NMSCL	84	192	7	96	48	4
NMSCR	84	192	7	96	48	2
NMSTR	85	0	3
BRSF_	85	0	3	96	48	7
BRTAP	85	96	3
NMTAP	85	192	1
NMTAP	85	192	5
NMTAP	85	240	2
NMTAP	85	288	4
NMSTR	85	336	3
NMSI_	85	336	3	96	48	1
NMTAP	85	336	5
NMSTR	86	48	7
NMSI_	86	48	7	96	48	3
NMTAP	86	144	0
NMTAP	86	240	0
NMTAP	86	240	1
NMTAP	86	288	2
NMTAP	86	288	7
NMTAP	87	0	4
NMHLD	87	0	5	96
NMTAP	87	96	7
NMTAP	87	192	4
NMTAP	87	192	6
NMTAP	87	240	4
NMTAP	87	240	6
NMTAP	87	336	3
NMHLD	87	336	4	96
NMTAP	88	48	6
NMTAP	88	144	5
NMTAP	88	144	7
NMSTR	88	192	0
NMSI_	88	192	0	96	48	4
NMSTR	88	192	4
NMSI_	88	192	4	96	48	6
NMSTR	89	0	3
BRSI_	89	0	3	96	48	1
NMSTR	89	0	7
BRSI_	89	0	7	96	48	3
BRTAP	89	96	3
BRTAP	89	96	7
NMTAP	89	192	0
NMTAP	89	240	0
NMTAP	89	288	3
NMTAP	89	336	2
NMSTR	89	336	4
NMSI_	89	336	4	96	48	6
NMSTR	90	48	0
NMSI_	90	48	0	96	48	4
NMTAP	90	144	7
NMTAP	90	240	6
NMTAP	90	240	7
NMTAP	90	288	0
NMTAP	90	288	5
NMSTR	91	0	2
NMSCL	91	0	2	96	48	7
NMTAP	91	0	3
NMTAP	91	96	6
NMTAP	91	192	4
NMTAP	91	192	5
NMTAP	91	240	3
NMTAP	91	240	6
NMTAP	91	336	1
NMTAP	91	336	4
NMSTR	92	48	6
NMSCL	92	48	6	96	48	3
NMTAP	92	96	7
NMTAP	92	144	6
NMSTR	92	192	1
NMSCR	92	192	1	96	48	4
NMTAP	92	240	0
NMTAP	92	288	1
BRTAP	92	336	7
NMTAP	93	48	6
NMTAP	93	48	7
NMTAP	93	96	4
NMTAP	93	96	5
NMTAP	93	144	2
NMTAP	93	144	3
NMTAP	93	192	0
NMTAP	93	192	1
NMTAP	93	240	2
NMTAP	93	240	3
NMTAP	93	288	4
NMSTR	93	288	5
NMSUL	93	288	5	96	960	3
NMTAP	93	336	6
NMTAP	93	336	7
BRTAP	94	0	0

T_REC_TAP	380
T_REC_BRK	19
T_REC_XTP	41
T_REC_BXX	0
T_REC_HLD	54
T_REC_XHO	4
T_REC_BHO	0
T_REC_BXH	0
T_REC_STR	107
T_REC_BST	0
T_REC_XST	4
T_REC_XBS	0
T_REC_TTP	11
T_REC_THO	0
T_REC_SLD	104
T_REC_BSL	9
T_REC_ALL	733
T_NUM_TAP	543
T_NUM_BRK	28
T_NUM_HLD	58
T_NUM_SLD	104
T_NUM_ALL	733
T_JUDGE_TAP	562
T_JUDGE_HLD	178
T_JUDGE_SLD	113
T_JUDGE_ALL	853
TTM_EACHPAIRS	199
TTM_SCR_TAP	271500
TTM_SCR_BRK	72800
TTM_SCR_HLD	58000
TTM_SCR_SLD	156000
TTM_SCR_ALL	558300
TTM_SCR_S	538850
TTM_SCR_SS	555500
TTM_RAT_ACV	10050

