VERSION	0.00.00	1.04.00
FES_MODE	0
BPM_DEF	175.000	175.000	175.000	175.000
MET_DEF	4	4
RESOLUTION	384
CLK_DEF	384
COMPATIBLE_CODE	MA2

BPM	0	0	175.000
MET	0	0	4	4

NMTAP	1	0	2
NMTAP	1	0	4
NMTAP	1	72	2
NMTAP	1	72	4
NMHLD	1	144	2	144
NMHLD	1	144	4	144
NMTAP	2	0	3
NMTAP	2	0	5
NMTAP	2	72	3
NMTAP	2	72	5
NMHLD	2	144	3	144
NMHLD	2	144	5	144
NMHLD	3	0	1	384
NMSTR	3	0	7
NMSSR	3	0	7	96	192	3
EXTAP	4	0	3
NMTAP	4	96	3
NMTAP	4	96	4
NMTAP	4	192	4
NMTAP	4	192	6
BRTAP	4	288	1
BRTAP	4	288	7
NMHLD	5	0	6	96
NMTAP	5	96	3
NMTAP	5	144	3
NMTAP	5	192	5
NMTAP	5	240	5
NMTAP	5	288	1
NMHLD	5	336	1	96
NMTAP	6	48	3
NMHLD	6	144	5	96
NMTAP	6	240	3
NMTAP	6	288	3
NMSTR	7	0	2
NMSI_	7	0	2	96	48	5
NMSTR	7	192	6
NMSI_	7	192	6	96	48	1
NMSTR	8	0	2
NMSI_	8	0	2	96	48	5
NMTAP	8	192	6
NMTAP	8	288	3
NMTAP	8	288	5
NMHLD	9	0	1	96
NMTAP	9	96	4
NMTAP	9	144	4
NMTAP	9	192	2
NMTAP	9	240	2
NMTAP	9	288	6
NMHLD	9	336	6	96
NMTAP	10	48	7
NMHLD	10	144	0	96
NMTAP	10	240	7
NMTAP	10	288	7
NMSTR	11	0	6
NMSI_	11	0	6	96	48	3
NMSTR	11	192	2
NMSI_	11	192	2	96	48	7
NMTAP	12	0	6
NMSTR	12	96	0
NMSCR	12	96	0	96	96	3
NMSTR	12	96	7
NMSCL	12	96	7	96	96	4
NMHLD	13	0	2	96
NMHLD	13	0	4	96
NMHLD	13	144	2	144
NMHLD	13	144	4	144
NMHLD	14	0	3	96
NMHLD	14	0	5	96
NMHLD	14	144	3	96
NMHLD	14	144	5	144
BXTAP	14	288	3
NMHLD	15	0	2	96
NMHLD	15	0	4	96
NMHLD	15	144	2	144
NMHLD	15	144	4	144
NMHLD	16	0	3	96
NMHLD	16	0	5	96
NMHLD	16	144	3	96
NMHLD	16	144	5	144
BXTAP	16	288	3
NMHLD	17	0	1	96
NMHLD	17	0	4	96
NMHLD	17	144	2	96
NMHLD	17	144	5	96
NMTAP	17	288	2
NMTAP	17	288	5
NMHLD	18	0	3	96
NMHLD	18	0	6	96
NMHLD	18	144	2	96
NMHLD	18	144	5	96
NMTAP	18	288	2
NMTAP	18	288	5
NMHLD	19	0	1	96
NMHLD	19	0	4	96
NMHLD	19	144	2	96
NMHLD	19	144	5	96
NMTAP	19	288	2
BXSTR	19	288	5
NMSCR	19	288	5	96	240	4
NMTTP	20	0	0	C	1	M1
NMHLD	21	0	1	96
NMTAP	21	96	3
NMTAP	21	192	4
NMTAP	21	240	4
NMTAP	21	288	3
NMTAP	21	288	5
NMHLD	22	0	6	96
NMTAP	22	96	4
NMTAP	22	192	3
NMTAP	22	240	3
NMTAP	22	288	2
NMTAP	22	288	4
NMHLD	23	0	1	96
NMTAP	23	96	3
NMTAP	23	192	7
NMTAP	23	240	7
NMTAP	23	288	0
NMTAP	23	288	6
NMTAP	24	0	1
NMTAP	24	0	5
NMTAP	24	96	2
NMTAP	24	96	6
NMTAP	24	144	2
NMTAP	24	144	6
NMTAP	24	240	1
NMTAP	24	240	5
NMTAP	24	288	1
NMTAP	24	288	5
NMHLD	25	0	6	96
NMTAP	25	96	4
NMTAP	25	192	7
NMTAP	25	240	7
NMTAP	25	288	0
NMTAP	25	288	6
NMHLD	26	0	1	96
NMTAP	26	96	3
NMTAP	26	192	0
NMTAP	26	240	0
NMTAP	26	288	1
NMTAP	26	288	7
NMHLD	27	0	6	96
NMTAP	27	96	4
NMTAP	27	192	7
NMTAP	27	240	7
NMSTR	27	288	0
NMSCR	27	288	0	96	192	5
NMTAP	27	288	6
NMHLD	29	0	7	384
NMTAP	29	288	6
NMHLD	30	0	6	384
NMHLD	31	0	5	384
NMTAP	31	288	4
NMHLD	32	0	4	384
NMHLD	33	0	3	384
NMTAP	33	288	2
NMHLD	34	0	2	384
NMHLD	35	0	1	384
NMTAP	35	288	0
NMTAP	36	0	0
NMHLD	37	0	0	96
NMHLD	37	0	2	96
NMHLD	37	144	0	96
NMHLD	37	144	2	96
NMHLD	37	288	0	192
NMHLD	37	288	2	192
EXTAP	38	240	3
EXTAP	38	240	4
NMHLD	39	0	5	96
NMHLD	39	0	7	96
NMHLD	39	144	5	96
NMHLD	39	144	7	96
NMHLD	39	288	5	192
NMHLD	39	288	7	192
EXTAP	40	240	3
EXTAP	40	240	4
NMTTP	41	0	0	E	0	M1
NMTTP	41	192	1	E	0	M1
NMTTP	41	192	7	E	0	M1
NMTTP	42	0	0	C	0	M1
NMTTP	42	0	2	E	0	M1
NMTTP	42	0	6	E	0	M1
NMTTP	42	192	3	E	0	M1
NMTTP	42	192	5	E	0	M1
NMTTP	43	0	4	E	0	M1
NMTHO	43	192	0	192	C	1	M1
NMTTP	43	192	2	B	0	M1
NMTTP	43	192	5	B	0	M1
BXTAP	44	288	2
BXTAP	44	288	5
NMTAP	45	0	6
NMTAP	45	0	7
NMTAP	45	96	2
NMTAP	45	96	3
NMTAP	45	192	0
NMTAP	45	192	1
NMTAP	45	288	4
NMTAP	45	288	5
NMSTR	46	0	4
NMSUR	46	0	4	96	96	1
NMSTR	46	0	5
NMSCR	46	0	5	96	96	0
NMTAP	46	288	2
NMTAP	46	288	3
NMTAP	47	0	0
NMTAP	47	0	1
NMTAP	47	96	4
NMTAP	47	96	5
NMTAP	47	192	6
NMTAP	47	192	7
NMTAP	47	288	2
NMTAP	47	288	3
NMSTR	48	0	2
NMSCL	48	0	2	96	96	7
NMSTR	48	0	3
NMSUL	48	0	3	96	96	6
NMTAP	48	288	4
NMTAP	48	288	5
NMTAP	49	0	6
NMTAP	49	0	7
NMTAP	49	96	2
NMTAP	49	96	3
NMTAP	49	192	0
NMTAP	49	192	1
NMTAP	49	288	5
NMHLD	49	336	5	96
NMHLD	50	48	7	96
NMHLD	50	144	0	96
NMHLD	50	240	2	96
NMSTR	50	336	4
NMSCR	50	336	4	96	240	3
NMTTP	51	48	0	C	1	M1
EXTAP	52	0	2
EXTAP	52	0	3
EXTAP	52	96	0
EXTAP	52	96	5
NMTAP	52	192	4
NMTAP	52	192	5
BRTAP	52	288	2
BRTAP	52	288	7
NMTAP	53	0	2
NMTAP	53	0	3
NMTAP	53	96	0
NMTAP	53	96	1
NMTAP	53	192	6
NMTAP	53	192	7
NMTAP	53	288	4
NMTAP	53	288	5
NMSTR	54	0	2
NMSUR	54	0	2	96	96	7
NMSTR	54	0	3
NMSCR	54	0	3	96	96	6
NMTAP	54	288	4
NMTAP	54	288	5
NMTAP	55	0	4
NMTAP	55	0	5
NMTAP	55	96	6
NMTAP	55	96	7
NMTAP	55	192	0
NMTAP	55	192	1
NMTAP	55	288	2
NMTAP	55	288	3
NMSTR	56	0	4
NMSCL	56	0	4	96	96	1
NMSTR	56	0	5
NMSUL	56	0	5	96	96	0
NMTAP	56	288	2
NMTAP	56	288	3
NMTAP	57	0	2
NMTAP	57	0	3
NMTAP	57	96	0
NMTAP	57	96	1
NMTAP	57	192	6
NMTAP	57	192	7
NMTAP	57	288	5
NMHLD	57	336	5	96
NMHLD	58	48	7	96
NMHLD	58	144	0	96
NMSTR	58	240	2
NMSCL	58	240	2	96	288	3
NMTTP	58	336	0	C	1	M1
NMTAP	60	96	3
NMTAP	60	192	3
NMTAP	60	192	4
BRTAP	60	288	2
BRTAP	60	288	5
NMSTR	61	0	6
NMSI_	61	0	6	96	48	3
NMSTR	61	0	7
NMSI_	61	0	7	96	48	2
NMTAP	61	192	1
NMHLD	61	240	1	96
NMTAP	61	336	0
NMTAP	62	48	2
NMTAP	62	48	7
NMSTR	62	96	2
NMSI_	62	96	2	96	48	0
NMSTR	62	96	7
NMSI_	62	96	7	96	48	3
EXTAP	62	288	0
EXTAP	62	288	2
NMSTR	63	0	0
NMSI_	63	0	0	96	48	5
NMSTR	63	0	1
NMSI_	63	0	1	96	48	4
NMTAP	63	192	6
NMHLD	63	240	6	96
NMTAP	63	336	7
NMTAP	64	48	0
NMTAP	64	48	5
NMTAP	64	96	0
NMTAP	64	96	5
NMSTR	64	192	2
NMSI_	64	192	2	96	48	5
NMTAP	64	288	6
NMHLD	65	0	7	384
NMTAP	65	96	4
NMTAP	65	192	3
NMTAP	65	288	2
NMHLD	66	0	0	384
NMTAP	66	96	3
NMTAP	66	192	4
NMTAP	66	288	5
NMSTR	67	0	7
NMSI_	67	0	7	96	48	3
NMSTR	67	96	0
NMSI_	67	96	0	96	48	2
NMSTR	67	192	6
NMSI_	67	192	6	96	48	4
EXTAP	67	288	3
EXTAP	67	336	3
EXSTR	68	48	1
NMSI_	68	48	1	96	48	6
EXSTR	68	48	5
NMSI_	68	48	5	96	48	2
EXTAP	68	240	7
EXTAP	68	288	7
NMSTR	69	0	0
NMSI_	69	0	0	96	48	5
NMSTR	69	0	1
NMSI_	69	0	1	96	48	4
NMTAP	69	192	6
NMHLD	69	240	6	96
NMTAP	69	336	7
NMTAP	70	48	0
NMTAP	70	48	5
NMSTR	70	96	0
NMSI_	70	96	0	96	48	4
NMSTR	70	96	5
NMSI_	70	96	5	96	48	7
EXTAP	70	288	5
EXTAP	70	288	7
NMSTR	71	0	6
NMSI_	71	0	6	96	48	3
NMSTR	71	0	7
NMSI_	71	0	7	96	48	2
NMTAP	71	192	1
NMTAP	71	192	5
NMSTR	71	240	1
BRSCR	71	240	1	96	48	4
NMSTR	71	240	5
BRSCR	71	240	5	96	48	0
NMTAP	72	144	3
NMTAP	72	144	7
NMSTR	72	192	3
NMSXL	72	192	3	96	192	3
NMSXR	72	192	3	96	192	3
NMTAP	72	192	7
EXTAP	73	192	2
EXTAP	73	192	4
NMTAP	73	288	3
NMTAP	73	288	5
NMTAP	73	336	3
NMHLD	73	336	5	96
NMSTR	74	48	4
BRSI_	74	48	4	96	48	0
NMTAP	74	240	7
NMTAP	74	288	7
NMSTR	75	0	0
NMSI_	75	0	0	96	48	4
NMSTR	75	96	7
NMSI_	75	96	7	96	48	5
NMSTR	75	192	1
NMSI_	75	192	1	96	48	3
NMTAP	75	288	4
NMTAP	75	336	4
EXTAP	76	48	2
EXTAP	76	48	6
EXSTR	76	96	2
NMSI_	76	96	2	96	48	5
EXSTR	76	96	6
NMSI_	76	96	6	96	48	1
BXTAP	76	288	0
NMTAP	77	0	4
NMTAP	77	0	6
NMTAP	77	96	2
NMTAP	77	144	2
NMTAP	77	192	4
NMTAP	77	288	1
NMTAP	77	288	3
NMHLD	78	0	1	96
NMHLD	78	96	3	96
NMHLD	78	192	4	96
NMTAP	78	288	6
NMSTR	79	0	7
NMSI_	79	0	7	96	48	3
NMSTR	79	96	0
NMSI_	79	96	0	96	48	4
NMTAP	79	192	5
NMTAP	79	288	3
NMTAP	79	288	5
NMSTR	80	0	0
NMSI_	80	0	0	96	48	4
NMSTR	80	96	7
NMSI_	80	96	7	96	48	3
NMHLD	80	192	2	96
NMTAP	80	288	3
NMTAP	81	0	1
NMTAP	81	0	3
NMTAP	81	96	5
NMTAP	81	144	5
NMTAP	81	192	4
NMTAP	81	240	4
NMTAP	81	288	3
NMTAP	81	288	6
NMHLD	82	0	5	96
NMHLD	82	96	7	96
NMHLD	82	192	0	96
NMTAP	82	288	2
NMSTR	83	0	1
NMSI_	83	0	1	96	48	5
NMSTR	83	96	6
NMSI_	83	96	6	96	48	3
NMHLD	83	192	2	96
NMTAP	83	288	4
NMSTR	84	0	6
NMSI_	84	0	6	96	48	2
NMSTR	84	96	1
NMSI_	84	96	1	96	48	4
NMSTR	84	192	7
NMSI_	84	192	7	96	48	3
NMTAP	84	288	2
NMTAP	85	0	2
NMTAP	85	0	4
NMTAP	85	96	1
NMTAP	85	144	1
NMTAP	85	192	7
NMTAP	85	288	4
NMTAP	85	288	6
NMHLD	86	0	6	96
NMHLD	86	96	4	96
NMHLD	86	192	3	96
NMHLD	86	288	1	96
NMSTR	87	0	7
NMSI_	87	0	7	96	48	3
NMSTR	87	96	0
NMSI_	87	96	0	96	48	4
NMTAP	87	192	5
NMTAP	87	288	2
NMTAP	87	288	6
NMSTR	88	0	7
NMSI_	88	0	7	96	48	3
NMSTR	88	96	0
NMSI_	88	96	0	96	48	4
NMTAP	88	192	5
NMTAP	88	288	5
NMTAP	89	0	4
NMTAP	89	0	6
NMTAP	89	96	2
NMTAP	89	144	2
NMTAP	89	192	3
NMTAP	89	240	3
NMTAP	89	288	1
NMTAP	89	288	4
NMHLD	90	0	2	96
NMHLD	90	96	0	96
NMHLD	90	192	7	96
NMHLD	90	288	5	96
NMSTR	91	0	3
NMSI_	91	0	3	96	48	0
NMSTR	91	96	7
NMSI_	91	96	7	96	48	4
NMTAP	91	192	1
NMTAP	91	288	2
NMTAP	91	288	3
NMSTR	92	0	1
NMSI_	92	0	1	96	48	5
NMSTR	92	96	6
NMSI_	92	96	6	96	48	3
NMSTR	92	192	0
NMSI_	92	192	0	96	48	4
NMTAP	92	288	5
NMTAP	92	336	5
NMTAP	93	48	1
NMTAP	93	48	7
NMTAP	93	96	1
NMTAP	93	96	7
NMTAP	93	192	3
NMTAP	93	192	5
NMSTR	93	288	2
BRSI_	93	288	2	96	48	7
NMSTR	93	288	6
BRSI_	93	288	6	96	48	3

T_REC_TAP	227
T_REC_BRK	6
T_REC_XTP	21
T_REC_BXX	5
T_REC_HLD	93
T_REC_XHO	0
T_REC_BHO	0
T_REC_BXH	0
T_REC_STR	62
T_REC_BST	0
T_REC_XST	4
T_REC_XBS	1
T_REC_TTP	14
T_REC_THO	1
T_REC_SLD	63
T_REC_BSL	5
T_REC_ALL	502
T_NUM_TAP	328
T_NUM_BRK	17
T_NUM_HLD	94
T_NUM_SLD	63
T_NUM_ALL	502
T_JUDGE_TAP	340
T_JUDGE_HLD	268
T_JUDGE_SLD	68
T_JUDGE_ALL	676
TTM_EACHPAIRS	122
TTM_SCR_TAP	164000
TTM_SCR_BRK	44200
TTM_SCR_HLD	94000
TTM_SCR_SLD	94500
TTM_SCR_ALL	396700
TTM_SCR_S	383150
TTM_SCR_SS	395000
TTM_RAT_ACV	10043

