VERSION	0.00.00	1.04.00
FES_MODE	0
BPM_DEF	143.000	143.000	143.000	143.000
MET_DEF	4	4
RESOLUTION	384
CLK_DEF	384
COMPATIBLE_CODE	MA2

BPM	0	0	143.000
MET	0	0	4	4

NMTAP	1	0	3
NMHLD	1	0	7	1440
NMTTP	1	96	5	E	0	M1
NMTTP	1	288	5	E	0	M1
NMTTP	2	96	5	E	0	M1
NMTTP	2	288	5	E	0	M1
NMTTP	3	96	6	B	0	M1
NMTTP	3	288	4	E	0	M1
NMTTP	4	96	6	B	0	M1
NMTTP	4	288	4	E	0	M1
NMHLD	5	0	0	576
NMTAP	5	0	5
NMTAP	5	96	3
NMTAP	5	288	2
NMTAP	6	96	2
NMTAP	6	192	4
NMTAP	6	240	1
NMTAP	6	240	4
NMTAP	6	320	2
NMTAP	6	320	5
NMTAP	7	0	3
NMHLD	7	0	6	96
NMTAP	7	96	5
NMSTR	7	144	5
NMSV_	7	144	5	96	48	0
NMTAP	7	240	6
NMTAP	7	288	6
NMTAP	7	336	2
NMTAP	7	336	7
NMTAP	8	48	4
NMTAP	8	48	5
NMHLD	8	96	4	48
NMHLD	8	96	5	48
NMHLD	8	192	1	48
NMHLD	8	192	3	48
NMSTR	8	288	0
NMSI_	8	288	0	96	48	4
NMTAP	8	288	7
BRSTR	9	0	5
NMSCL	9	0	5	96	48	2
NMTAP	9	48	5
NMSTR	9	96	0
NMSI_	9	96	0	96	48	4
NMTAP	9	144	0
NMSTR	9	192	5
NMSCL	9	192	5	96	48	2
NMTAP	9	240	5
NMSTR	9	288	0
NMSI_	9	288	0	96	48	4
NMTAP	9	336	0
NMTAP	10	0	5
NMHLD	10	48	5	96
NMTAP	10	96	6
NMHLD	10	144	6	96
NMTAP	10	192	7
NMHLD	10	240	7	96
NMTAP	10	288	0
NMTAP	10	336	0
NMTAP	11	0	1
NMTAP	11	0	6
NMTAP	11	48	5
NMTAP	11	96	2
NMTAP	11	96	3
NMTAP	11	144	0
NMTAP	11	192	3
NMTAP	11	192	4
NMTAP	11	240	5
NMTAP	11	288	2
NMTAP	11	288	3
NMTAP	11	336	0
NMTAP	12	0	3
NMSTR	12	0	4
NMSUL	12	0	4	96	96	2
NMTAP	12	96	2
NMTAP	12	192	0
NMTAP	12	288	0
NMSTR	12	288	7
NMSI_	12	288	7	96	48	3
NMSTR	13	0	2
NMSCR	13	0	2	96	48	5
NMTAP	13	48	2
NMSTR	13	96	7
NMSI_	13	96	7	96	48	3
NMTAP	13	144	7
NMTAP	13	192	2
NMTAP	13	240	2
NMTTP	13	288	4	D	0	M1
NMTAP	13	288	7
NMTTP	13	300	5	D	0	M1
NMTTP	13	312	6	D	0	M1
NMTTP	13	324	7	D	0	M1
NMTTP	13	336	0	D	0	M1
NMTTP	13	348	1	D	0	M1
NMTTP	13	360	2	D	0	M1
NMTTP	13	372	3	D	0	M1
NMTTP	14	0	0	C	1	M1
NMTTP	14	0	4	D	0	M1
NMTAP	14	288	3
NMTAP	14	288	4
BRHLD	15	0	2	480
BRSTR	15	0	5
NMSLL	15	0	5	96	384	0
NMTAP	16	192	0
NMTAP	16	192	6
NMTAP	16	240	1
NMTAP	16	240	5
NMTAP	16	288	4
NMTAP	16	320	2
NMTAP	16	336	3
NMHLD	17	0	0	192
NMHLD	17	0	5	192
NMHLD	17	240	1	48
NMHLD	17	240	4	48
NMHLD	17	336	2	240
NMHLD	17	336	3	240
NMHLD	18	240	1	48
NMHLD	18	240	3	48
NMHLD	18	320	1	16
NMHLD	18	320	3	16
NMHLD	19	0	2	192
NMHLD	19	0	4	192
NMHLD	19	240	0	48
NMHLD	19	240	7	48
NMHLD	19	336	4	336
NMHLD	19	336	6	96
NMHLD	20	96	7	48
NMHLD	20	192	1	48
NMTAP	20	288	3
NMTAP	20	336	4
NMTAP	21	0	3
NMHLD	21	0	5	288
NMTAP	21	96	4
NMTAP	21	176	6
NMTAP	21	240	6
NMTAP	21	288	4
NMTAP	21	336	3
NMHLD	21	336	6	384
NMTAP	22	96	5
NMTAP	22	176	7
NMTAP	22	240	7
NMTAP	22	288	5
NMTAP	22	336	4
NMTAP	23	0	4
NMHLD	23	0	7	288
NMTAP	23	96	6
NMTAP	23	176	0
NMTAP	23	240	0
NMTAP	23	288	1
NMHLD	23	336	2	144
NMTAP	23	336	3
NMTAP	24	48	0
NMHLD	24	96	3	96
NMTAP	24	144	0
NMHLD	24	192	2	96
NMTAP	24	240	0
NMHLD	24	288	3	96
NMTAP	24	336	0
NMTAP	25	0	2
NMTAP	25	48	3
NMTAP	25	96	1
NMTAP	25	96	4
NMTAP	25	144	0
NMTAP	25	192	6
NMTAP	25	192	7
NMTAP	25	240	5
NMTAP	25	288	3
NMTAP	25	288	4
NMTAP	25	336	2
NMTAP	26	0	1
NMSTR	26	0	3
NMSUR	26	0	3	96	48	7
NMTAP	26	80	2
NMTAP	26	144	2
NMSTR	26	192	3
NMSUL	26	192	3	96	48	7
NMTAP	26	192	4
NMTAP	26	272	6
NMTAP	26	336	6
NMTAP	27	0	5
NMTAP	27	48	4
NMTAP	27	96	3
NMTAP	27	96	6
NMTAP	27	144	7
NMTAP	27	192	0
NMTAP	27	192	1
NMTAP	27	240	2
NMTAP	27	288	3
NMTAP	27	288	4
NMTAP	27	336	5
NMSTR	28	0	4
NMSUL	28	0	4	96	48	0
NMTAP	28	0	6
NMTAP	28	80	5
NMTAP	28	144	5
NMTAP	28	192	3
NMSTR	28	192	4
NMSUR	28	192	4	96	48	0
NMTAP	28	272	1
NMTAP	28	336	1
NMTAP	29	0	2
NMTAP	29	48	3
NMTAP	29	96	1
NMTAP	29	96	4
NMTAP	29	144	0
NMTAP	29	192	7
NMTAP	29	240	5
NMTAP	29	288	3
NMTAP	29	288	6
NMTAP	29	336	4
NMSTR	30	0	4
NMSXR	30	0	4	96	48	7
NMTAP	30	0	5
NMTAP	30	80	7
NMTAP	30	144	6
CNSCR	30	144	7	0	144	2
NMTAP	30	240	5
NMHLD	30	288	5	96
NMTAP	31	0	4
NMTAP	31	96	3
NMTAP	31	144	3
NMTAP	31	176	5
NMTAP	31	224	5
NMTAP	31	240	4
NMTAP	31	288	3
EXSTR	31	288	5
NMSCR	31	288	5	96	48	0
EXSTR	32	0	4
NMSV_	32	0	4	96	48	1
EXTAP	32	0	5
EXTAP	32	96	4
EXSTR	32	96	5
NMSCR	32	96	5	96	48	0
EXSTR	32	192	4
NMSV_	32	192	4	96	48	1
EXTAP	32	192	5
EXTAP	32	288	4
EXTAP	32	288	5
NMSTR	33	0	2
NMSUL	33	0	2	96	80	5
NMTAP	33	0	6
NMTAP	33	96	4
NMTAP	33	176	3
CNSUR	33	176	5	0	112	1
NMHLD	33	240	3	48
EXTAP	34	0	4
EXSTR	34	0	5
NMSUR	34	0	5	96	96	2
NMTAP	34	48	4
NMTAP	34	48	5
NMTAP	34	176	3
CNSUL	34	192	2	0	96	6
NMHLD	34	240	3	48
NMSTR	35	0	2
NMSUL	35	0	2	96	80	5
NMTAP	35	0	6
NMTAP	35	96	4
NMTAP	35	176	3
CNSUR	35	176	5	0	112	1
NMHLD	35	240	3	48
EXTAP	36	0	3
EXSTR	36	0	5
NMSCR	36	0	5	96	96	0
NMSTR	36	96	0
NMSI_	36	96	0	96	96	4
EXSTR	36	192	4
NMSCL	36	192	4	96	96	1
NMTAP	36	288	1
NMSTR	37	0	0
NMSUL	37	0	0	96	96	4
NMTAP	37	96	3
NMTAP	37	176	2
CNSUR	37	192	4	0	96	1
NMTAP	37	240	2
NMTAP	37	288	3
EXTAP	38	0	6
EXSTR	38	0	7
NMSUR	38	0	7	96	96	3
NMTAP	38	48	6
NMTAP	38	48	7
NMTAP	38	176	5
CNSUL	38	192	3	0	96	6
NMTAP	38	240	4
NMTAP	38	288	4
NMSTR	39	0	0
NMSUL	39	0	0	96	96	4
NMTAP	39	0	5
NMTAP	39	96	3
NMTAP	39	176	2
CNSUR	39	192	4	0	96	1
NMTAP	39	240	2
EXSTR	39	288	3
NMSV_	39	288	3	96	48	6
EXSTR	40	0	2
NMSCL	40	0	2	96	48	7
EXTAP	40	0	3
EXTAP	40	96	2
EXSTR	40	96	3
NMSV_	40	96	3	96	48	6
EXTAP	40	192	2
EXTAP	40	192	3
NMTAP	40	272	0
NMTAP	40	288	7
NMTAP	40	336	2
NMTAP	40	336	5
NMTAP	41	0	1
NMHLD	41	0	3	96
NMTAP	41	48	0
NMTAP	41	96	2
NMTAP	41	128	5
NMTAP	41	144	3
NMTAP	41	176	6
NMHLD	41	192	4	96
NMTAP	41	240	7
NMTAP	41	288	5
NMTAP	41	320	2
NMTAP	41	336	4
NMTAP	41	368	1
NMHLD	42	0	3	96
NMTAP	42	48	0
NMTAP	42	96	2
NMTAP	42	128	5
NMTAP	42	144	3
NMTAP	42	176	6
NMTAP	42	192	4
NMTAP	42	240	7
NMTAP	42	288	2
NMTAP	42	288	5
NMSTR	42	336	0
BRSI_	42	336	0	96	48	6
NMHLD	42	336	3	336
CNSI_	43	96	6	0	48	1
CNSI_	43	144	1	0	48	5
CNSI_	43	192	5	0	48	2
CNSI_	43	240	2	0	48	4
BRTAP	44	0	2
BRTAP	44	0	5
NMTAP	44	96	2
NMTAP	44	128	5
NMTAP	44	144	3
NMTAP	44	176	6
NMTAP	44	192	4
NMTAP	44	240	7
NMSTR	44	288	4
NMSXR	44	288	4	96	96	4
NMTAP	44	288	5
NMTAP	44	336	3
NMTAP	44	336	6
NMSTR	45	0	4
NMSXL	45	0	4	96	96	4
NMTAP	45	0	5
EXTAP	45	96	6
EXSTR	45	192	7
NMSCR	45	192	7	96	48	3
EXTAP	45	288	7
BXTAP	46	0	0
BXTAP	46	8	7
BXTAP	46	16	6
BXTAP	46	24	5
BXTAP	46	32	4
BXTAP	46	40	3
BXTAP	46	48	2
NMTAP	46	288	2
NMTAP	46	288	5
NMSTR	47	0	0
NMSXL	47	0	0	96	96	2
NMSTR	47	0	4
NMSXL	47	0	4	96	96	6
CNSCL	47	192	2	0	96	0
CNSCL	47	192	6	0	96	4
CNSI_	47	288	0	0	192	3
CNSI_	47	288	4	0	192	7
EXTAP	48	192	2
EXTAP	48	192	6
EXTAP	48	240	2
EXTAP	48	240	6
NMTAP	48	288	1
NMTAP	48	320	7
NMTAP	48	336	1
NMHLD	49	0	3	96
NMSTR	49	0	6
NMSCR	49	0	6	96	48	2
NMTAP	49	176	4
NMTAP	49	224	5
NMTAP	49	240	4
NMTAP	49	288	3
NMTAP	49	288	6
NMSTR	50	0	1
NMSCL	50	0	1	96	48	5
NMHLD	50	0	4	96
NMTAP	50	48	1
NMTAP	50	176	3
NMTAP	50	224	2
NMTAP	50	240	3
NMTAP	50	288	1
NMTAP	50	288	4
NMHLD	51	0	3	96
NMSTR	51	0	6
NMSCR	51	0	6	96	48	2
NMTAP	51	176	4
NMTAP	51	224	5
NMTAP	51	240	4
NMTAP	51	288	3
NMTAP	51	288	6
NMTAP	52	0	4
NMTAP	52	0	5
NMTAP	52	48	7
NMTAP	52	96	3
NMTAP	52	96	5
NMTAP	52	144	0
NMTAP	52	192	2
NMTAP	52	192	4
NMTAP	52	240	7
EXTAP	52	288	2
EXTAP	52	288	3
NMTAP	52	336	1
EXHLD	53	0	0	96
EXSTR	53	0	5
NMSCL	53	0	5	96	48	1
NMTAP	53	176	7
NMTAP	53	224	6
NMTAP	53	240	7
NMTAP	53	288	0
NMTAP	53	288	5
NMSTR	54	0	2
NMSCR	54	0	2	96	48	6
NMTAP	54	0	6
NMTAP	54	48	6
NMTAP	54	96	7
NMTAP	54	176	0
NMTAP	54	224	1
NMTAP	54	240	0
NMTAP	54	288	2
NMTAP	54	288	7
NMHLD	55	0	0	96
NMSTR	55	0	5
NMSCL	55	0	5	96	48	1
NMTAP	55	176	7
NMTAP	55	224	6
NMTAP	55	240	7
NMSTR	55	288	0
NMSI_	55	288	0	96	48	4
NMTAP	55	288	5
EXTAP	56	0	0
NMSTR	56	0	6
NMSI_	56	0	6	96	48	2
NMSTR	56	96	3
NMSI_	56	96	3	96	48	0
EXTAP	56	96	6
NMSTR	56	192	5
NMSLL	56	192	5	96	48	1
NMTAP	56	240	5
BRTAP	56	288	7
NMTAP	57	0	0
NMTAP	57	0	6
NMHLD	57	80	5	48
NMHLD	57	128	4	48
NMHLD	57	176	3	48
NMTAP	57	224	2
NMTAP	57	240	3
NMTAP	57	288	1
NMSTR	57	288	3
NMSXL	57	288	3	96	48	5
EXTAP	57	368	2
NMTAP	58	48	0
NMSTR	58	96	7
NMSXL	58	96	7	96	48	1
EXTAP	58	176	5
NMTAP	58	240	3
NMTAP	58	288	3
NMSTR	59	0	2
NMSCR	59	0	2	96	48	4
NMTAP	59	0	4
NMHLD	59	80	5	64
CNSXL	59	144	4	0	48	6
NMTAP	59	240	4
NMTAP	59	288	0
NMTAP	59	288	4
NMHLD	59	368	1	112
NMTAP	59	368	3
NMTAP	60	48	2
NMTTP	60	96	3	A	0	M1
NMTTP	60	104	4	D	0	M1
NMTTP	60	112	4	A	0	M1
NMTTP	60	120	5	D	0	M1
NMTTP	60	128	5	A	0	M1
NMTTP	60	136	6	D	0	M1
NMTTP	60	144	6	A	0	M1
EXTAP	60	176	0
NMTAP	60	224	6
NMTAP	60	240	7
BRTAP	60	288	0
BRTAP	60	288	5
NMSTR	61	0	4
NMSXR	61	0	4	96	48	2
NMTAP	61	0	6
NMTAP	61	96	5
CNSCL	61	144	2	0	144	7
NMTAP	61	176	3
NMTAP	61	240	3
NMTAP	61	288	2
NMTAP	62	0	1
NMSTR	62	0	3
NMSXL	62	0	3	96	48	5
NMTAP	62	96	2
CNSCR	62	144	5	0	144	0
NMTAP	62	176	4
NMTAP	62	240	4
EXTAP	62	288	5
EXTAP	62	320	4
EXTAP	62	352	3
EXTAP	63	0	2
NMSTR	63	96	1
NMSI_	63	96	1	96	48	4
NMTAP	63	96	4
EXTAP	63	176	1
EXTAP	63	176	5
NMTAP	63	240	7
NMTAP	63	288	0
NMTAP	63	320	6
NMTAP	63	336	0
NMTAP	64	0	2
NMTTP	64	0	7	A	0	M1
NMTTP	64	8	7	B	0	M1
NMTTP	64	16	0	C	1	M1
NMTTP	64	24	3	B	0	M1
NMTTP	64	32	3	A	0	M1
NMSTR	64	288	0
NMSUL	64	288	0	96	384	6
NMTAP	64	288	4
NMSTR	65	0	4
BRSUL	65	0	4	96	384	2
CNSCL	66	0	6	0	576	3
CNSCL	66	96	2	0	480	7
NMTAP	68	0	2
NMTAP	68	96	1
NMTAP	68	192	0
NMTAP	68	288	0
NMTAP	68	288	7
NMHLD	69	0	4	944
NMTAP	69	0	5
NMTAP	69	96	6
NMTAP	69	288	6
NMTAP	70	0	3
NMTAP	70	96	6
NMTAP	70	288	6
NMTAP	71	0	3
NMTAP	71	96	6
NMTAP	71	176	5
NMTAP	71	224	4
NMTAP	71	240	5
EXSTR	71	288	4
BRSV_	71	288	4	96	48	1
NMTAP	71	288	6
EXTAP	72	0	4
EXSTR	72	0	5
BRSCR	72	0	5	96	48	0
EXSTR	72	96	4
BRSV_	72	96	4	96	48	1
EXTAP	72	96	5
EXTAP	72	192	4
EXTAP	72	192	5
NMTAP	72	272	7
NMTAP	72	288	0
NMTAP	72	336	2
NMTAP	72	336	5
NMHLD	73	0	4	96
NMTAP	73	0	6
NMTAP	73	48	7
NMTAP	73	96	5
NMTAP	73	128	2
NMTAP	73	144	4
NMTAP	73	176	1
NMHLD	73	192	3	96
NMTAP	73	240	0
NMTAP	73	288	2
NMTAP	73	320	5
NMTAP	73	336	3
NMTAP	73	368	6
NMHLD	74	0	4	96
NMTAP	74	48	7
NMTAP	74	96	5
NMTAP	74	128	2
NMTAP	74	144	4
NMTAP	74	176	1
NMTAP	74	192	3
NMTAP	74	240	0
NMTAP	74	288	2
NMTAP	74	288	5
EXHLD	74	336	4	336
EXSTR	74	336	7
BRSI_	74	336	7	96	48	1
CNSI_	75	96	1	0	48	6
CNSI_	75	144	6	0	48	2
CNSI_	75	192	2	0	48	5
CNSI_	75	240	5	0	48	3
BRTAP	76	0	1
BRTAP	76	0	6
NMTAP	76	96	5
NMTAP	76	128	2
NMTAP	76	144	4
NMTAP	76	176	1
NMHLD	76	192	3	96
NMTAP	76	240	0
NMTAP	76	288	2
NMTAP	76	336	1
NMTAP	76	336	4
NMSTR	77	0	5
NMSXL	77	0	5	96	144	3
NMSTR	77	48	2
BRSXR	77	48	2	96	144	4
EXTAP	77	288	5
EXTAP	77	336	2
BXTAP	78	0	7
BXTAP	78	8	0
BXTAP	78	16	1
BXTAP	78	24	2
BXTAP	78	32	3
BXTAP	78	40	4
BXTAP	78	48	5
NMTAP	78	288	0
NMTAP	78	288	4
NMSTR	79	0	2
NMSXR	79	0	2	96	96	0
NMSTR	79	0	6
NMSXR	79	0	6	96	96	4
CNSCR	79	192	0	0	96	2
CNSCR	79	192	4	0	96	6
CNSI_	79	288	2	0	192	7
CNSI_	79	288	6	0	192	3
NMTAP	80	192	2
NMTAP	80	192	6
NMTAP	80	240	3
NMTAP	80	240	5
NMTAP	80	288	1
NMTAP	80	320	7
NMTAP	80	336	1
BRTAP	81	0	2
BRTAP	81	0	6

T_REC_TAP	332
T_REC_BRK	9
T_REC_XTP	37
T_REC_BXX	14
T_REC_HLD	57
T_REC_XHO	2
T_REC_BHO	1
T_REC_BXH	0
T_REC_STR	45
T_REC_BST	2
T_REC_XST	17
T_REC_XBS	0
T_REC_TTP	30
T_REC_THO	0
T_REC_SLD	57
T_REC_BSL	7
T_REC_ALL	610
T_NUM_TAP	461
T_NUM_BRK	33
T_NUM_HLD	59
T_NUM_SLD	57
T_NUM_ALL	610
T_JUDGE_TAP	486
T_JUDGE_HLD	209
T_JUDGE_SLD	64
T_JUDGE_ALL	759
TTM_EACHPAIRS	119
TTM_SCR_TAP	230500
TTM_SCR_BRK	85800
TTM_SCR_HLD	59000
TTM_SCR_SLD	85500
TTM_SCR_ALL	460800
TTM_SCR_S	443800
TTM_SCR_SS	457500
TTM_RAT_ACV	10072

