VERSION	0.00.00	1.04.00
FES_MODE	0
BPM_DEF	143.000	143.000	143.000	143.000
MET_DEF	4	4
RESOLUTION	384
CLK_DEF	384
COMPATIBLE_CODE	MA2

BPM	0	0	143.000
MET	0	0	4	4

NMHLD	1	0	1	1536
NMTTP	1	96	3	B	0	M1
NMTTP	1	288	3	E	0	M1
NMTTP	2	96	3	B	0	M1
NMTTP	2	288	3	E	0	M1
NMTTP	3	96	5	B	0	M1
NMTTP	3	288	3	E	0	M1
NMTTP	4	96	5	B	0	M1
NMTTP	4	288	3	E	0	M1
NMHLD	5	0	6	768
NMTTP	5	96	5	B	0	M1
NMTTP	5	288	4	E	0	M1
NMTTP	6	96	5	B	0	M1
NMTTP	6	288	4	E	0	M1
NMHLD	7	0	3	80
EXHLD	7	144	2	96
EXHLD	7	144	4	96
EXHLD	7	336	4	96
EXHLD	7	336	6	96
NMHLD	8	96	3	48
NMHLD	8	96	5	48
NMHLD	8	192	2	48
NMHLD	8	192	4	48
BXTAP	8	288	0
EXHLD	9	0	1	384
EXSTR	9	0	6
NMSCR	9	0	6	96	288	5
NMHLD	10	96	5	96
NMHLD	10	192	4	96
NMHLD	10	288	3	96
NMSTR	11	0	2
NMSCR	11	0	2	96	96	5
NMSTR	11	192	6
NMSCR	11	192	6	96	96	1
NMHLD	12	0	2	96
NMHLD	12	96	3	96
NMTAP	12	192	1
NMSTR	12	288	0
NMSUR	12	288	0	96	96	4
NMTAP	12	288	4
NMHLD	13	0	5	96
NMTAP	13	192	5
NMTAP	13	240	4
NMTAP	13	288	3
NMTAP	13	336	2
BRTAP	14	0	1
BRTAP	14	0	5
NMSTR	15	0	2
NMSXR	15	0	2	96	384	4
NMSTR	15	0	5
NMSXL	15	0	5	96	384	3
NMTAP	16	192	5
EXTAP	16	240	3
EXTAP	16	240	5
EXTAP	16	320	2
EXTAP	16	320	4
BXTAP	17	0	1
BXTAP	17	0	3
NMTAP	17	240	0
NMTAP	17	240	1
NMHLD	17	336	4	192
NMHLD	17	336	6	192
EXTAP	18	240	6
EXTAP	18	240	7
EXTAP	18	320	6
EXTAP	18	320	7
EXTAP	19	0	0
EXTAP	19	0	5
NMTAP	19	240	3
NMTAP	19	240	4
EXHLD	19	336	0	96
EXHLD	19	336	6	240
NMTAP	20	96	7
NMTAP	20	192	5
NMTAP	20	288	4
NMTAP	20	288	5
EXTAP	21	0	3
EXTAP	21	0	7
NMTAP	21	240	6
NMTAP	21	240	7
NMHLD	21	336	1	192
NMHLD	21	336	3	192
EXTAP	22	240	0
EXTAP	22	240	1
EXTAP	22	320	0
EXTAP	22	320	1
EXTAP	23	0	2
EXTAP	23	0	7
NMTAP	23	240	3
NMTAP	23	240	4
EXHLD	23	336	1	240
EXHLD	23	336	7	96
NMTAP	24	96	0
NMTAP	24	192	2
BRTAP	24	288	0
BRTAP	24	288	4
NMTAP	25	0	1
NMTAP	25	48	1
NMTAP	25	96	3
NMTAP	25	192	5
NMTAP	25	240	5
NMTAP	25	288	3
NMSTR	26	0	3
NMSXR	26	0	3	96	192	3
NMSTR	26	0	7
NMSXR	26	0	7	96	192	7
NMTAP	27	0	6
NMTAP	27	48	6
NMTAP	27	96	4
NMTAP	27	192	2
NMTAP	27	240	2
NMTAP	27	288	4
NMSTR	28	0	1
NMSI_	28	0	1	96	48	5
NMSTR	28	192	6
NMSI_	28	192	6	96	48	2
NMTAP	29	0	1
NMTAP	29	48	1
NMTAP	29	96	0
NMTAP	29	192	6
NMTAP	29	240	6
NMTAP	29	288	7
NMHLD	30	0	3	72
NMHLD	30	0	4	72
EXTAP	30	144	2
EXTAP	30	144	5
NMTAP	30	240	1
NMTAP	30	240	6
NMTAP	30	288	1
NMTAP	30	288	6
NMSTR	31	0	0
NMSSL	31	0	0	96	192	4
NMHLD	31	0	5	288
EXTAP	32	0	4
EXTAP	32	0	5
EXTAP	32	96	6
EXTAP	32	96	7
EXTAP	32	192	0
EXTAP	32	192	1
EXSTR	32	288	2
NMSCL	32	288	2	96	96	6
EXTAP	32	288	3
BXTAP	33	0	6
NMTAP	33	192	4
NMTAP	33	240	4
NMTAP	33	288	3
NMSTR	33	288	5
NMSCR	33	288	5	96	96	1
BXTAP	34	0	1
NMTAP	34	192	3
NMTAP	34	240	3
NMTAP	34	288	4
NMHLD	35	0	6	192
NMTAP	35	96	4
NMHLD	35	192	1	96
NMHLD	35	288	3	288
NMTTP	36	0	5	E	0	M1
NMTTP	36	96	0	C	0	M1
NMTTP	36	192	1	E	0	M1
NMTTP	36	288	2	E	0	M1
NMTTP	36	288	4	E	0	M1
NMHLD	37	0	1	96
NMSTR	37	0	5
NMSCL	37	0	5	96	48	3
NMTAP	37	192	2
NMTAP	37	240	2
NMTAP	37	288	3
NMSTR	38	0	2
NMSCR	38	0	2	96	48	4
NMHLD	38	0	6	96
NMTAP	38	192	5
NMTAP	38	240	5
NMTAP	38	288	4
NMTAP	39	0	4
NMHLD	39	0	6	144
NMTAP	39	96	0
NMHLD	39	144	0	144
NMTAP	39	240	3
NMTAP	39	288	3
EXTAP	40	0	2
EXTAP	40	0	3
EXTAP	40	96	0
EXTAP	40	96	1
EXTAP	40	192	6
EXTAP	40	192	7
EXTAP	40	272	0
EXTAP	40	272	5
EXTAP	40	336	2
EXTAP	40	336	3
EXHLD	41	0	2	48
EXHLD	41	0	3	48
NMHLD	41	96	0	48
NMHLD	41	96	4	48
NMHLD	41	192	2	48
NMHLD	41	192	3	48
NMHLD	41	288	0	48
NMHLD	41	288	4	48
NMHLD	42	0	4	48
NMHLD	42	0	5	48
NMHLD	42	96	3	48
NMHLD	42	96	7	48
NMHLD	42	192	4	48
NMHLD	42	192	5	48
NMHLD	42	288	3	48
NMHLD	42	288	7	48
NMHLD	43	0	2	48
NMHLD	43	0	3	48
NMHLD	43	96	0	48
NMHLD	43	96	6	48
NMHLD	43	192	4	48
NMHLD	43	192	5	48
NMHLD	43	288	1	48
NMHLD	43	288	7	48
NMHLD	44	0	2	48
NMHLD	44	0	3	48
NMHLD	44	96	0	48
NMHLD	44	96	6	48
NMHLD	44	192	4	48
NMHLD	44	192	5	48
EXSTR	44	288	3
NMSXL	44	288	3	96	192	3
NMSXR	44	288	3	96	192	3
EXTAP	44	288	7
NMTAP	45	336	3
NMTAP	45	336	4
BXTAP	46	0	1
BXTAP	46	0	6
NMSTR	47	0	3
NMSUR	47	0	3	96	192	4
NMHLD	47	0	4	480
CNSCR	47	288	4	0	192	2
NMTAP	48	192	2
EXTAP	48	240	2
EXTAP	48	240	4
EXTAP	48	320	0
EXTAP	48	320	6
BXTAP	49	0	1
BXTAP	49	0	5
EXTAP	49	96	4
EXTAP	49	128	3
EXTAP	49	176	3
EXTAP	49	224	3
EXTAP	49	240	4
NMTAP	49	288	2
NMTAP	49	288	5
NMTAP	50	0	4
NMTAP	50	0	6
NMTAP	50	48	4
NMTAP	50	48	6
EXTAP	50	96	2
EXTAP	50	128	3
EXTAP	50	176	3
EXTAP	50	224	3
EXTAP	50	240	2
NMTAP	50	288	1
NMTAP	50	288	4
NMTAP	50	336	1
NMTAP	50	336	4
NMTAP	51	48	2
NMTAP	51	48	5
EXTAP	51	96	4
EXTAP	51	128	3
EXTAP	51	176	3
EXTAP	51	224	3
EXTAP	51	240	4
NMTAP	51	288	2
NMTAP	51	288	5
NMTAP	52	0	3
NMTAP	52	0	4
NMTAP	52	48	2
NMHLD	52	96	0	80
NMHLD	52	96	1	48
NMTAP	52	224	0
NMTAP	52	240	1
EXTAP	52	288	2
EXTAP	52	288	7
NMTAP	53	48	2
NMTAP	53	48	5
NMTAP	53	96	3
NMTAP	53	128	4
NMTAP	53	176	4
NMTAP	53	224	4
NMTAP	53	240	3
NMTAP	53	288	2
NMTAP	53	288	5
NMTAP	54	0	1
NMTAP	54	0	3
NMTAP	54	48	1
NMTAP	54	48	3
NMTAP	54	96	5
NMTAP	54	128	4
NMTAP	54	176	4
NMTAP	54	224	4
NMTAP	54	240	5
NMTAP	54	288	3
NMTAP	54	288	6
NMTAP	54	336	3
NMTAP	54	336	6
NMTAP	55	48	2
NMTAP	55	48	5
NMTAP	55	96	3
NMTAP	55	128	4
NMTAP	55	176	4
NMTAP	55	224	4
NMTAP	55	240	3
NMTAP	55	288	2
NMTAP	55	288	5
BRTAP	56	0	0
BRTAP	56	0	7
BRTAP	56	96	1
BRTAP	56	96	2
BRTAP	56	192	3
BRTAP	56	192	4
BXTAP	56	288	5
BXTAP	56	288	6
EXSTR	57	0	1
NMSCR	57	0	1	96	80	4
EXHLD	57	0	7	96
EXTAP	57	176	5
NMTAP	57	224	5
NMTAP	57	240	4
NMTAP	57	288	4
NMTAP	57	288	5
EXHLD	58	0	0	96
EXSTR	58	0	6
NMSCL	58	0	6	96	80	3
EXTAP	58	176	2
NMTAP	58	224	2
NMTAP	58	240	3
NMTAP	58	288	2
NMTAP	58	288	3
EXSTR	59	0	1
NMSCL	59	0	1	96	80	6
EXHLD	59	0	4	96
EXTAP	59	176	5
NMTAP	59	224	5
NMTAP	59	240	4
NMTAP	59	288	4
NMTAP	59	288	5
NMHLD	60	0	5	96
NMTAP	60	48	4
NMHLD	60	96	3	96
NMTAP	60	144	4
NMHLD	60	192	6	96
NMTAP	60	240	4
BRTAP	60	288	1
NMSTR	61	0	2
NMSCL	61	0	2	96	80	7
NMHLD	61	0	4	96
NMTAP	61	176	6
NMTAP	61	224	6
NMTAP	61	240	7
NMTAP	61	288	6
NMTAP	61	288	7
NMHLD	62	0	3	96
NMSTR	62	0	5
NMSCR	62	0	5	96	80	0
NMTAP	62	176	1
NMTAP	62	224	1
NMTAP	62	240	0
NMTAP	62	288	0
NMTAP	62	288	1
NMSTR	63	0	2
NMSCR	63	0	2	96	80	5
NMHLD	63	0	7	96
NMTAP	63	176	6
NMTAP	63	224	6
NMTAP	63	240	7
NMSTR	63	288	0
NMSI_	63	288	0	96	48	4
NMTAP	63	288	5
BRTAP	64	0	3
NMHLD	65	0	4	288
NMHLD	65	0	5	288
NMHLD	66	0	3	288
NMHLD	66	0	4	288
NMHLD	67	0	2	288
NMHLD	67	0	3	576
NMTTP	68	0	5	E	0	M1
NMTTP	68	96	0	C	0	M1
NMTTP	68	192	1	E	0	M1
NMTTP	68	288	2	E	0	M1
NMTTP	68	288	4	E	0	M1
NMHLD	69	0	4	1056
NMTAP	69	96	5
NMTAP	69	288	5
NMTAP	70	96	5
NMTAP	70	288	5
NMTAP	71	96	5
NMTAP	71	288	5
EXTAP	72	0	2
EXTAP	72	0	3
EXTAP	72	96	0
EXTAP	72	96	1
EXTAP	72	192	6
EXTAP	72	192	7
EXTAP	72	272	0
EXTAP	72	272	5
EXTAP	72	336	2
EXTAP	72	336	3
EXTAP	73	0	2
EXTAP	73	0	3
NMTAP	73	96	0
NMTAP	73	96	4
NMHLD	73	144	0	48
NMHLD	73	144	4	48
NMHLD	73	240	2	48
NMHLD	73	240	3	48
NMHLD	73	336	0	48
NMHLD	73	336	4	48
NMHLD	74	48	4	48
NMHLD	74	48	5	48
NMHLD	74	144	3	48
NMHLD	74	144	7	48
NMHLD	74	240	4	48
NMHLD	74	240	5	48
NMHLD	74	336	3	48
NMHLD	74	336	7	48
NMHLD	75	48	2	48
NMHLD	75	48	3	48
NMHLD	75	144	0	48
NMHLD	75	144	6	48
NMHLD	75	240	4	48
NMHLD	75	240	5	48
NMHLD	75	336	1	48
NMHLD	75	336	7	48
NMHLD	76	48	2	48
NMHLD	76	48	3	48
NMHLD	76	144	0	48
NMHLD	76	144	6	48
NMTAP	76	240	4
NMTAP	76	240	5
EXSTR	76	288	4
NMSXL	76	288	4	96	192	4
NMSXR	76	288	4	96	192	4
EXTAP	76	288	5
NMTAP	77	336	3
NMTAP	77	336	4
BRTAP	78	0	1
BRTAP	78	0	6
NMHLD	79	0	3	480
NMSTR	79	0	4
NMSUL	79	0	4	96	192	3
CNSCL	79	288	3	0	192	5
NMTAP	80	192	5
NMTAP	80	240	4
NMTAP	80	240	5
NMTAP	80	320	2
NMTAP	80	320	3
BXTAP	81	0	0
BXTAP	81	0	7

T_REC_TAP	159
T_REC_BRK	14
T_REC_XTP	75
T_REC_BXX	13
T_REC_HLD	98
T_REC_XHO	14
T_REC_BHO	0
T_REC_BXH	0
T_REC_STR	19
T_REC_BST	0
T_REC_XST	7
T_REC_XBS	0
T_REC_TTP	22
T_REC_THO	0
T_REC_SLD	28
T_REC_BSL	0
T_REC_ALL	449
T_NUM_TAP	282
T_NUM_BRK	27
T_NUM_HLD	112
T_NUM_SLD	28
T_NUM_ALL	449
T_JUDGE_TAP	309
T_JUDGE_HLD	305
T_JUDGE_SLD	28
T_JUDGE_ALL	642
TTM_EACHPAIRS	134
TTM_SCR_TAP	141000
TTM_SCR_BRK	70200
TTM_SCR_HLD	112000
TTM_SCR_SLD	42000
TTM_SCR_ALL	365200
TTM_SCR_S	351650
TTM_SCR_SS	362500
TTM_RAT_ACV	10074

