VERSION	0.00.00	1.04.00
FES_MODE	0
BPM_DEF	170.000	170.000	170.000	170.000
MET_DEF	4	4
RESOLUTION	384
CLK_DEF	384
COMPATIBLE_CODE	MA2

BPM	0	0	170.000
MET	0	0	4	4

NMTAP	2	0	2
NMTAP	2	48	3
NMSTR	2	96	2
NMSCR	2	96	2	96	48	4
NMTTP	2	192	3	B	0	M1
NMTAP	2	336	5
NMTAP	3	48	5
NMSTR	3	96	5
NMSCL	3	96	5	96	48	3
NMTTP	3	192	4	B	0	M1
NMTAP	4	0	2
NMTAP	4	48	3
NMSTR	4	96	2
NMSCR	4	96	2	96	48	4
NMTTP	4	192	3	B	0	M1
NMTAP	4	336	5
NMTAP	5	48	5
NMHLD	5	96	5	96
NMTAP	5	192	4
NMTAP	5	216	5
NMTAP	5	240	4
BXTAP	5	288	3
BXTAP	5	288	6
NMTAP	6	0	0
NMTAP	6	0	7
NMTAP	6	48	1
NMTAP	6	96	1
NMTAP	6	96	3
NMTAP	6	144	4
NMTAP	6	168	3
NMTAP	6	216	3
NMTAP	6	240	4
NMTAP	6	288	2
NMTAP	6	288	5
NMTAP	6	336	1
NMSTR	6	336	6
NMSI_	6	336	6	96	48	2
NMSTR	7	48	0
NMSI_	7	48	0	96	48	4
NMTAP	7	96	0
NMTAP	7	144	5
NMHLD	7	192	5	96
NMTTP	7	240	4	E	0	M1
NMTTP	7	264	3	E	0	M1
NMTTP	7	288	2	E	0	M1
EXTAP	7	336	1
EXTAP	7	336	4
NMTAP	8	48	2
NMTAP	8	72	3
NMTAP	8	96	1
NMTAP	8	144	0
NMTAP	8	144	4
NMTAP	8	240	5
NMTAP	8	264	4
NMTAP	8	288	6
NMTAP	8	336	3
NMSTR	8	336	7
NMSI_	8	336	7	96	48	3
NMTAP	9	48	2
NMTAP	9	96	2
NMTAP	9	144	3
NMTAP	9	192	2
NMTAP	9	192	4
BXTAP	9	288	0
BXTAP	9	288	7
NMTAP	10	0	3
NMTAP	10	48	3
NMHLD	10	96	3	384
NMTTP	10	192	3	B	0	M1
NMTAP	10	288	5
NMTAP	10	336	5
NMTAP	11	48	5
NMHLD	11	96	5	384
NMTTP	11	192	5	B	0	M1
NMTAP	11	336	2
NMTAP	12	48	2
NMHLD	12	96	2	384
NMTTP	12	192	2	B	0	M1
NMTAP	12	288	4
NMTAP	12	336	4
NMTAP	13	48	4
NMHLD	13	96	4	192
NMTTP	13	192	0	C	0	M1
NMSTR	13	288	3
NMSI_	13	288	3	96	48	0
NMSI_	13	288	3	96	48	6
EXTAP	14	96	0
EXTAP	14	96	7
NMTAP	14	144	1
NMSTR	14	192	2
NMSCL	14	192	2	96	48	0
NMTAP	14	192	4
NMTAP	14	288	5
NMSTR	14	336	5
NMSCL	14	336	5	96	96	2
NMTAP	15	48	7
NMTAP	15	96	0
NMTAP	15	144	1
NMTAP	15	240	1
NMTAP	15	240	2
NMTAP	15	288	1
NMTAP	15	288	2
NMSTR	16	0	0
NMSI_	16	0	0	96	48	4
NMTAP	16	0	3
NMHLD	16	96	5	96
NMHLD	16	192	3	96
NMTAP	16	288	4
NMTAP	16	336	4
NMTTP	17	0	3	E	0	M1
NMTTP	17	24	3	B	0	M1
NMTTP	17	48	4	B	0	M1
NMTTP	17	72	5	E	0	M1
NMTTP	17	96	0	C	0	M1
NMTTP	17	144	7	E	0	M1
NMTTP	17	168	7	B	0	M1
NMTTP	17	192	0	B	0	M1
NMTTP	17	216	1	E	0	M1
NMTTP	17	240	0	C	0	M1
NMTTP	17	288	2	E	0	M1
NMTTP	17	288	6	E	0	M1
NMTAP	18	0	2
NMTAP	18	48	2
NMHLD	18	96	2	384
NMTTP	18	192	2	B	0	M1
NMTAP	18	288	1
NMTAP	18	336	1
NMTAP	19	48	0
NMHLD	19	96	0	384
NMTTP	19	192	0	B	0	M1
NMTAP	19	336	7
NMTAP	20	48	7
NMHLD	20	96	7	384
NMTTP	20	192	7	B	0	M1
NMTAP	20	288	6
NMTAP	20	336	6
NMTAP	21	48	5
NMHLD	21	96	5	192
NMTTP	21	192	0	C	0	M1
NMSTR	21	288	4
NMSI_	21	288	4	96	48	1
NMSI_	21	288	4	96	48	7
EXTAP	22	96	0
EXTAP	22	96	7
NMTAP	22	144	6
NMTAP	22	192	3
NMSTR	22	192	5
NMSCR	22	192	5	96	48	7
NMTAP	22	288	2
NMSTR	22	336	2
NMSCR	22	336	2	96	96	5
NMTAP	23	48	0
NMTAP	23	96	7
NMTAP	23	144	6
NMTAP	23	240	5
NMTAP	23	240	6
NMTAP	23	288	5
NMTAP	23	288	6
NMTAP	23	336	4
NMSTR	23	336	7
NMSI_	23	336	7	96	48	3
NMTAP	24	48	3
NMSTR	24	96	2
NMSI_	24	96	2	96	48	4
NMTAP	24	192	5
NMTAP	24	240	5
NMTAP	24	288	6
NMTAP	24	336	4
NMTAP	24	336	6
NMTAP	25	48	0
NMTAP	25	48	2
NMTAP	25	144	1
NMTAP	25	144	4
NMTAP	25	192	1
NMTAP	25	192	4
NMTAP	25	240	2
NMTAP	25	264	3
BRTAP	25	288	0
NMSTR	26	0	1
NMSI_	26	0	1	96	48	4
NMTAP	26	48	1
NMSTR	26	96	5
NMSCR	26	96	5	96	72	0
NMTAP	26	144	5
NMHLD	26	192	2	72
NMTAP	26	336	1
NMHLD	26	336	4	288
NMTAP	27	48	0
NMTAP	27	96	7
NMSTR	27	144	6
NMSLL	27	144	6	96	96	1
EXTAP	27	240	6
NMSTR	27	336	5
NMSI_	27	336	5	96	48	7
NMTAP	28	0	5
NMSTR	28	48	1
NMSI_	28	48	1	96	48	3
NMTAP	28	96	1
NMSTR	28	144	0
NMSI_	28	144	0	96	48	4
NMTAP	28	192	0
NMTAP	28	240	4
NMTAP	28	336	2
NMTAP	28	336	3
NMSTR	29	48	1
NMSUL	29	48	1	96	96	4
NMSTR	29	48	4
NMSUR	29	48	4	96	96	1
NMTAP	29	96	1
NMTAP	29	96	4
NMTTP	29	192	6	B	1	M1
NMTTP	30	0	3	A	0	M1
NMTTP	30	48	3	B	0	M1
NMTTP	30	96	0	C	0	M1
NMTTP	30	144	7	B	0	M1
NMTTP	30	192	5	A	0	M1
NMTTP	30	240	5	B	0	M1
NMTTP	30	288	0	C	0	M1
NMTTP	30	336	1	B	0	M1
NMTTP	31	0	2	A	0	M1
NMTTP	31	48	2	B	0	M1
NMTTP	31	96	6	B	0	M1
NMTTP	31	144	6	A	0	M1
NMTHO	31	192	0	96	C	0	M1
BRTAP	31	288	7
BXHLD	32	0	0	96
BXHLD	32	0	6	96
BXHLD	32	144	2	144
BXHLD	32	144	3	96
BXHLD	33	0	1	96
BXHLD	33	0	7	96
BXHLD	33	144	4	96
BXHLD	33	144	5	144
BXTAP	33	336	2
BXTAP	33	336	7
NMTAP	34	48	3
NMTAP	34	72	4
NMTAP	34	96	2
NMTAP	34	120	5
NMTAP	34	144	2
NMTAP	34	168	5
NMTAP	34	192	1
NMTAP	34	216	6
NMTAP	34	240	1
NMTAP	34	264	6
NMTAP	34	288	0
EXTAP	34	336	1
EXTAP	34	336	7
EXTAP	35	48	0
EXTAP	35	48	6
EXTAP	35	96	3
EXTAP	35	96	4
EXHLD	35	144	1	96
EXHLD	35	144	5	96
NMTTP	35	288	2	E	0	M1
NMTTP	35	288	2	A	0	M1
NMTTP	35	288	2	D	0	M1
NMTTP	35	288	4	A	0	M1
NMTTP	35	288	5	E	0	M1
NMTTP	35	288	5	D	0	M1
BXTAP	36	0	0
BXTAP	36	0	7
NMTAP	36	96	2
NMTAP	36	96	3
NMTAP	36	144	1
NMTAP	36	192	0
NMTAP	36	192	5
NMSTR	36	240	6
NMSCR	36	240	6	96	96	3
NMTAP	36	264	7
NMTAP	36	288	5
EXTAP	36	336	3
EXTAP	37	48	0
EXSTR	37	96	1
NMSI_	37	96	1	96	48	4
EXSTR	37	96	4
NMSI_	37	96	4	96	48	7
EXTAP	37	144	5
EXTAP	37	192	1
EXTAP	37	192	4
NMTAP	37	288	4
NMTAP	37	288	7
NMTAP	37	336	6
NMTAP	38	0	0
NMTAP	38	0	5
NMTAP	38	48	1
NMTAP	38	96	2
NMTAP	38	96	4
NMTAP	38	144	5
NMHLD	38	192	4	72
NMTAP	38	192	6
NMTAP	38	240	3
NMSTR	38	264	3
NMSV_	38	264	3	96	24	0
NMTAP	38	336	1
NMTAP	39	48	2
NMTAP	39	48	6
NMSTR	39	96	1
NMSI_	39	96	1	96	48	5
NMSTR	39	96	7
NMSI_	39	96	7	96	48	3
NMTAP	39	192	1
NMTAP	39	192	7
BXTAP	39	288	2
BXTAP	39	288	6
NMTAP	39	336	5
NMHLD	40	0	2	72
NMTAP	40	0	4
NMHLD	40	72	1	72
NMSTR	40	144	0
NMSI_	40	144	0	96	48	5
NMTAP	40	192	7
NMSTR	40	240	0
NMSI_	40	240	0	96	48	3
NMTAP	40	240	6
EXSTR	40	336	0
NMSI_	40	336	0	96	48	4
EXTAP	40	336	2
EXTAP	41	48	0
EXTAP	41	48	6
NMTAP	41	144	4
NMTAP	41	144	5
NMTAP	41	192	3
NMTAP	41	192	6
NMSTR	41	240	2
NMSCL	41	240	2	96	96	6
NMTAP	41	240	7
NMSTR	41	336	6
NMSCL	41	336	6	96	96	2
NMTAP	42	48	2
NMTAP	42	144	5
NMTAP	42	192	2
NMTAP	42	192	4
NMSTR	42	240	1
NMSI_	42	240	1	96	48	3
NMSTR	42	240	5
NMSI_	42	240	5	96	48	7
NMSTR	42	336	1
NMSI_	42	336	1	96	48	7
NMSTR	42	336	5
NMSI_	42	336	5	96	48	3
NMTAP	43	48	1
NMTAP	43	48	5
NMTAP	43	144	2
NMTAP	43	144	3
NMHLD	43	192	2	48
NMHLD	43	192	3	48
BRTAP	43	288	0
BRTAP	43	288	5
EXTAP	44	0	1
EXTAP	44	0	7
NMTAP	44	96	4
NMTAP	44	96	5
NMTAP	44	144	6
NMTAP	44	192	2
NMTAP	44	192	7
NMSTR	44	240	1
NMSCL	44	240	1	96	96	4
NMTAP	44	264	0
NMTAP	44	288	2
EXTAP	44	336	4
EXTAP	45	48	7
EXSTR	45	96	3
NMSI_	45	96	3	96	48	0
EXSTR	45	96	6
NMSI_	45	96	6	96	48	3
EXTAP	45	144	2
EXTAP	45	192	3
EXTAP	45	192	6
NMTAP	45	288	0
NMTAP	45	288	3
NMTAP	45	336	1
NMTAP	46	0	2
NMHLD	46	0	5	72
NMHLD	46	72	6	72
NMSTR	46	144	7
NMSUR	46	144	7	96	96	4
NMSTR	46	240	4
NMSCR	46	240	4	96	96	0
NMSTR	46	336	0
NMSCR	46	336	0	96	96	4
NMSTR	47	48	4
NMSF_	47	48	4	96	96	0
NMHLD	48	0	2	144
NMTAP	48	0	3
NMTAP	48	96	0
NMHLD	48	144	0	96
NMTAP	48	240	7
NMTAP	48	288	5
BRTAP	48	336	2
BRTAP	48	336	6
BRHLD	49	48	0	192
BRHLD	49	48	4	192
NMTTP	49	288	0	C	0	M1
EXSTR	50	0	0
NMSLR	50	0	0	96	96	6
EXTAP	50	0	6
NMTAP	50	96	3
NMTAP	50	144	4
NMTAP	50	192	5
NMTAP	50	288	6
NMTAP	50	288	7
NMTAP	50	336	6
NMSTR	50	336	7
NMSI_	50	336	7	96	48	3
NMSTR	51	48	0
NMSI_	51	48	0	96	48	2
NMTAP	51	48	7
NMTAP	51	144	0
NMTAP	51	144	2
NMTAP	51	240	1
NMTAP	51	240	2
BXSTR	51	288	1
BRSCL	51	288	1	96	288	2
BXSTR	51	288	2
BRSCR	51	288	2	96	288	1
NMTTP	53	0	2	E	0	M1
NMTTP	53	24	2	B	0	M1
NMTTP	53	48	3	B	0	M1
NMTTP	53	96	0	C	0	M1
NMTTP	53	144	6	E	0	M1
NMTTP	53	168	5	B	0	M1
NMTTP	53	192	4	B	0	M1
NMTTP	53	240	1	E	0	M1
NMTTP	53	264	7	E	0	M1
NMTTP	53	288	2	E	0	M1
NMTTP	53	312	6	E	0	M1
NMTTP	53	336	3	E	0	M1
NMTTP	53	360	5	E	0	M1
EXTAP	54	0	3
NMTAP	54	96	3
NMHLD	54	192	3	480
NMTAP	54	336	2
NMTAP	55	48	2
NMHLD	55	192	2	384
NMTAP	56	0	1
NMTAP	56	96	1
NMHLD	56	192	1	480
NMTAP	56	336	0
NMTAP	57	48	0
NMHLD	57	192	0	432
NMTAP	58	0	7
NMTAP	58	96	7
NMTAP	58	192	7
NMHLD	58	240	7	432
NMTAP	58	336	6
NMTAP	59	48	6
NMTAP	59	96	6
NMHLD	59	192	6	432
NMTAP	60	0	5
NMTAP	60	96	5
NMTAP	60	192	5
NMTAP	60	240	5
NMTAP	60	336	4
NMTAP	60	336	6
NMTAP	61	0	3
NMTAP	61	24	4
NMTAP	61	48	3
NMTAP	61	96	5
NMTAP	61	120	4
NMTAP	61	144	5
NMTAP	61	192	2
NMTAP	61	216	3
NMTAP	61	240	2
NMTAP	61	264	3
NMTAP	61	288	1
NMTAP	61	312	4
NMTAP	61	336	1
NMTAP	61	360	4
BXTAP	62	0	0
NMTAP	62	48	5
NMTAP	62	72	4
NMTAP	62	96	5
NMTAP	62	144	2
NMTAP	62	168	3
NMHLD	62	192	2	48
NMTAP	62	240	4
NMTAP	62	264	3
NMTAP	62	288	5
NMTAP	62	312	4
NMTAP	62	336	6
NMTAP	63	0	1
NMTAP	63	0	7
NMTAP	63	48	2
NMTAP	63	72	3
NMTAP	63	96	2
NMTAP	63	144	5
NMTAP	63	168	4
NMHLD	63	192	5	48
NMTAP	63	240	3
NMTAP	63	264	4
NMTAP	63	288	2
NMTAP	63	312	3
NMTAP	63	336	1
NMTAP	64	0	4
NMTAP	64	0	5
NMTAP	64	48	6
NMTAP	64	72	7
NMTAP	64	96	6
NMTAP	64	144	1
NMTAP	64	168	0
NMHLD	64	192	1	48
NMTAP	64	240	7
NMTAP	64	264	0
NMTAP	64	288	6
NMTAP	64	312	7
NMTAP	64	336	5
NMTAP	65	0	3
NMTAP	65	0	4
NMTAP	65	48	2
NMTAP	65	72	3
NMTAP	65	96	2
NMTAP	65	120	3
NMHLD	65	144	1	48
NMTAP	65	192	7
NMTAP	65	216	0
NMTAP	65	240	7
NMTAP	65	264	0
NMHLD	65	288	6	48
NMTAP	65	336	4
NMTAP	65	360	5
NMTAP	66	0	4
NMTAP	66	48	6
NMTAP	66	72	7
NMTAP	66	96	6
NMTAP	66	144	1
NMTAP	66	168	0
NMHLD	66	192	1	48
NMTAP	66	240	3
NMTAP	66	264	2
NMTAP	66	288	4
NMTAP	66	312	3
NMTAP	66	336	5
NMTAP	66	360	4
BRSTR	67	0	6
NMSI_	67	0	6	96	48	3
BRSTR	67	96	4
NMSI_	67	96	4	96	48	1
BRSTR	67	192	2
NMSI_	67	192	2	96	48	7
BRTAP	67	288	0
NMTAP	68	0	1
NMTAP	68	48	6
NMTAP	68	72	7
NMTAP	68	96	5
NMTAP	68	144	1
NMTAP	68	168	0
NMHLD	68	192	2	48
NMTAP	68	240	0
NMTAP	68	264	1
NMTAP	68	288	7
NMTAP	68	312	0
NMTAP	68	336	6
NMTAP	68	360	7
NMTAP	69	0	5
NMTAP	69	48	2
NMTAP	69	72	3
NMTAP	69	96	1
NMTAP	69	144	5
NMTAP	69	168	4
NMTAP	69	192	6
NMTAP	69	240	0
NMTAP	69	240	7
NMTAP	69	288	3
NMTAP	69	312	4
NMTAP	69	336	2
NMTAP	69	360	3
NMTAP	70	0	1
NMTAP	70	48	4
NMTAP	70	72	3
NMTAP	70	96	5
NMTAP	70	120	4
NMHLD	70	144	6	48
NMTAP	70	192	1
NMTAP	70	216	0
NMHLD	70	240	2	48
NMTAP	70	288	3
NMTAP	70	312	1
NMTAP	70	336	4
NMTAP	70	360	0
NMTAP	71	0	5
NMTAP	71	48	3
NMTAP	71	72	4
NMTAP	71	96	2
NMTAP	71	120	3
NMHLD	71	144	1	48
NMTAP	71	192	6
NMTAP	71	216	7
NMHLD	71	240	5	48
NMTAP	71	288	4
NMTAP	71	312	6
NMTAP	71	336	3
NMTAP	71	360	7
NMTAP	72	0	2
NMTAP	72	48	7
NMTAP	72	72	0
NMTAP	72	96	6
NMTAP	72	120	7
NMHLD	72	144	5	48
NMTAP	72	192	2
NMTAP	72	216	3
NMHLD	72	240	1	48
NMTAP	72	288	0
NMTAP	72	312	2
NMTAP	72	336	7
NMTAP	72	360	3
EXSTR	73	0	6
NMSI_	73	0	6	96	48	2
EXTAP	73	96	0
EXSTR	73	144	0
NMSI_	73	144	0	96	48	4
EXTAP	73	240	0
EXSTR	73	240	7
NMSI_	73	240	7	96	48	3
EXTAP	73	336	3
EXTAP	73	336	7
EXHLD	74	0	2	48
NMTAP	74	48	3
NMTAP	74	72	1
NMTAP	74	96	4
NMTAP	74	120	0
NMHLD	74	144	5	48
NMTAP	74	192	4
NMTAP	74	216	6
NMTAP	74	240	3
NMTAP	74	264	5
NMTAP	74	288	2
NMTAP	74	312	4
NMTAP	74	336	1
NMTAP	74	360	3
NMHLD	75	0	0	48
NMTAP	75	48	7
NMTAP	75	72	1
NMTAP	75	96	6
NMTAP	75	120	2
NMHLD	75	144	5	48
NMTAP	75	192	4
NMTAP	75	216	6
BXTAP	75	240	3
BXTAP	75	240	7
BXTAP	75	336	2
BXTAP	75	336	3
BXTAP	76	0	0
BXTAP	76	0	5
NMTAP	76	48	6
NMTAP	76	72	7
NMTAP	76	96	5
NMTAP	76	120	4
NMHLD	76	144	5	48
EXTAP	76	192	0
NMTAP	76	216	1
NMTAP	76	240	2
NMTAP	76	264	3
EXTAP	76	288	0
EXTAP	76	288	4
NMTAP	76	312	7
NMTAP	76	336	6
NMTAP	76	360	5
EXTAP	77	0	3
EXTAP	77	0	4
NMTAP	77	48	2
NMTAP	77	72	3
NMTAP	77	96	1
NMTAP	77	120	0
NMHLD	77	144	1	48
EXTAP	77	192	7
NMTAP	77	216	6
NMTAP	77	240	5
NMTAP	77	264	4
NMTAP	77	288	3
EXTAP	77	288	7
EXTAP	77	312	0
NMTAP	77	336	1
NMTAP	77	360	2
BXSTR	78	0	3
NMSCL	78	0	3	96	480	6
BXSTR	78	0	7
NMSCL	78	0	7	96	480	2
NMSTR	80	0	2
NMSCR	80	0	2	96	96	4
NMTTP	80	192	3	B	0	M1
NMSTR	80	336	5
NMSXR	80	336	5	96	144	3
NMTTP	81	192	4	B	0	M1
NMSTR	82	0	2
NMSCR	82	0	2	96	96	4
NMTTP	82	192	3	B	0	M1
NMSTR	82	336	2
NMSXL	82	336	2	96	144	4
NMSTR	82	336	5
NMSXR	82	336	5	96	144	3
NMTAP	84	0	3
NMTAP	84	96	3
NMTAP	84	144	3
NMTAP	84	240	4
NMHLD	84	288	4	768
NMTTP	85	0	4	B	0	M1
NMTTP	85	8	3	B	0	M1
NMTTP	85	16	2	B	0	M1
NMSTR	85	288	2
NMSUR	85	288	2	96	288	3
NMTAP	87	0	3
NMTAP	87	24	4
NMTAP	87	48	3
NMHLD	87	96	5	48
NMTAP	87	144	3
NMTAP	87	168	4
NMTAP	87	192	2
NMTAP	87	216	3
NMTAP	87	240	1
EXTAP	87	288	0
EXTAP	87	288	4
BXTAP	88	0	0
BXTAP	88	0	7
NMTAP	88	96	2
NMTAP	88	96	3
NMTAP	88	144	1
NMTAP	88	144	4
NMTAP	88	192	0
NMTAP	88	192	5
NMSTR	88	240	6
NMSCR	88	240	6	96	96	3
NMTAP	88	264	7
NMTAP	88	288	5
EXTAP	88	336	3
NMTAP	89	48	0
NMSTR	89	96	1
BRSI_	89	96	1	96	48	4
NMSTR	89	96	4
BRSI_	89	96	4	96	48	7
NMTAP	89	144	5
NMTAP	89	192	1
NMTAP	89	192	4
EXTAP	89	288	4
EXTAP	89	288	7
NMTAP	89	336	6
NMTAP	90	0	3
NMTAP	90	0	5
NMTAP	90	48	2
NMTAP	90	96	0
NMTAP	90	96	1
NMTAP	90	144	7
NMHLD	90	192	4	72
NMTAP	90	192	6
NMTAP	90	240	3
NMSTR	90	264	3
NMSV_	90	264	3	96	24	0
NMTAP	90	336	1
NMTAP	91	48	1
NMTAP	91	48	5
NMSTR	91	96	0
BRSXL	91	96	0	96	48	2
NMSTR	91	96	6
BRSXR	91	96	6	96	48	4
NMTAP	91	192	0
NMTAP	91	192	6
BXTAP	91	288	1
BXTAP	91	288	5
NMTAP	91	336	2
NMTAP	92	0	3
NMHLD	92	0	5	72
NMHLD	92	72	6	72
NMSTR	92	144	7
NMSI_	92	144	7	96	48	3
NMTAP	92	192	0
NMTAP	92	240	1
NMSTR	92	240	7
NMSI_	92	240	7	96	48	4
NMSCL	92	240	7	96	48	4
EXSTR	92	336	7
NMSI_	92	336	7	96	48	2
NMSCR	92	336	7	96	48	2
EXTAP	93	48	7
NMTAP	93	144	4
NMTAP	93	192	3
NMTAP	93	192	5
EXSTR	93	240	2
NMSI_	93	240	2	96	48	5
EXSTR	93	240	6
NMSI_	93	240	6	96	48	1
EXTAP	93	336	2
EXTAP	93	336	6
EXTAP	94	48	0
EXTAP	94	48	4
NMTAP	94	144	3
NMTAP	94	144	5
NMTAP	94	192	3
NMTAP	94	192	5
NMSTR	94	240	2
BRSI_	94	240	2	96	48	0
NMSTR	94	240	6
BRSI_	94	240	6	96	48	4
NMSTR	94	336	2
BRSI_	94	336	2	96	48	4
NMSTR	94	336	6
BRSI_	94	336	6	96	48	0
NMTAP	95	48	2
NMTAP	95	48	6
NMTAP	95	144	3
NMTAP	95	144	4
NMTAP	95	192	3
NMTAP	95	192	4
NMTTP	95	240	3	B	0	M1
NMTTP	95	240	4	B	0	M1
NMTTP	95	240	4	E	0	M1
NMTTP	95	288	0	E	0	M1
NMTTP	95	288	0	A	0	M1
NMTTP	95	288	1	D	0	M1
NMTTP	95	288	7	A	0	M1
NMTTP	95	288	7	D	0	M1
NMTTP	95	336	1	A	0	M1
NMTTP	95	336	2	B	0	M1
NMTTP	95	336	2	E	0	M1
NMTTP	95	336	5	B	0	M1
NMTTP	95	336	6	E	0	M1
NMTTP	95	336	6	A	0	M1
BXTAP	96	96	0
BXTAP	96	96	7
NMTAP	96	144	1
NMTAP	96	144	6
NMTAP	96	192	2
NMTAP	96	192	5
NMTAP	96	240	3
NMTAP	96	264	4
NMTAP	96	288	2
NMTAP	96	336	1
NMSTR	96	336	7
NMSCR	96	336	7	96	48	1
NMTAP	97	48	3
CNSV_	97	96	1	0	72	2
NMTAP	97	96	3
CNSCR	97	168	2	0	72	4
NMTAP	97	192	0
EXTAP	97	288	2
EXTAP	97	288	5
NMTAP	97	336	1
NMHLD	98	0	0	72
NMTAP	98	0	7
NMHLD	98	72	1	72
NMSTR	98	144	2
BRSUL	98	144	2	96	96	4
NMSTR	98	240	4
BRSCL	98	240	4	96	96	0
NMSTR	98	336	0
BRSCL	98	336	0	96	96	3
NMSTR	99	48	3
BRSF_	99	48	3	96	96	7
NMTAP	100	0	4
NMHLD	100	0	5	144
NMTAP	100	96	7
NMHLD	100	144	7	96
NMTAP	100	240	0
NMTAP	100	288	2
BRTAP	100	336	1
BRTAP	100	336	5
BRHLD	101	48	3	96
BRHLD	101	48	7	96
NMSTR	101	192	2
NMSCR	101	192	2	96	48	5
NMSTR	101	192	5
NMSI_	101	192	5	96	48	2
EXSTR	102	0	0
NMSLR	102	0	0	96	96	6
EXTAP	102	0	6
NMTAP	102	96	3
NMTAP	102	144	4
NMTAP	102	192	5
NMTAP	102	288	6
NMTAP	102	288	7
NMTAP	102	336	6
NMSTR	102	336	7
NMSI_	102	336	7	96	48	3
NMSTR	103	48	0
NMSI_	103	48	0	96	48	2
NMTAP	103	48	7
NMTAP	103	144	0
NMTAP	103	144	2
NMTAP	103	240	1
NMTAP	103	240	2
BXSTR	103	288	1
BRSCL	103	288	1	96	288	2
BXSTR	103	288	2
BRSCR	103	288	2	96	288	1
NMTAP	105	0	3
NMTAP	105	24	4
NMTAP	105	48	2
NMTAP	105	72	3
NMTAP	105	96	1
NMTAP	105	144	7
NMTAP	105	168	0
NMSTR	105	192	6
NMSI_	105	192	6	96	24	2
NMTAP	105	216	1
NMTAP	105	240	5
NMTAP	105	288	0
NMTAP	105	288	6
NMTTP	105	300	0	C	1	M1
BXTAP	106	0	1
BXTAP	106	0	5

T_REC_TAP	468
T_REC_BRK	9
T_REC_XTP	55
T_REC_BXX	25
T_REC_HLD	56
T_REC_XHO	3
T_REC_BHO	4
T_REC_BXH	8
T_REC_STR	70
T_REC_BST	3
T_REC_XST	13
T_REC_XBS	6
T_REC_TTP	80
T_REC_THO	1
T_REC_SLD	80
T_REC_BSL	16
T_REC_ALL	897
T_NUM_TAP	686
T_NUM_BRK	71
T_NUM_HLD	60
T_NUM_SLD	80
T_NUM_ALL	897
T_JUDGE_TAP	729
T_JUDGE_HLD	231
T_JUDGE_SLD	96
T_JUDGE_ALL	1056
TTM_EACHPAIRS	143
TTM_SCR_TAP	343000
TTM_SCR_BRK	184600
TTM_SCR_HLD	60000
TTM_SCR_SLD	120000
TTM_SCR_ALL	707600
TTM_SCR_S	679500
TTM_SCR_SS	700500
TTM_RAT_ACV	10101

