VERSION	0.00.00	1.04.00
FES_MODE	0
BPM_DEF	170.000	170.000	170.000	170.000
MET_DEF	4	4
RESOLUTION	384
CLK_DEF	384
COMPATIBLE_CODE	MA2

BPM	0	0	170.000
MET	0	0	4	4

NMSTR	2	0	2
NMSCR	2	0	2	96	192	5
NMSTR	3	0	6
NMSUL	3	0	6	96	192	2
NMSTR	4	0	1
NMSUR	4	0	1	96	192	5
NMHLD	5	0	6	192
NMTAP	5	192	7
BRTAP	5	288	0
NMTAP	6	0	1
NMTAP	6	0	7
NMTAP	6	96	1
NMTAP	6	96	7
NMTAP	6	192	2
NMTAP	6	288	3
NMTAP	6	288	5
NMTAP	7	0	6
NMTAP	7	96	6
NMTAP	7	96	7
NMTAP	7	192	1
NMTAP	7	288	0
NMSTR	7	288	1
NMSI_	7	288	1	96	96	5
EXSTR	8	96	6
NMSI_	8	96	6	96	96	2
NMTAP	8	288	1
EXTAP	9	0	0
EXTAP	9	96	0
BXTAP	9	192	1
BXTAP	9	192	7
NMHLD	10	0	2	384
NMTAP	10	192	3
NMHLD	11	0	5	384
NMTAP	11	192	4
NMHLD	12	0	2	384
NMTAP	12	192	3
NMHLD	13	0	4	192
NMTAP	13	192	3
NMTAP	13	288	3
NMTAP	13	288	4
NMTAP	14	0	1
NMTAP	14	0	6
NMTAP	14	96	0
NMTAP	14	96	5
NMTAP	14	192	6
NMTAP	14	192	7
NMTAP	14	288	1
NMTAP	14	336	1
NMTAP	15	0	0
NMTAP	15	96	2
NMTAP	15	96	7
NMTAP	15	192	3
NMTAP	15	192	6
NMTAP	15	288	4
NMTAP	15	288	5
NMHLD	16	0	3	96
NMHLD	16	0	5	96
NMHLD	16	192	2	96
NMHLD	16	192	4	96
NMTAP	17	0	4
NMTAP	17	48	4
NMTAP	17	96	3
NMTAP	17	192	3
NMTAP	17	192	4
NMTAP	17	288	2
NMTAP	17	288	5
NMHLD	18	0	1	384
NMTAP	18	0	6
NMTTP	18	192	2	B	0	M1
NMHLD	19	0	5	384
NMTTP	19	192	4	B	0	M1
NMHLD	20	0	1	384
NMTTP	20	192	2	B	0	M1
NMSTR	21	0	7
NMSSR	21	0	7	96	192	3
EXTAP	22	0	0
NMTAP	22	96	1
NMTAP	22	96	7
NMTAP	22	192	2
NMTAP	22	192	6
NMTAP	22	288	5
NMTAP	22	336	5
NMTAP	23	0	4
NMTAP	23	96	3
NMTAP	23	96	6
NMTAP	23	192	2
NMTAP	23	192	5
NMTAP	23	288	1
NMTAP	23	288	4
NMHLD	24	0	1	96
NMHLD	24	96	3	96
NMTAP	24	192	2
NMTAP	24	288	4
NMTAP	24	336	4
NMTAP	25	48	3
NMTAP	25	48	5
NMTAP	25	144	2
NMTAP	25	144	6
BRTAP	25	192	2
BRTAP	25	192	6
NMSTR	26	0	1
NMSI_	26	0	1	96	96	4
NMSTR	26	192	5
NMSI_	26	192	5	96	96	0
NMHLD	27	0	1	96
NMTAP	27	96	7
NMTAP	27	192	6
NMTAP	27	240	6
NMTAP	27	288	7
NMTAP	28	0	0
NMSTR	28	0	5
NMSI_	28	0	5	96	96	0
NMSTR	28	192	1
NMSI_	28	192	1	96	96	4
NMTAP	29	0	5
NMHLD	29	96	6	96
NMTAP	29	192	7
NMTAP	29	240	7
NMHLD	29	336	0	624
NMTAP	29	336	6
NMTTP	30	192	4	B	0	M1
NMTTP	30	192	5	B	0	M1
NMTTP	31	0	2	B	0	M1
NMTTP	31	0	3	B	0	M1
EXTAP	31	192	7
BXTAP	31	288	7
BXHLD	32	0	0	96
BXHLD	32	144	1	96
BXHLD	32	144	7	96
EXTAP	32	288	2
EXTAP	32	288	6
BXTAP	33	0	7
BXTAP	33	96	0
BXTAP	33	96	6
BXTAP	33	144	0
BXTAP	33	144	6
BXTAP	33	240	2
BXTAP	33	240	4
NMTHO	33	336	0	240	C	0	M1
EXTAP	34	336	0
EXTAP	34	336	7
BXTAP	35	48	1
BXTAP	35	48	6
BXTAP	35	96	1
BXTAP	35	96	6
BXTAP	35	144	1
BXTAP	35	144	6
EXTAP	35	288	3
EXTAP	35	288	4
BXTAP	36	0	0
BXTAP	36	0	1
NMTAP	36	96	3
NMTAP	36	96	4
NMTAP	36	192	6
NMTAP	36	192	7
NMTAP	36	288	1
NMTAP	36	336	1
NMTAP	37	0	0
NMTAP	37	96	2
NMTAP	37	96	7
NMTAP	37	192	4
NMTAP	37	192	5
NMTAP	37	288	2
NMTAP	37	336	2
NMTAP	38	0	3
NMTAP	38	96	1
NMTAP	38	96	4
NMTAP	38	192	3
NMTAP	38	192	5
NMTAP	38	288	6
NMTAP	38	336	6
NMTAP	39	0	7
NMTAP	39	96	1
NMTAP	39	96	5
BRTAP	39	192	1
BRTAP	39	192	5
NMTAP	39	288	2
NMTAP	39	336	2
NMTAP	40	0	3
NMTAP	40	96	0
NMTAP	40	96	7
NMTAP	40	192	4
NMTAP	40	192	5
NMTAP	40	288	2
NMTAP	40	288	3
NMTAP	41	0	0
NMTAP	41	0	1
NMTAP	41	96	6
NMTAP	41	96	7
NMTAP	41	192	5
NMTAP	41	240	5
NMTAP	41	336	0
NMTAP	41	336	6
NMTAP	42	48	1
NMTAP	42	48	7
NMTAP	42	144	2
NMTAP	42	192	2
NMTAP	42	288	1
NMTAP	42	288	3
NMTAP	42	336	1
NMTAP	42	336	3
NMTAP	43	48	3
NMTAP	43	48	4
NMTAP	43	144	2
NMTAP	43	144	6
NMTAP	43	192	2
NMTAP	43	192	6
BXTAP	43	288	0
BXTAP	43	288	7
BXTAP	44	0	2
BXTAP	44	0	3
NMTAP	44	96	0
NMTAP	44	96	6
NMTAP	44	192	4
NMTAP	44	192	5
NMTAP	44	288	2
NMTAP	44	336	2
NMTAP	45	0	3
NMTAP	45	96	4
NMTAP	45	96	6
NMTAP	45	192	0
NMTAP	45	192	1
NMTAP	45	288	2
NMTAP	45	336	2
NMTAP	46	0	3
NMTAP	46	96	1
NMTAP	46	96	5
NMTAP	46	192	3
NMTAP	46	192	4
NMTAP	46	288	5
NMHLD	46	336	5	96
NMTAP	47	48	4
NMTAP	47	144	0
NMTAP	47	144	7
NMTAP	47	240	1
NMTAP	47	240	5
NMTAP	47	288	1
NMTAP	47	288	5
NMHLD	48	0	2	96
NMTAP	48	0	4
NMTAP	48	96	3
NMTAP	48	144	3
NMTAP	48	240	1
NMTAP	48	288	1
NMTAP	48	336	0
NMTAP	48	336	1
NMTAP	49	48	6
NMTAP	49	48	7
NMTAP	49	144	1
NMTAP	49	144	5
BRTAP	49	192	1
BRTAP	49	192	5
NMHLD	50	0	6	96
NMHLD	50	96	4	96
NMHLD	50	192	3	96
NMTAP	50	288	1
NMHLD	51	0	1	96
NMHLD	51	96	3	96
NMSTR	51	192	5
NMSCL	51	192	5	96	336	7
NMTTP	53	0	0	C	1	M1
NMTTP	53	0	2	B	0	M1
NMTTP	53	0	3	B	0	M1
NMTTP	53	0	4	B	0	M1
NMTTP	53	0	5	B	0	M1
NMSTR	54	0	6
NMSCL	54	0	6	96	96	3
NMTAP	54	192	2
NMTAP	54	288	2
NMTTP	55	0	3	B	0	M1
NMTTP	55	96	0	C	0	M1
NMTTP	55	192	6	B	0	M1
NMTTP	55	192	7	B	0	M1
NMSTR	56	0	1
NMSCR	56	0	1	96	96	4
NMTAP	56	192	5
NMTAP	56	288	5
NMTTP	57	0	4	B	0	M1
NMTTP	57	96	0	C	0	M1
NMTTP	57	192	1	E	0	M1
NMTTP	57	192	7	E	0	M1
NMSTR	58	0	7
NMSCL	58	0	7	96	96	4
NMSTR	58	192	0
NMSCR	58	192	0	96	96	3
NMTAP	59	0	5
NMTAP	59	96	5
NMTAP	59	192	4
NMTAP	59	192	5
NMTAP	60	0	3
NMTAP	60	0	4
NMTAP	60	96	3
NMTAP	60	96	4
NMTAP	60	192	2
NMTAP	60	240	2
NMTAP	60	336	1
NMTAP	60	336	3
NMTAP	61	48	0
NMTAP	61	48	7
NMTAP	61	96	0
NMTAP	61	96	7
BRTAP	61	192	2
BRTAP	61	192	6
NMTAP	62	0	5
NMTAP	62	48	4
NMTAP	62	96	3
NMTAP	62	192	2
NMTAP	62	192	4
NMTAP	62	288	1
NMHLD	62	336	1	96
NMTAP	63	48	0
NMTAP	63	96	0
NMTAP	63	192	1
NMTAP	63	192	7
NMTAP	63	288	2
NMTAP	63	288	6
EXTAP	63	336	2
EXTAP	63	336	6
NMTAP	64	48	1
NMTAP	64	96	1
NMTAP	64	144	3
NMTAP	64	192	2
NMHLD	64	288	3	96
NMTAP	64	288	5
NMTAP	65	0	5
NMTAP	65	96	2
NMTAP	65	96	6
NMTAP	65	144	2
NMTAP	65	144	6
NMTAP	65	240	0
NMTAP	65	240	1
NMTAP	65	288	0
NMTAP	65	288	1
NMHLD	66	0	2	96
NMHLD	66	0	7	96
EXTAP	66	144	2
EXTAP	66	144	7
EXTAP	66	240	4
EXTAP	66	240	5
EXTAP	66	288	4
EXTAP	66	288	5
BRTAP	67	0	2
BRTAP	67	0	3
BRTAP	67	96	0
BRTAP	67	96	7
BRTAP	67	192	4
BRTAP	67	192	5
BRSTR	67	288	6
NMSCL	67	288	6	96	192	1
BRSTR	67	288	7
NMSUL	67	288	7	96	192	0
NMTAP	69	0	0
NMTAP	69	0	1
NMTAP	69	96	2
NMTAP	69	96	3
NMTAP	69	192	1
NMTAP	69	192	4
NMTAP	69	288	1
NMTAP	69	288	4
NMTAP	70	0	2
NMTAP	70	48	3
NMTAP	70	96	4
NMTAP	70	192	3
NMTAP	70	192	5
NMTAP	70	288	3
NMSTR	70	288	5
NMSCR	70	288	5	96	192	1
NMTAP	71	192	2
NMTAP	71	288	2
NMTAP	71	288	3
NMTAP	72	0	2
NMTAP	72	48	3
NMTAP	72	96	4
NMTAP	72	192	4
NMTAP	72	192	5
NMTAP	72	288	3
NMTAP	72	288	6
NMTAP	73	0	0
NMTAP	73	0	7
NMTAP	73	96	1
NMTAP	73	96	3
NMTAP	73	144	1
NMHLD	73	144	3	96
NMTAP	73	240	4
NMTAP	73	336	4
NMTAP	73	336	5
NMTAP	74	48	3
NMTAP	74	48	6
NMTAP	74	144	7
NMTAP	74	192	7
NMTAP	74	240	0
NMTAP	74	336	1
NMTAP	74	336	6
NMTAP	75	48	2
NMTAP	75	48	3
EXTAP	75	144	0
EXSTR	75	192	0
NMSCR	75	192	0	96	384	6
EXHLD	77	0	7	96
EXHLD	77	144	0	96
EXHLD	77	144	6	96
NMTAP	77	288	0
NMTAP	77	288	6
NMTHO	78	0	0	384	C	0	M1
NMTTP	78	0	2	B	0	M1
NMTTP	78	0	3	B	0	M1
NMTTP	78	0	4	B	0	M1
NMHLD	80	0	4	768
NMTTP	81	0	5	E	0	M1
NMTTP	81	192	4	E	0	M1
NMHLD	82	0	3	1152
NMTTP	83	0	3	E	0	M1
NMTTP	83	192	4	E	0	M1
NMTHO	84	0	0	768	C	0	M1
NMHLD	87	0	2	96
NMHLD	87	0	5	96
NMTAP	87	192	3
NMTAP	87	240	3
NMTAP	87	288	4
BRTAP	88	0	3
BRTAP	88	0	4
NMTAP	88	96	0
NMTAP	88	96	1
NMTAP	88	192	2
NMTAP	88	192	4
NMTAP	88	288	6
NMTAP	88	336	6
NMTAP	89	0	7
NMTAP	89	96	0
NMTAP	89	96	5
NMTAP	89	192	2
NMTAP	89	192	3
NMTAP	89	288	5
NMTAP	89	336	5
NMTAP	90	0	4
NMTAP	90	96	2
NMTAP	90	96	6
NMTAP	90	192	0
NMTAP	90	192	1
NMTAP	90	288	2
NMTAP	90	336	2
NMTAP	91	0	3
NMTAP	91	96	1
NMTAP	91	96	5
BRTAP	91	192	3
BRTAP	91	192	7
NMTAP	91	288	5
NMTAP	91	336	5
NMHLD	92	0	4	96
NMTAP	92	0	5
NMHLD	92	96	3	96
NMTAP	92	192	2
NMTAP	92	288	2
NMTAP	92	336	2
NMTAP	93	0	1
NMTAP	93	0	3
NMTAP	93	96	0
NMTAP	93	96	7
NMTAP	93	192	4
NMTAP	93	192	5
NMTAP	93	240	4
NMTAP	93	240	5
NMTAP	93	336	3
NMTAP	93	336	6
NMTAP	94	48	0
NMTAP	94	48	1
NMTAP	94	144	2
NMTAP	94	144	3
NMTAP	94	192	2
NMTAP	94	192	3
NMTAP	94	288	1
NMTAP	94	288	4
NMTAP	94	336	1
NMTAP	94	336	4
NMTAP	95	48	6
NMTAP	95	48	7
NMTAP	95	144	4
NMTAP	95	144	5
NMTAP	95	192	4
NMTAP	95	192	5
BXTAP	95	288	0
BXTAP	95	288	7
BXTAP	96	0	1
BXTAP	96	0	3
NMTAP	96	96	0
NMTAP	96	96	6
NMTAP	96	192	4
NMTAP	96	192	5
NMTAP	96	288	6
NMTAP	96	336	6
NMTAP	97	0	6
NMTAP	97	0	7
NMTAP	97	96	0
NMTAP	97	96	5
NMTAP	97	192	2
NMTAP	97	192	3
NMTAP	97	288	1
NMTAP	97	336	1
NMTAP	98	0	0
NMTAP	98	0	1
NMTAP	98	96	2
NMTAP	98	96	7
NMHLD	98	192	5	96
NMTAP	98	288	4
NMTAP	98	336	4
NMTAP	99	48	3
NMTAP	99	48	6
NMTAP	99	144	0
NMTAP	99	144	1
NMTAP	99	192	0
NMTAP	99	192	1
NMHLD	99	288	2	96
NMTAP	100	0	3
NMTAP	100	96	1
NMTAP	100	96	4
NMTAP	100	144	1
NMTAP	100	144	4
NMTAP	100	240	6
NMTAP	100	288	6
NMTAP	100	336	6
NMTAP	100	336	7
NMTAP	101	48	4
NMTAP	101	48	5
NMTAP	101	144	2
NMTAP	101	144	7
BXTAP	101	192	2
BXTAP	101	192	7
NMHLD	102	0	2	96
NMHLD	102	96	4	96
NMHLD	102	192	6	96
NMHLD	102	288	0	96
NMHLD	103	0	2	96
NMHLD	103	96	4	96
NMTAP	103	192	3
NMTAP	103	288	1
NMTAP	103	288	6
EXTAP	104	0	0
EXTAP	104	48	0
EXTAP	104	96	7
EXTAP	104	144	7
EXTAP	104	192	0
EXTAP	104	216	7
EXTAP	104	240	0
EXTAP	104	264	7
EXTAP	104	288	0
EXTAP	104	312	7
EXTAP	104	336	0
EXTAP	104	360	7
BXSTR	105	0	0
NMSXL	105	0	0	96	192	4
NMSXR	105	0	0	96	192	4
BRTAP	106	0	2
BRTAP	106	0	6

T_REC_TAP	353
T_REC_BRK	21
T_REC_XTP	31
T_REC_BXX	28
T_REC_HLD	43
T_REC_XHO	3
T_REC_BHO	0
T_REC_BXH	3
T_REC_STR	15
T_REC_BST	2
T_REC_XST	2
T_REC_XBS	1
T_REC_TTP	27
T_REC_THO	3
T_REC_SLD	21
T_REC_BSL	0
T_REC_ALL	553
T_NUM_TAP	428
T_NUM_BRK	55
T_NUM_HLD	49
T_NUM_SLD	21
T_NUM_ALL	553
T_JUDGE_TAP	480
T_JUDGE_HLD	214
T_JUDGE_SLD	21
T_JUDGE_ALL	715
TTM_EACHPAIRS	161
TTM_SCR_TAP	214000
TTM_SCR_BRK	143000
TTM_SCR_HLD	49000
TTM_SCR_SLD	31500
TTM_SCR_ALL	437500
TTM_SCR_S	419050
TTM_SCR_SS	432000
TTM_RAT_ACV	10127

