VERSION	0.00.00	1.04.00
FES_MODE	0
BPM_DEF	172.000	172.000	172.000	172.000
MET_DEF	4	4
RESOLUTION	384
CLK_DEF	384
COMPATIBLE_CODE	MA2

BPM	0	0	172.000
MET	0	0	4	4

NMHLD	1	0	4	192
NMTAP	1	192	3
NMTAP	1	216	4
NMTAP	1	240	3
NMTAP	1	264	4
NMTAP	1	288	2
NMTAP	1	312	5
NMTAP	1	336	2
EXHLD	2	0	0	696
EXSTR	2	0	7
NMSI_	2	0	7	96	600	3
BXTAP	4	96	0
BXTAP	4	96	4
NMTHO	4	360	0	264	C	1	M1
BXTAP	5	240	7
EXSTR	6	120	7
NMSLL	6	120	7	96	96	3
NMSLR	6	120	7	96	96	3
NMTTP	6	360	0	C	1	M1
NMTTP	6	360	1	B	0	M1
NMTTP	6	360	5	B	0	M1
NMHLD	7	192	6	96
NMHLD	7	192	7	96
NMHLD	8	0	0	96
NMHLD	8	0	1	96
NMTAP	8	192	7
NMTAP	8	240	7
NMTAP	8	288	0
NMTAP	8	336	0
NMTAP	9	0	7
NMTAP	9	24	0
NMTAP	9	48	7
NMTAP	9	72	0
NMTAP	9	96	7
NMTAP	9	120	0
NMTAP	9	144	7
NMTAP	9	168	0
BXTAP	9	192	7
BXTAP	9	264	0
BXTAP	9	264	6
BXTAP	9	336	1
BXTAP	9	336	5
NMTAP	10	0	1
NMTAP	10	24	3
NMTAP	10	48	2
NMTAP	10	72	4
NMTAP	10	96	3
NMTAP	10	120	4
NMTAP	10	144	2
NMTAP	10	168	3
NMHLD	10	192	1	72
NMTAP	10	264	0
NMTAP	10	336	3
NMTAP	10	336	7
NMTAP	11	0	6
NMTAP	11	24	4
NMTAP	11	48	5
NMTAP	11	72	3
NMTAP	11	96	4
NMTAP	11	120	3
NMTAP	11	144	5
NMTAP	11	168	4
NMHLD	11	192	6	72
NMTAP	11	264	7
NMTAP	11	336	0
NMTAP	11	336	4
NMTAP	12	0	1
NMTAP	12	24	3
NMTAP	12	48	2
NMTAP	12	72	4
NMTAP	12	96	3
NMTAP	12	120	4
NMTAP	12	144	2
NMTAP	12	168	3
NMHLD	12	192	1	72
NMTAP	12	264	0
NMTAP	12	336	3
NMTAP	12	336	7
NMTAP	13	0	6
NMTAP	13	24	4
NMTAP	13	48	5
NMTAP	13	72	3
NMTAP	13	96	4
NMTAP	13	120	3
NMTAP	13	144	5
NMTAP	13	168	4
BXTAP	13	192	6
BXTAP	13	264	6
BXTAP	13	264	7
BXTAP	13	336	0
BXTAP	13	336	5
NMTAP	14	0	1
NMTAP	14	24	3
NMTAP	14	48	2
NMTAP	14	72	4
NMTAP	14	96	3
NMTAP	14	120	4
NMTAP	14	144	2
NMTAP	14	168	3
NMHLD	14	192	1	72
NMTAP	14	264	0
NMTAP	14	336	2
NMTAP	14	336	7
NMTAP	15	0	6
NMTAP	15	24	4
NMTAP	15	48	5
NMTAP	15	72	3
NMTAP	15	96	4
NMTAP	15	120	3
NMTAP	15	144	5
NMTAP	15	168	4
NMHLD	15	192	6	72
NMTAP	15	264	7
NMTAP	15	336	0
NMTAP	15	336	5
NMTAP	16	0	1
NMTAP	16	24	3
NMTAP	16	48	2
NMTAP	16	72	4
NMTAP	16	96	3
NMTAP	16	120	4
NMTAP	16	144	2
NMTAP	16	168	3
NMHLD	16	192	1	72
NMTAP	16	264	0
NMTAP	16	336	2
NMTAP	16	336	7
NMTAP	17	0	6
NMTAP	17	24	4
NMTAP	17	48	5
NMTAP	17	72	3
NMTAP	17	96	4
NMTAP	17	120	3
NMTAP	17	144	5
NMTAP	17	168	4
BXTAP	17	192	7
BXTAP	17	264	0
BXTAP	17	264	6
BXTAP	17	336	1
BXTAP	17	336	5
EXSTR	18	0	1
NMSI_	18	0	1	96	48	6
EXSTR	18	0	5
NMSI_	18	0	5	96	48	2
EXSTR	18	192	3
NMSV_	18	192	3	96	48	0
NMSV_	18	192	3	96	48	6
EXSTR	19	0	6
NMSI_	19	0	6	96	48	0
EXSTR	19	0	7
NMSI_	19	0	7	96	48	3
EXSTR	19	192	0
NMSI_	19	192	0	96	48	4
EXSTR	19	192	1
NMSI_	19	192	1	96	48	7
NMHLD	20	0	5	96
NMHLD	20	96	7	96
NMHLD	20	192	0	96
NMTAP	20	288	2
NMSTR	21	0	2
NMSUL	21	0	2	96	96	5
NMSTR	21	96	5
NMSCR	21	96	5	96	96	2
BRTAP	21	192	4
NMSTR	22	0	2
NMSI_	22	0	2	96	48	0
NMSTR	22	0	6
NMSI_	22	0	6	96	48	4
NMSTR	22	192	3
NMSI_	22	192	3	96	48	6
NMSTR	22	192	7
NMSI_	22	192	7	96	48	2
NMSTR	23	0	3
NMSI_	23	0	3	96	48	7
NMSTR	23	0	7
NMSI_	23	0	7	96	48	3
EXTAP	23	192	1
EXTAP	23	192	5
BXHLD	24	0	1	96
BXTAP	24	0	7
BXTAP	24	96	2
NMTAP	24	192	3
NMHLD	24	192	5	96
NMTAP	24	288	6
NMTAP	25	0	6
NMTAP	25	0	7
NMTAP	25	48	0
NMTAP	25	48	5
NMTAP	25	96	1
NMSTR	25	96	4
NMSF_	25	96	4	96	48	0
NMTTP	25	192	0	C	1	M1
NMTAP	26	0	6
NMTAP	26	0	7
BXTAP	26	96	3
BXTAP	26	96	4
NMTAP	26	192	0
NMTAP	26	192	1
NMSTR	26	288	2
NMSSR	26	288	2	96	120	6
NMTAP	26	288	3
BXTAP	27	0	6
BXTAP	27	96	7
BXTAP	27	192	0
BXTAP	27	192	7
NMSTR	27	288	0
NMSI_	27	288	0	96	48	5
NMSTR	27	288	1
NMSUR	27	288	1	96	48	5
BRTAP	28	0	0
BRTAP	28	0	1
NMSTR	28	96	0
NMSI_	28	96	0	96	48	5
NMSTR	28	96	1
NMSUR	28	96	1	96	48	5
BRTAP	28	192	0
BRTAP	28	192	1
NMTAP	28	288	1
NMTAP	28	288	7
NMHLD	29	0	2	48
NMHLD	29	0	6	48
NMHLD	29	96	2	48
NMHLD	29	96	6	48
NMHLD	29	192	1	48
NMHLD	29	192	5	48
NMTAP	29	288	1
NMTAP	29	288	5
NMSTR	30	0	2
NMSXR	30	0	2	96	144	3
NMSTR	30	0	4
NMSXL	30	0	4	96	144	3
EXTAP	30	288	2
EXTAP	30	288	4
NMSTR	31	0	1
NMSXR	31	0	1	96	192	4
NMHLD	31	0	5	288
NMTTP	32	0	5	E	0	M1
NMTTP	32	48	4	E	0	M1
NMTTP	32	96	3	E	0	M1
NMTTP	32	144	2	E	0	M1
NMTTP	32	192	1	E	0	M1
NMTTP	32	240	0	E	0	M1
NMTTP	32	288	7	E	0	M1
NMHLD	33	0	0	192
NMHLD	33	0	4	192
NMSTR	33	288	4
NMSI_	33	288	4	96	48	2
NMTAP	33	288	5
NMSTR	34	0	4
NMSI_	34	0	4	96	48	6
NMTAP	34	0	7
NMTAP	34	96	1
NMSTR	34	96	4
NMSI_	34	96	4	96	48	2
NMSTR	34	192	4
NMSI_	34	192	4	96	48	6
NMTAP	34	192	7
NMTAP	34	288	0
NMSTR	34	288	4
NMSI_	34	288	4	96	48	2
NMSTR	35	0	4
NMSI_	35	0	4	96	48	6
NMTAP	35	0	7
NMTAP	35	96	1
NMSTR	35	96	4
NMSI_	35	96	4	96	48	2
NMSTR	35	192	4
NMSI_	35	192	4	96	48	6
NMTAP	35	192	7
NMTAP	35	288	0
NMTAP	35	288	4
NMHLD	36	0	1	96
NMHLD	36	0	5	96
NMTAP	36	192	2
NMTAP	36	192	6
NMTAP	36	240	3
NMTAP	36	240	5
NMTAP	36	288	2
NMTAP	36	288	6
NMHLD	37	0	1	96
NMHLD	37	0	5	96
NMTAP	37	192	2
NMTAP	37	192	6
NMTAP	37	240	3
NMTAP	37	240	5
NMTAP	37	288	2
NMTAP	37	288	6
NMTAP	38	0	0
NMTAP	38	0	7
NMTAP	38	48	1
NMTAP	38	96	0
NMTAP	38	96	1
NMTAP	38	144	7
NMTAP	38	192	6
NMTAP	38	192	7
NMTAP	38	240	0
NMTAP	38	288	0
NMHLD	38	288	6	384
NMSTR	39	0	1
NMSCR	39	0	1	96	48	4
BXSTR	39	96	1
NMSI_	39	96	1	96	48	5
BXTAP	39	192	1
NMTAP	39	288	0
NMTAP	39	336	0
BXTAP	40	0	1
BXTAP	40	0	7
NMTAP	40	48	2
NMTAP	40	96	3
NMTAP	40	96	4
NMTAP	40	144	5
NMTAP	40	192	0
NMTAP	40	192	6
NMTAP	40	240	5
NMTAP	40	288	3
NMSTR	40	288	4
NMSXL	40	288	4	96	192	0
NMTAP	40	336	2
BXHLD	41	0	1	192
EXTAP	41	288	2
EXTAP	41	288	7
NMTAP	42	0	3
NMHLD	42	0	6	768
NMTTP	42	192	4	B	0	M1
NMTTP	42	192	5	B	0	M1
NMTTP	43	0	6	B	0	M1
NMTTP	43	0	7	B	0	M1
NMTTP	43	192	0	B	0	M1
NMTTP	43	192	1	B	0	M1
NMHLD	44	0	2	384
NMTTP	44	192	2	B	0	M1
NMTTP	44	192	3	B	0	M1
NMTHO	45	0	0	192	C	0	M1
EXTAP	46	0	0
EXTAP	46	0	1
EXHLD	46	48	2	192
EXHLD	46	48	7	192
NMTAP	46	288	4
NMTAP	46	288	5
EXTAP	47	0	6
EXTAP	47	0	7
EXHLD	47	48	0	192
EXHLD	47	48	5	192
NMTAP	47	288	2
NMTAP	47	288	3
NMTAP	48	0	4
NMTAP	48	0	5
NMTAP	48	48	3
NMTAP	48	48	6
NMTAP	48	144	2
NMTAP	48	144	3
NMTAP	48	192	1
NMTAP	48	192	4
NMSTR	48	288	3
NMSI_	48	288	3	96	48	1
NMSTR	48	288	4
NMSI_	48	288	4	96	48	6
NMTAP	48	336	2
NMTAP	48	336	5
BRSTR	49	0	3
NMSI_	49	0	3	96	48	7
BRSTR	49	0	4
NMSI_	49	0	4	96	48	0
BRTAP	49	96	3
BRTAP	49	96	4
NMTAP	49	192	1
NMTAP	49	192	6
NMTAP	49	240	1
NMTAP	49	240	6
BRTAP	49	288	3
BRTAP	49	288	4
NMSTR	50	0	4
NMSI_	50	0	4	96	48	0
NMSTR	50	0	6
NMSI_	50	0	6	96	48	3
NMTAP	50	96	4
NMSTR	50	96	6
NMSCR	50	96	6	96	48	1
NMTAP	50	192	2
NMTAP	50	192	6
NMTAP	50	288	3
NMTAP	50	288	7
NMSTR	50	336	3
NMSLL	50	336	3	96	96	5
NMTAP	50	336	7
NMTAP	51	48	5
NMTAP	51	96	6
CNSI_	51	144	5	0	48	2
NMTAP	51	144	7
NMSTR	51	192	0
NMSCL	51	192	0	96	48	5
NMSCR	51	192	0	96	48	3
NMTAP	51	288	0
EXTAP	52	0	3
EXSTR	52	0	5
NMSI_	52	0	5	96	48	0
NMSTR	52	96	1
NMSI_	52	96	1	96	48	5
NMTAP	52	96	5
NMTAP	52	192	1
NMTAP	52	192	7
NMTAP	52	288	6
NMTAP	52	288	7
NMTAP	52	336	0
NMHLD	52	336	5	96
NMTAP	53	48	4
NMTAP	53	96	3
NMTAP	53	96	6
NMTAP	53	144	2
NMTAP	53	144	7
NMTAP	53	192	0
NMTAP	53	192	1
NMTAP	53	240	0
NMTAP	53	240	7
BRTAP	53	288	1
BRSTR	53	288	6
NMSI_	53	288	6	96	48	3
NMSTR	54	0	0
NMSI_	54	0	0	96	48	4
NMTAP	54	0	6
NMTAP	54	96	0
NMSTR	54	96	7
NMSI_	54	96	7	96	48	3
NMSTR	54	192	1
NMSI_	54	192	1	96	48	4
NMTAP	54	192	7
NMTAP	54	288	1
NMTAP	54	288	5
NMHLD	54	336	6	144
NMTAP	55	48	1
NMTAP	55	96	1
BXTAP	55	192	2
BXHLD	55	192	7	48
NMTTP	55	204	3	E	0	M1
NMTTP	55	216	3	B	0	M1
NMTTP	55	228	4	B	0	M1
NMTTP	55	240	5	E	0	M1
BXTAP	55	288	2
BXHLD	55	288	7	48
NMTTP	55	300	3	E	0	M1
NMTTP	55	312	3	B	0	M1
NMTTP	55	324	4	B	0	M1
NMTTP	55	336	5	E	0	M1
NMTAP	56	0	0
NMTAP	56	0	7
NMTAP	56	48	1
NMTAP	56	72	0
NMTAP	56	96	2
NMTAP	56	144	2
NMTAP	56	144	3
NMTAP	56	192	3
NMTAP	56	192	4
NMTAP	56	240	5
NMTAP	56	264	4
NMSTR	56	288	6
NMSI_	56	288	6	96	48	2
NMTAP	56	336	7
BXTAP	57	0	1
BXTAP	57	0	6
BXTAP	57	96	0
BXTAP	57	96	4
NMTAP	57	192	1
NMTAP	57	216	3
NMTAP	57	240	1
NMTAP	57	264	3
NMTAP	57	288	2
NMTAP	57	312	4
NMTAP	57	336	3
NMTAP	57	360	5
NMSTR	58	0	4
NMSCL	58	0	4	96	48	1
NMSTR	58	96	7
NMSSR	58	96	7	96	144	3
EXTAP	58	192	0
NMTAP	58	288	2
NMSTR	58	336	2
NMSLL	58	336	2	96	96	4
NMTAP	59	48	5
NMTAP	59	96	6
CNSI_	59	144	4	0	48	1
NMTAP	59	144	7
NMSTR	59	192	0
NMSCL	59	192	0	96	48	5
NMSCR	59	192	0	96	48	3
NMTAP	59	288	0
EXTAP	60	0	3
EXSTR	60	0	5
NMSI_	60	0	5	96	48	0
NMSTR	60	96	1
NMSI_	60	96	1	96	48	5
NMTAP	60	96	5
NMTAP	60	192	1
NMTAP	60	192	7
NMTAP	60	288	6
NMTAP	60	288	7
NMTAP	60	336	0
NMHLD	60	336	5	96
NMTAP	61	48	4
NMSTR	61	96	3
NMSI_	61	96	3	96	48	0
NMSI_	61	96	3	96	48	6
NMTAP	61	144	2
BRTAP	61	192	3
BXTAP	61	288	1
BXTAP	61	288	5
NMSTR	62	0	3
NMSI_	62	0	3	96	48	5
NMHLD	62	0	7	96
NMSTR	62	96	3
NMSI_	62	96	3	96	48	1
NMTAP	62	192	0
NMTAP	62	192	3
NMTAP	62	240	7
NMTAP	62	288	6
BRSTR	62	336	0
BRSCR	62	336	0	96	48	3
BRSTR	62	336	5
BRSCR	62	336	5	96	48	0
BRTAP	63	48	0
BRTAP	63	48	5
BXTAP	63	144	2
BXTAP	63	144	7
NMTAP	63	240	6
NMTAP	63	240	7
BXTAP	63	288	0
BXTAP	63	288	5
NMSTR	64	0	2
NMSI_	64	0	2	96	48	7
NMTAP	64	0	3
NMTAP	64	48	1
NMTAP	64	96	2
NMTAP	64	96	3
NMTAP	64	192	4
NMSTR	64	192	5
NMSI_	64	192	5	96	48	0
NMTAP	64	240	6
NMTAP	64	288	4
NMTAP	64	288	5
NMSTR	65	0	2
BRSI_	65	0	2	96	48	6
NMTAP	65	0	7
NMTAP	65	96	2
NMSTR	65	96	4
BRSI_	65	96	4	96	48	0
NMHLD	65	192	1	96
BRTAP	65	192	4
EXHLD	65	288	0	672
BXHLD	66	0	6	576
NMTAP	67	288	0
NMTAP	67	288	6
NMTAP	68	0	1
NMTAP	68	24	3
NMTAP	68	48	2
NMTAP	68	72	4
NMTAP	68	96	3
NMTAP	68	120	4
NMTAP	68	144	2
NMTAP	68	168	3
NMHLD	68	192	1	72
NMTAP	68	264	0
NMTAP	68	336	3
NMTAP	68	336	7
NMTAP	69	0	6
NMTAP	69	24	4
NMTAP	69	48	5
NMTAP	69	72	3
NMTAP	69	96	4
NMTAP	69	120	3
NMTAP	69	144	5
NMTAP	69	168	4
NMHLD	69	192	6	72
NMTAP	69	264	7
NMTAP	69	336	0
NMTAP	69	336	4
NMTAP	70	0	1
NMTAP	70	24	3
NMTAP	70	48	2
NMTAP	70	72	4
NMTAP	70	96	3
NMTAP	70	120	4
NMTAP	70	144	2
NMTAP	70	168	3
NMHLD	70	192	1	72
NMTAP	70	264	0
NMTAP	70	336	3
NMTAP	70	336	7
NMTAP	71	0	6
NMTAP	71	24	4
NMTAP	71	48	5
NMTAP	71	72	3
NMTAP	71	96	4
NMTAP	71	120	3
NMTAP	71	144	5
NMTAP	71	168	4
BXTAP	71	192	7
BXTAP	71	264	0
BXTAP	71	264	6
BXTAP	71	336	1
BXTAP	71	336	5
NMTAP	72	0	1
NMTAP	72	24	3
NMTAP	72	48	2
NMTAP	72	72	4
NMTAP	72	96	3
NMTAP	72	120	4
NMTAP	72	144	2
NMTAP	72	168	3
NMHLD	72	192	1	72
NMTAP	72	264	0
NMTAP	72	336	2
NMTAP	72	336	7
NMTAP	73	0	6
NMTAP	73	24	4
NMTAP	73	48	5
NMTAP	73	72	3
NMTAP	73	96	4
NMTAP	73	120	3
NMTAP	73	144	5
NMTAP	73	168	4
NMHLD	73	192	6	72
NMTAP	73	264	7
NMTAP	73	336	0
NMTAP	73	336	5
NMTAP	74	0	1
NMTAP	74	24	3
NMTAP	74	48	2
NMTAP	74	72	4
NMTAP	74	96	3
NMTAP	74	120	4
NMTAP	74	144	2
NMTAP	74	168	3
NMHLD	74	192	1	72
NMTAP	74	264	0
NMTAP	74	336	1
NMTAP	74	336	7
BXSTR	75	0	2
BRSI_	75	0	2	96	48	7
BXSTR	75	0	6
BRSI_	75	0	6	96	48	3
BRTAP	75	96	2
BRTAP	75	96	6
BRTAP	75	192	0
BRTAP	75	192	4
BRTAP	75	264	2
BRTAP	75	264	3
BRTAP	75	336	3
BRTAP	75	336	5
NMTAP	76	0	3
NMTAP	76	0	5
BXTAP	76	48	7
NMTAP	76	96	3
NMTAP	76	96	5
BXTAP	76	144	7
NMTAP	76	192	2
NMTAP	76	192	4
BXTAP	76	240	0
NMTAP	76	288	2
NMTAP	76	288	4
BXTAP	76	336	0
NMTAP	77	0	4
NMTAP	77	0	6
BXTAP	77	48	7
NMTAP	77	96	3
NMTAP	77	96	5
BXTAP	77	144	0
NMTAP	77	192	2
NMTAP	77	192	4
BXTAP	77	240	7
NMTAP	77	288	1
NMTAP	77	288	3
BXTAP	77	336	0
NMTAP	78	0	3
NMTAP	78	0	5
BXTAP	78	48	7
NMTAP	78	96	3
NMTAP	78	96	5
BXTAP	78	144	7
NMTAP	78	192	2
NMTAP	78	192	4
BXTAP	78	240	0
NMTAP	78	288	2
NMTAP	78	288	4
BXTAP	78	336	0
NMTAP	79	0	3
NMTAP	79	0	5
BXTAP	79	48	6
NMTAP	79	96	2
NMTAP	79	96	4
BXTAP	79	144	1
BRTAP	79	192	0
BRTAP	79	216	7
BRTAP	79	240	0
BRTAP	79	264	7
BRTAP	79	288	0
NMSTR	80	0	1
NMSI_	80	0	1	96	48	4
BXTAP	80	48	1
NMSTR	80	96	7
NMSI_	80	96	7	96	48	3
BXTAP	80	144	7
NMSTR	80	192	0
NMSI_	80	192	0	96	48	4
BXTAP	80	240	0
NMSTR	80	288	6
NMSI_	80	288	6	96	48	2
BXTAP	80	336	6
NMSTR	81	0	7
NMSI_	81	0	7	96	48	3
BXTAP	81	48	7
NMSTR	81	96	0
NMSI_	81	96	0	96	48	4
BXTAP	81	144	0
NMSTR	81	192	1
NMSI_	81	192	1	96	48	5
BXTAP	81	240	1
NMTAP	81	288	7
BXTAP	81	336	7
NMTAP	82	0	6
NMTAP	82	24	4
NMTAP	82	48	6
NMTAP	82	72	4
NMTAP	82	96	5
NMTAP	82	120	3
NMTAP	82	144	5
NMTAP	82	168	3
NMTAP	82	192	4
NMTAP	82	216	2
NMTAP	82	240	4
NMTAP	82	264	2
NMTAP	82	288	3
NMTAP	82	312	2
NMTAP	82	336	3
NMTAP	82	360	2
NMTAP	83	0	0
NMTAP	83	24	1
NMTAP	83	48	0
NMTAP	83	72	1
NMTAP	83	96	7
NMTAP	83	120	2
NMTAP	83	144	6
NMTAP	83	168	3
BXTAP	83	192	4
BRTAP	83	192	5
BRTAP	83	264	0
BRTAP	83	264	7
BRTAP	83	336	2
BRTAP	83	336	3
BRHLD	84	0	1	480
BRHLD	84	0	6	480
NMTTP	85	336	0	B	0	M1
NMTTP	85	336	0	C	1	M1
NMTTP	85	336	0	A	0	M1
NMTTP	85	336	1	B	0	M1
NMTTP	85	336	1	A	0	M1
NMTTP	85	336	2	B	0	M1
NMTTP	85	336	2	A	0	M1
NMTTP	85	336	3	B	0	M1
NMTTP	85	336	3	A	0	M1
NMTTP	85	336	4	B	0	M1
NMTTP	85	336	4	A	0	M1
NMTTP	85	336	5	B	0	M1
NMTTP	85	336	5	A	0	M1
NMTTP	85	336	6	B	0	M1
NMTTP	85	336	6	A	0	M1
NMTTP	85	336	7	B	0	M1
NMTTP	85	336	7	A	0	M1

T_REC_TAP	390
T_REC_BRK	32
T_REC_XTP	13
T_REC_BXX	69
T_REC_HLD	42
T_REC_XHO	6
T_REC_BHO	2
T_REC_BXH	5
T_REC_STR	58
T_REC_BST	5
T_REC_XST	11
T_REC_XBS	3
T_REC_TTP	44
T_REC_THO	2
T_REC_SLD	76
T_REC_BSL	6
T_REC_ALL	764
T_NUM_TAP	516
T_NUM_BRK	122
T_NUM_HLD	50
T_NUM_SLD	76
T_NUM_ALL	764
T_JUDGE_TAP	625
T_JUDGE_HLD	210
T_JUDGE_SLD	82
T_JUDGE_ALL	917
TTM_EACHPAIRS	168
TTM_SCR_TAP	258000
TTM_SCR_BRK	317200
TTM_SCR_HLD	50000
TTM_SCR_SLD	114000
TTM_SCR_ALL	739200
TTM_SCR_S	705200
TTM_SCR_SS	727000
TTM_RAT_ACV	10167

