VERSION	0.00.00	1.04.00
FES_MODE	0
BPM_DEF	172.000	172.000	172.000	172.000
MET_DEF	4	4
RESOLUTION	384
CLK_DEF	384
COMPATIBLE_CODE	MA2

BPM	0	0	172.000
MET	0	0	4	4

NMSTR	1	0	0
NMSCR	1	0	0	96	48	2
NMSTR	1	0	7
NMSCL	1	0	7	96	48	5
EXHLD	1	192	3	96
EXHLD	1	192	4	96
NMTAP	2	0	3
NMTAP	2	48	4
NMTAP	2	96	3
NMTAP	2	192	5
NMTAP	2	240	4
NMTAP	2	288	5
NMTAP	3	0	2
NMTAP	3	48	3
NMTAP	3	96	2
NMTAP	3	192	6
NMTAP	3	240	4
NMTAP	3	288	5
NMTAP	4	0	1
NMTAP	4	48	3
NMTAP	4	96	2
NMTAP	4	192	6
NMTAP	4	240	7
NMTAP	4	288	6
NMTAP	5	0	1
NMTAP	5	48	0
NMTAP	5	96	1
NMTAP	5	192	7
BXTAP	5	240	0
BXTAP	5	288	0
BXTAP	5	336	0
NMTAP	6	0	6
NMTAP	6	48	7
NMTAP	6	96	6
NMTAP	6	192	1
NMTAP	6	240	0
NMTAP	6	288	1
BXHLD	7	0	0	48
BXHLD	7	0	7	48
BXTAP	7	96	1
BXTAP	7	96	6
NMTAP	7	192	2
NMTAP	7	240	3
NMTAP	7	288	1
NMTAP	7	288	4
NMTAP	8	0	5
NMTAP	8	48	4
NMSTR	8	96	3
NMSCL	8	96	3	96	288	4
NMTAP	8	96	6
EXTAP	9	192	1
EXTAP	9	192	6
EXTAP	9	264	3
EXTAP	9	264	4
EXTAP	9	336	0
EXTAP	9	336	7
EXSTR	10	0	0
NMSI_	10	0	0	96	48	4
EXTAP	10	0	7
NMHLD	10	192	5	72
NMHLD	10	264	4	72
NMTAP	10	336	6
NMSTR	11	0	6
NMSCL	11	0	6	96	48	3
NMHLD	11	192	2	72
NMHLD	11	264	3	72
NMTAP	11	336	1
NMSTR	12	0	1
NMSCR	12	0	1	96	48	4
NMHLD	12	192	6	72
NMHLD	12	264	4	72
NMTAP	12	336	5
NMTAP	13	0	5
NMTAP	13	96	4
NMTAP	13	96	6
NMTAP	13	192	1
NMTAP	13	192	3
EXTAP	13	288	0
EXTAP	13	288	7
EXTAP	13	336	1
EXTAP	13	336	6
EXSTR	14	0	1
NMSI_	14	0	1	96	48	5
EXTAP	14	0	6
NMHLD	14	192	6	72
NMHLD	14	264	4	72
NMTAP	14	336	5
NMSTR	15	0	5
NMSCR	15	0	5	96	48	0
NMHLD	15	192	1	72
NMHLD	15	264	3	72
NMTAP	15	336	2
NMSTR	16	0	2
NMSCL	16	0	2	96	48	7
NMHLD	16	192	5	72
NMHLD	16	264	4	72
NMTAP	16	336	6
NMSTR	17	0	6
NMSI_	17	0	6	96	48	2
EXTAP	17	192	1
EXTAP	17	192	7
EXTAP	17	264	3
EXTAP	17	264	4
EXTAP	17	336	0
EXTAP	17	336	6
EXTAP	18	0	0
EXTAP	18	0	6
NMHLD	18	96	5	192
NMTAP	18	192	4
NMTAP	18	288	3
NMHLD	19	0	2	288
NMTAP	19	96	3
NMTAP	19	192	4
NMTAP	19	288	5
NMHLD	20	0	6	480
NMTAP	20	96	5
NMTAP	20	192	4
NMTAP	20	288	3
NMTAP	21	0	2
NMSTR	21	96	1
NMSUR	21	96	1	96	96	5
EXTAP	21	288	7
NMHLD	22	0	5	288
NMTAP	22	96	4
NMTAP	22	192	3
NMTAP	22	288	2
NMHLD	23	0	1	192
NMTAP	23	96	2
NMTAP	23	192	3
NMTAP	23	288	0
NMTAP	23	288	4
NMTAP	24	0	5
NMTAP	24	96	4
NMTAP	24	96	6
NMTAP	24	192	2
NMTAP	24	288	1
NMTAP	24	288	3
NMTAP	25	0	0
NMTAP	25	0	7
NMTAP	25	48	0
NMTAP	25	48	7
NMSTR	25	96	0
NMSI_	25	96	0	96	48	2
NMSTR	25	96	7
NMSI_	25	96	7	96	48	5
EXTAP	25	288	3
EXTAP	25	288	4
EXSTR	26	0	0
BRSI_	26	0	0	96	48	4
EXSTR	26	0	7
BRSI_	26	0	7	96	48	3
EXTAP	26	192	1
EXTAP	26	192	6
NMHLD	26	288	5	96
NMHLD	27	0	4	96
NMHLD	27	96	3	96
NMTAP	27	192	2
NMTAP	27	288	1
NMTAP	27	288	3
NMHLD	28	0	2	96
NMHLD	28	96	3	96
NMHLD	28	192	4	96
NMTAP	28	288	5
NMTAP	29	0	4
NMTAP	29	0	6
NMTAP	29	96	1
NMSTR	29	96	3
NMSUR	29	96	3	96	96	7
EXTAP	29	288	0
NMHLD	30	0	1	96
NMHLD	30	96	3	96
NMHLD	30	192	5	96
NMTAP	30	288	7
NMHLD	31	0	6	96
NMHLD	31	96	4	96
NMHLD	31	192	2	96
NMTAP	31	288	0
NMTAP	32	0	1
NMHLD	32	0	3	96
NMTAP	32	96	2
NMHLD	32	192	4	96
NMTAP	32	192	6
NMTAP	32	288	5
NMTAP	33	0	3
NMTAP	33	0	4
NMTAP	33	48	3
NMTAP	33	48	4
NMSTR	33	96	3
NMSCL	33	96	3	96	96	0
NMSTR	33	96	4
NMSCR	33	96	4	96	96	7
EXSTR	34	0	1
NMSI_	34	0	1	96	48	3
EXTAP	34	0	6
NMTAP	34	96	4
NMSTR	34	192	7
NMSI_	34	192	7	96	48	5
NMTAP	34	288	4
NMSTR	35	0	0
NMSI_	35	0	0	96	48	4
NMTAP	35	96	5
NMTAP	35	192	6
NMTAP	35	192	7
NMSTR	35	288	4
NMSI_	35	288	4	96	48	1
NMSTR	35	288	5
NMSI_	35	288	5	96	48	0
NMTAP	36	96	7
NMTAP	36	192	5
NMSTR	36	288	3
NMSI_	36	288	3	96	48	1
NMSTR	36	288	4
NMSI_	36	288	4	96	48	0
NMTAP	37	96	7
NMTAP	37	192	4
NMTAP	37	192	5
NMTAP	37	288	3
NMTAP	37	288	6
NMTAP	38	0	1
NMTAP	38	48	1
NMTAP	38	96	0
NMTAP	38	192	6
NMTAP	38	240	6
NMTAP	38	288	7
NMTAP	39	0	0
NMTAP	39	48	0
NMSTR	39	96	1
NMSCR	39	96	1	96	48	4
NMHLD	39	96	7	96
NMSTR	39	288	5
NMSI_	39	288	5	96	48	0
NMSI_	39	288	5	96	48	1
NMTAP	40	96	2
NMTAP	40	192	3
NMTAP	40	192	4
NMSTR	40	288	5
NMSI_	40	288	5	96	48	0
NMSI_	40	288	5	96	48	7
NMTAP	41	96	1
NMTAP	41	192	2
NMTAP	41	192	3
NMTAP	41	288	1
NMTAP	41	288	4
NMSTR	42	0	6
NMSCL	42	0	6	96	240	0
NMSTR	43	0	7
NMSCL	43	0	7	96	240	1
NMSTR	44	0	0
NMSCL	44	0	0	96	240	2
NMSTR	45	0	1
NMSCL	45	0	1	96	240	3
EXTAP	46	0	2
EXHLD	46	48	1	240
EXHLD	46	48	3	144
EXTAP	47	0	5
EXHLD	47	48	4	144
EXHLD	47	48	6	240
EXTAP	48	0	0
EXTAP	48	0	7
NMTAP	48	48	1
NMTAP	48	96	1
EXTAP	48	144	0
EXTAP	48	144	7
NMTAP	48	192	6
NMTAP	48	240	6
EXTAP	48	288	0
EXTAP	48	288	7
EXTAP	48	336	0
EXTAP	48	336	7
EXSTR	49	0	1
NMSUR	49	0	1	96	120	7
EXSTR	49	0	6
NMSUL	49	0	6	96	120	0
BXTAP	49	288	0
BXTAP	49	288	7
NMTAP	50	0	0
NMTAP	50	0	1
NMTAP	50	96	6
NMTAP	50	96	7
NMTAP	50	192	1
NMTAP	50	240	1
NMTAP	50	288	0
NMHLD	50	336	2	96
NMTAP	51	48	3
NMTAP	51	96	3
NMTAP	51	144	2
NMTAP	51	192	1
NMTAP	51	192	4
NMTAP	51	288	6
NMTAP	51	288	7
NMSTR	52	0	0
NMSCR	52	0	0	96	48	3
NMTAP	52	96	5
NMTAP	52	192	4
NMTAP	52	192	5
NMTAP	52	288	6
NMTAP	52	288	7
NMTAP	52	336	6
NMTAP	52	336	7
NMTAP	53	48	3
NMTAP	53	48	4
NMTAP	53	144	0
NMTAP	53	144	1
NMTAP	53	192	0
NMSTR	53	192	1
NMSI_	53	192	1	96	48	5
BXTAP	53	288	7
NMTAP	54	0	1
NMTAP	54	0	7
NMTAP	54	96	4
NMTAP	54	96	5
NMTAP	54	192	0
NMTAP	54	192	6
NMTAP	54	288	2
NMTAP	54	288	3
NMTAP	54	336	2
NMTAP	54	336	3
NMTAP	55	48	4
NMTAP	55	96	4
NMTAP	55	144	3
EXSTR	55	192	3
BRSI_	55	192	3	96	48	0
EXSTR	55	192	4
BRSI_	55	192	4	96	48	7
EXTAP	56	0	1
EXTAP	56	0	6
NMHLD	56	96	0	48
NMHLD	56	96	1	48
NMHLD	56	192	6	48
NMHLD	56	192	7	48
NMSTR	56	288	0
NMSXR	56	288	0	96	240	5
NMSTR	56	288	1
NMSXL	56	288	1	96	240	4
NMTAP	58	0	6
NMTAP	58	0	7
NMTAP	58	96	0
NMTAP	58	96	1
NMTAP	58	192	6
NMTAP	58	240	6
NMTAP	58	288	7
NMHLD	58	336	5	96
NMTAP	59	48	4
NMTAP	59	96	4
NMTAP	59	144	5
NMTAP	59	192	3
NMTAP	59	192	6
NMTAP	59	288	0
NMTAP	59	288	1
NMSTR	60	0	7
NMSCL	60	0	7	96	48	4
NMTAP	60	96	2
NMTAP	60	192	2
NMTAP	60	192	3
NMTAP	60	288	0
NMTAP	60	288	1
NMTAP	60	336	2
NMTAP	60	336	7
NMTAP	61	48	6
NMTAP	61	48	7
NMTAP	61	96	0
NMTAP	61	96	5
NMSTR	61	192	2
NMSI_	61	192	2	96	48	7
NMTAP	61	192	3
BXTAP	61	288	6
EXTAP	62	0	4
EXTAP	62	0	5
EXTAP	62	96	2
EXTAP	62	96	3
NMTAP	62	192	1
NMTAP	62	240	1
NMTAP	62	288	7
EXSTR	62	336	0
NMSCR	62	336	0	96	48	3
EXSTR	63	48	7
NMSCL	63	48	7	96	48	4
BXTAP	63	144	0
NMTAP	63	240	2
NMTAP	63	288	2
EXTAP	63	336	1
EXTAP	63	336	3
NMTAP	64	48	5
NMTAP	64	96	5
EXTAP	64	144	4
EXTAP	64	144	6
NMSTR	64	240	0
NMSCR	64	240	0	96	240	7
NMTAP	64	288	0
EXTAP	64	336	7
EXTAP	65	288	0
EXTAP	65	288	7
NMTTP	66	0	0	C	1	M1
NMTTP	66	0	1	B	0	M1
NMTTP	66	0	2	E	0	M1
NMTTP	66	0	5	B	0	M1
NMTTP	66	0	6	E	0	M1
EXSTR	68	0	0
NMSI_	68	0	0	96	48	4
EXTAP	68	0	7
NMHLD	68	192	5	72
NMHLD	68	264	4	72
NMTAP	68	336	6
NMSTR	69	0	6
NMSCL	69	0	6	96	48	3
NMHLD	69	192	2	72
NMHLD	69	264	3	72
NMTAP	69	336	1
NMSTR	70	0	1
NMSCR	70	0	1	96	48	4
NMHLD	70	192	6	72
NMHLD	70	264	4	72
NMTAP	70	336	5
NMTAP	71	0	5
NMTAP	71	96	4
NMTAP	71	96	6
NMTAP	71	192	1
NMTAP	71	192	3
EXTAP	71	288	0
EXTAP	71	288	7
EXTAP	71	336	1
EXTAP	71	336	6
EXSTR	72	0	1
NMSI_	72	0	1	96	48	5
EXTAP	72	0	6
NMHLD	72	192	6	72
NMHLD	72	264	4	72
NMTAP	72	336	5
NMSTR	73	0	5
NMSCR	73	0	5	96	48	0
NMHLD	73	192	1	72
NMHLD	73	264	3	72
NMTAP	73	336	2
NMSTR	74	0	2
NMSCL	74	0	2	96	48	7
NMHLD	74	192	5	72
NMHLD	74	264	4	72
NMTAP	74	336	6
NMSTR	75	0	6
NMSI_	75	0	6	96	48	2
EXTAP	75	192	1
EXTAP	75	192	7
EXTAP	75	264	3
EXTAP	75	264	4
BXTAP	75	336	0
BXTAP	75	336	6
NMHLD	76	48	2	48
NMHLD	76	48	3	48
NMHLD	76	144	4	48
NMHLD	76	144	5	48
NMHLD	76	240	1	48
NMHLD	76	240	3	48
NMHLD	76	336	4	48
NMHLD	76	336	6	48
NMHLD	77	48	0	48
NMHLD	77	48	1	48
NMHLD	77	144	6	48
NMHLD	77	144	7	48
NMHLD	77	240	0	48
NMHLD	77	240	2	48
NMHLD	77	336	5	48
NMHLD	77	336	7	48
NMHLD	78	48	2	48
NMHLD	78	48	3	48
NMHLD	78	144	0	48
NMHLD	78	144	6	48
NMHLD	78	240	4	48
NMHLD	78	240	5	48
NMHLD	78	336	1	48
NMHLD	78	336	7	48
NMHLD	79	48	2	48
NMHLD	79	48	3	48
NMHLD	79	144	4	48
NMHLD	79	144	5	48
BXTAP	79	240	0
BXTAP	79	240	7
BXTAP	79	288	1
BXTAP	79	288	6
EXHLD	80	0	4	96
NMTAP	80	96	3
EXTAP	80	144	6
EXTAP	80	168	7
EXHLD	80	192	6	96
NMTAP	80	288	4
EXTAP	80	336	1
EXTAP	80	360	0
EXHLD	81	0	1	96
NMTAP	81	96	3
EXTAP	81	144	0
EXTAP	81	168	7
EXHLD	81	192	0	96
NMTAP	81	288	7
NMTAP	82	0	2
NMTAP	82	48	2
NMTAP	82	96	3
NMTAP	82	144	3
NMTAP	82	192	1
NMTAP	82	240	1
NMTAP	82	288	7
NMTAP	82	336	7
NMTAP	83	0	0
NMTAP	83	48	0
NMTAP	83	96	6
NMTAP	83	144	6
EXTAP	83	192	4
EXTAP	83	192	5
EXTAP	83	264	2
EXTAP	83	264	3
EXTAP	83	336	0
EXTAP	83	336	7
BRTAP	84	0	0
BRTAP	84	0	7
NMTTP	85	336	3	B	0	M1
NMTTP	85	336	3	E	0	M1
NMTTP	85	336	3	D	0	M1
NMTTP	85	336	4	B	0	M1
NMTTP	85	336	4	E	1	M1
NMTTP	85	336	5	E	0	M1
NMTTP	85	336	5	D	0	M1

T_REC_TAP	221
T_REC_BRK	2
T_REC_XTP	72
T_REC_BXX	16
T_REC_HLD	78
T_REC_XHO	10
T_REC_BHO	0
T_REC_BXH	2
T_REC_STR	39
T_REC_BST	0
T_REC_XST	13
T_REC_XBS	0
T_REC_TTP	12
T_REC_THO	0
T_REC_SLD	50
T_REC_BSL	4
T_REC_ALL	519
T_NUM_TAP	357
T_NUM_BRK	24
T_NUM_HLD	88
T_NUM_SLD	50
T_NUM_ALL	519
T_JUDGE_TAP	375
T_JUDGE_HLD	174
T_JUDGE_SLD	54
T_JUDGE_ALL	603
TTM_EACHPAIRS	118
TTM_SCR_TAP	178500
TTM_SCR_BRK	62400
TTM_SCR_HLD	88000
TTM_SCR_SLD	75000
TTM_SCR_ALL	403900
TTM_SCR_S	389500
TTM_SCR_SS	401500
TTM_RAT_ACV	10059

