VERSION	0.00.00	1.04.00
FES_MODE	0
BPM_DEF	112.000	180.000	180.000	112.000
MET_DEF	4	4
RESOLUTION	384
CLK_DEF	384
COMPATIBLE_CODE	MA2

BPM	0	0	112.000
BPM	9	0	180.000
MET	0	0	4	4

NMHLD	1	0	3	384
NMTTP	1	192	4	E	0	M1
NMTTP	1	288	5	E	0	M1
NMHLD	2	0	5	384
NMTTP	2	192	4	E	0	M1
NMTTP	2	288	3	E	0	M1
NMHLD	3	0	1	384
NMTTP	3	192	2	E	0	M1
NMTTP	3	288	3	E	0	M1
NMHLD	4	0	3	192
NMTTP	4	192	4	E	0	M1
NMHLD	5	0	4	384
NMTTP	5	192	4	E	0	M1
NMTTP	5	288	3	E	0	M1
NMHLD	6	0	2	384
NMTTP	6	192	4	E	0	M1
NMTTP	6	288	5	E	0	M1
NMHLD	7	0	6	384
NMTTP	7	192	6	E	0	M1
NMTTP	7	288	5	E	0	M1
NMTTP	8	0	4	E	0	M1
NMTTP	8	144	5	D	0	M1
NMTTP	8	156	4	A	0	M1
NMTTP	8	168	4	D	0	M1
NMTTP	8	180	3	A	0	M1
NMTTP	8	192	3	D	0	M1
NMHLD	11	0	2	96
NMTAP	11	96	3
NMTAP	11	144	3
NMHLD	11	192	1	96
NMTAP	11	288	3
NMTAP	11	336	2
NMHLD	12	0	4	96
NMSTR	12	96	2
NMSXR	12	96	2	96	192	3
NMHLD	13	0	5	96
NMTAP	13	96	4
NMTAP	13	144	4
NMHLD	13	192	6	96
NMTAP	13	288	4
NMTAP	13	336	5
NMHLD	14	0	3	96
NMSTR	14	96	5
NMSXL	14	96	5	96	192	4
NMTAP	15	0	2
NMTAP	15	48	2
NMTAP	15	96	3
NMTAP	15	192	5
NMTAP	15	240	5
NMTAP	15	288	3
NMTAP	15	336	4
NMTAP	16	0	2
NMTAP	16	48	2
NMSTR	16	96	3
NMSUR	16	96	3	96	144	4
NMTAP	17	0	2
NMTAP	17	48	2
NMTAP	17	96	5
NMTAP	17	144	5
NMTAP	17	192	3
NMTAP	17	240	4
NMTAP	17	288	2
NMTAP	17	288	5
EXTAP	18	0	3
EXTAP	18	32	4
EXTAP	18	64	3
EXTAP	18	96	4
EXTAP	18	128	3
EXTAP	18	160	4
EXTAP	18	192	3
EXTAP	18	224	4
EXTAP	18	256	3
EXTAP	18	288	4
EXTAP	18	320	3
EXTAP	18	352	4
NMTAP	19	0	2
NMTAP	19	48	2
NMTAP	19	96	3
NMTAP	19	144	1
NMTAP	19	192	7
NMTAP	19	240	7
NMTAP	19	288	0
NMTAP	19	336	6
NMTAP	20	0	4
NMTAP	20	48	5
NMSTR	20	96	2
NMSUR	20	96	2	96	168	4
NMTAP	20	144	6
NMHLD	20	192	7	96
NMTAP	21	0	5
NMTAP	21	48	5
NMTAP	21	96	4
NMTAP	21	144	6
NMTAP	21	192	0
NMTAP	21	240	0
NMTAP	21	288	7
NMTAP	21	336	1
NMTAP	22	0	3
NMTAP	22	48	2
NMSTR	22	96	6
NMSUL	22	96	6	96	168	3
NMTAP	22	144	1
NMHLD	22	192	0	96
NMTAP	23	0	2
NMTAP	23	48	2
NMTAP	23	96	3
NMTAP	23	144	1
NMTAP	23	192	7
NMTAP	23	240	7
NMTAP	23	288	0
NMTAP	23	336	6
NMTAP	24	0	4
NMTAP	24	48	5
NMSTR	24	96	3
NMSXR	24	96	3	96	168	4
NMTAP	24	144	6
NMHLD	24	192	7	96
NMTAP	25	0	5
NMTAP	25	48	5
NMTAP	25	96	4
NMTAP	25	144	6
NMTAP	25	192	0
NMTAP	25	240	0
NMTAP	25	288	7
NMTAP	25	336	1
NMTAP	26	0	2
NMTAP	26	0	3
NMTAP	26	48	2
NMTAP	26	96	4
NMTAP	26	96	5
NMTAP	26	144	5
NMTAP	26	192	1
NMTAP	26	192	3
NMTAP	26	240	1
NMTAP	26	288	4
NMTAP	26	288	6
NMTAP	26	336	6
BRTAP	27	0	0
BXTAP	27	0	7
BXTAP	27	48	0
BRTAP	27	48	7
NMSTR	28	192	7
NMSCL	28	192	7	96	48	4
NMTAP	28	288	0
BRTAP	29	0	2
BRTAP	29	0	3
BRTAP	29	48	1
BRTAP	29	48	4
NMSTR	30	192	0
NMSCR	30	192	0	96	48	3
NMTAP	30	288	7
BRTAP	31	0	4
BRTAP	31	0	5
BRTAP	31	48	3
BRTAP	31	48	6
NMSTR	32	192	0
NMSCR	32	192	0	96	48	3
NMSTR	32	192	7
NMSCL	32	192	7	96	48	4
EXTAP	32	288	0
EXTAP	32	288	7
EXTAP	33	0	1
EXTAP	33	0	6
NMTAP	33	96	0
NMTAP	33	96	1
NMTAP	33	144	2
NMTAP	33	144	7
NMTAP	33	240	6
NMTAP	33	240	7
NMTAP	33	288	0
NMTAP	33	288	5
NMTAP	34	0	2
NMTAP	34	0	3
NMTAP	34	48	0
NMTAP	34	48	4
NMTAP	34	144	4
NMTAP	34	144	5
NMSTR	34	192	3
BRSI_	34	192	3	96	48	0
NMSTR	34	192	7
BRSI_	34	192	7	96	48	4
EXTAP	34	288	3
EXTAP	34	288	7
NMTAP	35	0	1
NMTAP	35	0	5
NMTAP	35	96	6
NMTAP	35	96	7
NMTAP	35	192	4
NMTAP	35	240	3
NMSTR	35	240	5
NMSI_	35	240	5	96	48	2
NMHLD	35	336	1	96
NMTAP	36	48	0
NMTAP	36	96	7
NMTAP	36	144	6
NMSTR	36	192	4
NMSI_	36	192	4	96	48	0
NMTAP	36	192	5
NMSTR	36	288	7
NMSCL	36	288	7	96	48	4
NMTAP	37	0	3
NMTAP	37	96	0
NMTAP	37	96	1
NMTAP	37	192	3
NMSTR	37	240	2
NMSI_	37	240	2	96	48	5
NMTAP	37	240	4
NMHLD	37	336	6	96
NMTAP	38	48	7
NMTAP	38	96	0
NMTAP	38	144	1
NMTAP	38	192	2
NMSTR	38	192	3
NMSI_	38	192	3	96	48	7
NMSTR	38	288	0
NMSCR	38	288	0	96	48	3
NMTAP	39	0	4
NMTAP	39	96	6
NMTAP	39	96	7
NMTAP	39	192	3
NMTAP	39	192	4
NMTAP	39	240	2
NMSTR	39	240	5
NMSI_	39	240	5	96	48	0
NMHLD	39	336	1	96
NMTAP	40	48	7
NMTAP	40	96	6
NMTAP	40	144	5
NMSTR	40	192	0
NMSI_	40	192	0	96	48	4
NMTAP	40	192	4
NMTAP	40	288	7
NMTAP	41	0	3
NMTAP	41	0	5
NMTAP	41	48	6
NMTAP	41	96	7
NMTAP	41	144	0
NMTAP	41	144	1
NMTAP	41	192	2
NMTAP	41	240	3
NMTAP	41	288	2
NMTAP	41	288	4
NMTAP	41	336	1
NMTAP	42	0	0
NMTAP	42	48	6
NMTAP	42	48	7
NMTAP	42	96	5
NMTAP	42	144	4
NMSTR	42	192	2
NMSI_	42	192	2	96	48	7
NMTAP	42	192	3
NMSTR	42	288	5
NMSI_	42	288	5	96	48	0
NMTAP	43	0	4
NMTAP	43	192	3
NMTAP	44	0	4
NMTAP	44	96	3
NMTAP	44	96	5
NMTAP	44	192	2
NMTAP	44	192	6
EXTAP	45	0	0
EXTAP	45	32	7
EXTAP	45	64	0
EXTAP	45	96	7
EXTAP	45	128	0
EXTAP	45	160	7
EXTAP	45	192	0
EXTAP	45	224	7
EXTAP	45	256	0
EXTAP	45	288	7
EXTAP	45	320	0
EXTAP	45	352	7
BRSTR	46	0	1
NMSI_	46	0	1	96	48	5
NMTAP	46	96	7
NMTAP	46	192	0
NMTAP	46	192	6
NMTAP	46	288	2
NMTAP	46	288	3
NMTAP	46	336	1
NMSTR	47	0	0
NMSI_	47	0	0	96	48	4
NMSTR	47	0	4
NMSI_	47	0	4	96	48	6
NMHLD	47	192	7	72
NMHLD	47	264	6	72
NMTAP	47	336	5
NMSTR	48	0	5
NMSCL	48	0	5	96	48	2
NMTAP	48	96	1
NMSTR	48	144	1
NMSUR	48	144	1	96	48	5
NMTAP	48	240	7
NMSTR	48	288	7
NMSCL	48	288	7	96	48	4
NMSCR	48	288	7	96	48	2
EXTAP	49	0	7
NMTAP	49	96	3
NMTAP	49	144	2
NMTAP	49	192	1
NMTAP	49	192	4
NMTAP	49	288	5
NMTAP	49	336	4
NMSTR	50	0	3
NMSI_	50	0	3	96	48	7
NMSTR	50	0	6
NMSI_	50	0	6	96	48	4
NMHLD	50	192	0	72
NMHLD	50	264	1	72
NMTAP	50	336	2
NMSTR	51	0	2
NMSCR	51	0	2	96	48	5
NMTAP	51	96	6
NMSTR	51	144	6
NMSUL	51	144	6	96	48	2
NMTAP	51	240	0
NMSTR	51	288	0
NMSV_	51	288	0	96	48	3
NMSV_	51	288	0	96	48	5
EXTAP	52	0	0
NMTAP	52	96	1
NMTAP	52	96	7
NMTAP	52	192	4
NMTAP	52	192	6
NMTAP	52	264	3
NMTAP	52	264	4
NMTAP	52	336	1
NMTAP	52	336	3
NMTAP	53	0	1
NMTAP	53	0	3
NMSTR	53	96	0
BRSCR	53	96	0	96	144	7
NMTAP	53	96	7
NMTAP	53	144	0
NMTAP	53	144	7
NMSTR	54	0	0
NMSI_	54	0	0	96	48	4
NMSTR	54	0	1
NMSI_	54	0	1	96	48	3
EXTAP	54	96	0
EXTAP	54	96	1
NMTAP	54	192	6
NMTAP	54	192	7
NMTAP	54	288	5
NMTAP	54	336	0
NMSTR	55	0	6
NMSI_	55	0	6	96	48	4
NMSTR	55	0	7
NMSI_	55	0	7	96	48	3
EXTAP	55	96	6
EXTAP	55	96	7
NMTAP	55	192	0
NMTAP	55	192	1
NMTAP	55	264	3
NMTAP	55	264	4
NMTAP	55	336	6
NMTAP	55	336	7
NMTAP	56	0	0
NMTAP	56	0	5
NMTAP	56	96	0
NMTAP	56	96	1
NMTAP	56	144	2
NMTAP	56	144	7
NMSTR	56	240	0
BRSXL	56	240	0	96	240	3
NMSTR	56	240	7
BRSXR	56	240	7	96	240	4
NMTAP	56	288	1
NMTAP	56	288	6
EXTAP	56	336	0
EXTAP	56	336	7
NMTAP	57	288	1
NMTAP	57	288	6
NMTAP	57	336	2
NMTAP	57	336	5
NMTAP	58	0	3
NMTAP	58	0	4
NMTAP	58	96	6
NMTAP	58	96	7
NMTAP	58	144	0
NMTAP	58	144	5
NMSTR	58	240	2
NMSCL	58	240	2	96	144	4
NMTAP	58	288	2
NMTAP	58	336	3
NMHLD	59	144	0	96
NMHLD	59	144	6	96
NMTAP	59	288	0
NMTAP	59	288	6
NMTAP	60	0	1
NMTAP	60	0	7
NMTAP	60	96	5
NMTAP	60	144	4
NMTAP	60	192	3
NMTAP	60	240	2
EXTAP	60	288	1
EXSTR	60	288	6
NMSI_	60	288	6	96	48	2
EXSTR	61	0	7
NMSI_	61	0	7	96	48	3
EXSTR	61	96	0
NMSI_	61	96	0	96	48	4
EXSTR	61	192	1
NMSI_	61	192	1	96	48	5
BRTAP	61	288	7
NMSTR	62	0	6
NMSI_	62	0	6	96	48	4
NMTAP	62	96	3
NMSTR	62	192	7
NMSI_	62	192	7	96	48	3
NMSTR	62	288	4
NMSCR	62	288	4	96	144	2
NMTAP	62	336	4
NMTAP	63	192	3
NMSTR	63	240	2
NMSI_	63	240	2	96	48	5
NMTAP	63	240	4
NMHLD	63	336	6	96
NMTAP	64	48	7
NMTAP	64	96	0
NMSTR	64	96	6
NMSCL	64	96	6	96	96	3
NMSTR	64	192	3
NMSCL	64	192	3	96	96	0
NMSTR	64	288	0
NMSCL	64	288	0	96	96	5
NMSTR	65	0	5
NMSCL	65	0	5	96	96	2
NMSTR	65	96	2
NMSCL	65	96	2	96	96	7
NMSTR	65	192	7
NMSCL	65	192	7	96	96	4
NMTAP	65	288	4
NMSTR	66	0	1
NMSI_	66	0	1	96	48	3
NMTAP	66	96	4
NMSTR	66	192	0
NMSI_	66	192	0	96	48	4
NMSTR	66	288	3
NMSCL	66	288	3	96	144	5
NMTAP	66	336	3
NMTAP	67	192	4
NMTAP	67	240	3
NMSTR	67	240	5
NMSI_	67	240	5	96	48	2
NMHLD	67	336	1	96
NMTAP	68	48	0
NMTAP	68	96	1
NMTAP	68	96	7
NMTAP	68	192	0
NMTAP	68	192	6
NMSTR	68	288	3
NMSI_	68	288	3	96	48	5
NMSTR	68	288	4
NMSI_	68	288	4	96	48	2
NMTAP	68	336	3
NMTAP	68	336	4
CNSI_	69	48	2	0	96	6
CNSI_	69	48	5	0	96	1
CNSI_	69	144	1	0	96	7
CNSI_	69	144	6	0	96	0
EXTAP	69	288	1
EXTAP	69	288	6
NMTAP	70	0	0
NMTAP	70	24	1
NMTAP	70	48	2
NMTAP	70	72	3
NMTAP	70	96	7
NMTAP	70	120	6
NMTAP	70	144	5
NMTAP	70	168	4
NMTTP	70	192	0	E	0	M1
NMTTP	70	204	1	E	0	M1
NMTTP	70	216	2	E	0	M1
NMTTP	70	228	3	E	0	M1
NMTTP	70	240	4	E	0	M1
NMTTP	70	252	5	E	0	M1
NMTTP	70	264	6	E	0	M1
NMTTP	70	276	7	E	0	M1
NMTTP	70	288	0	E	1	M1
NMTAP	71	0	2
NMTAP	71	48	2
NMTAP	71	96	1
NMTAP	71	96	3
NMTAP	71	192	0
NMTAP	71	192	7
NMTAP	71	240	6
NMTAP	71	288	5
NMTAP	71	336	4
NMTAP	72	0	1
NMTAP	72	0	3
NMTAP	72	48	2
NMSTR	72	96	3
NMSV_	72	96	3	96	96	2
NMTAP	72	144	4
NMHLD	72	192	5	96
CNSI_	72	288	2	0	48	7
NMTAP	73	0	5
NMTAP	73	48	5
NMTAP	73	96	4
NMTAP	73	96	6
NMTAP	73	192	0
NMTAP	73	192	7
NMTAP	73	240	1
NMTAP	73	288	2
NMTAP	73	336	3
NMTAP	74	0	4
NMTAP	74	0	6
NMTAP	74	48	5
NMSTR	74	96	4
NMSLR	74	96	4	96	96	3
NMTAP	74	144	3
NMHLD	74	192	2	96
CNSI_	74	288	3	0	48	7
NMTAP	75	0	1
NMTAP	75	48	0
NMTAP	75	96	2
NMTAP	75	96	7
NMTAP	75	192	4
NMTAP	75	192	5
NMTAP	75	240	3
NMTAP	75	288	2
NMTAP	75	336	1
NMTAP	76	0	0
NMTAP	76	0	6
NMTAP	76	48	4
NMSTR	76	96	2
NMSI_	76	96	2	96	48	4
NMTAP	76	144	0
NMHLD	76	192	6	96
CNSSL	76	240	4	0	96	0
NMTAP	77	0	6
NMTAP	77	48	7
NMTAP	77	96	0
NMTAP	77	96	5
NMTAP	77	192	2
NMTAP	77	192	3
NMTAP	77	240	4
NMTAP	77	288	5
NMTAP	77	336	6
NMSTR	78	0	0
NMSI_	78	0	0	96	48	4
NMTAP	78	48	0
NMSTR	78	96	6
NMSI_	78	96	6	96	48	3
NMTAP	78	144	6
NMSTR	78	192	2
NMSI_	78	192	2	96	48	7
NMTAP	78	240	2
BRTAP	78	288	5
NMTAP	79	0	0
EXTAP	79	0	6
NMTAP	79	48	1
EXTAP	79	96	2
NMTAP	79	96	3
NMTAP	79	144	4
NMTAP	79	192	3
EXTAP	79	192	5
NMTAP	79	240	2
EXTAP	79	288	1
NMTAP	79	288	4
NMTAP	79	336	5
NMTAP	80	0	2
EXTAP	80	0	6
NMTAP	80	48	1
EXSTR	80	96	0
NMSCR	80	96	0	96	120	6
NMTAP	80	96	7
NMTAP	80	144	6
EXTAP	80	192	0
EXTAP	80	192	5
EXTAP	81	0	1
NMTAP	81	0	7
NMTAP	81	48	6
NMTAP	81	96	4
EXTAP	81	96	5
NMTAP	81	144	3
EXTAP	81	192	2
NMTAP	81	192	4
NMTAP	81	240	5
NMTAP	81	288	3
EXTAP	81	288	6
NMTAP	81	336	2
EXTAP	82	0	1
NMTAP	82	0	5
NMTAP	82	48	6
NMTAP	82	96	0
EXSTR	82	96	7
NMSCL	82	96	7	96	120	1
NMTAP	82	144	1
EXTAP	82	192	2
EXTAP	82	192	7
NMTAP	83	0	0
EXTAP	83	0	6
NMTAP	83	48	1
EXTAP	83	96	3
NMTAP	83	96	4
NMTAP	83	144	5
NMTAP	83	192	1
EXTAP	83	192	7
NMTAP	83	240	2
EXTAP	83	288	4
NMTAP	83	288	6
NMTAP	83	336	5
NMTAP	84	0	2
EXTAP	84	0	3
NMTAP	84	48	1
EXSTR	84	96	6
NMSLL	84	96	6	96	120	0
EXSTR	84	96	7
NMSI_	84	96	7	96	48	3
NMTAP	84	144	6
NMTAP	84	144	7
CNSI_	84	240	3	0	72	1
EXTAP	85	0	1
NMTAP	85	0	7
NMTAP	85	48	6
NMTAP	85	96	3
EXTAP	85	96	4
NMTAP	85	144	2
EXTAP	85	192	0
NMTAP	85	192	6
NMTAP	85	240	5
NMTAP	85	288	1
EXTAP	85	288	3
NMTAP	85	336	2
EXTAP	86	0	4
NMTAP	86	0	5
NMTAP	86	48	6
EXTAP	86	96	1
EXTAP	86	96	7
NMTAP	86	144	1
NMTAP	86	144	7
BRSTR	86	192	2
NMSSL	86	192	2	96	72	6
BRTAP	86	192	6

T_REC_TAP	342
T_REC_BRK	13
T_REC_XTP	67
T_REC_BXX	2
T_REC_HLD	30
T_REC_XHO	0
T_REC_BHO	0
T_REC_BXH	0
T_REC_STR	62
T_REC_BST	2
T_REC_XST	8
T_REC_XBS	0
T_REC_TTP	28
T_REC_THO	0
T_REC_SLD	69
T_REC_BSL	5
T_REC_ALL	628
T_NUM_TAP	507
T_NUM_BRK	22
T_NUM_HLD	30
T_NUM_SLD	69
T_NUM_ALL	628
T_JUDGE_TAP	524
T_JUDGE_HLD	150
T_JUDGE_SLD	74
T_JUDGE_ALL	748
TTM_EACHPAIRS	124
TTM_SCR_TAP	253500
TTM_SCR_BRK	57200
TTM_SCR_HLD	30000
TTM_SCR_SLD	103500
TTM_SCR_ALL	444200
TTM_SCR_S	428750
TTM_SCR_SS	442000
TTM_RAT_ACV	10049

