VERSION	0.00.00	1.04.00
FES_MODE	0
BPM_DEF	112.000	180.000	180.000	112.000
MET_DEF	4	4
RESOLUTION	384
CLK_DEF	384
COMPATIBLE_CODE	MA2

BPM	0	0	112.000
BPM	9	0	180.000
MET	0	0	4	4

NMSTR	1	0	1
NMSCR	1	0	1	96	192	3
NMSTR	2	0	5
NMSCR	2	0	5	96	192	7
NMSTR	3	0	0
NMSCR	3	0	0	96	480	4
NMSTR	5	0	5
NMSCL	5	0	5	96	192	3
NMSTR	6	0	1
NMSCL	6	0	1	96	192	7
NMSTR	7	0	6
NMSCL	7	0	6	96	672	1
NMTHO	8	0	0	768	C	0	M1
NMHLD	11	0	2	1440
NMTTP	11	96	3	E	0	M1
NMTTP	11	288	2	E	0	M1
NMTTP	12	96	3	E	0	M1
NMTTP	12	288	2	E	0	M1
NMTTP	13	96	0	C	0	M1
NMTTP	13	288	4	B	0	M1
NMTTP	14	96	0	C	0	M1
NMTTP	14	288	4	B	0	M1
NMHLD	15	0	6	672
NMTAP	15	96	3
NMTAP	15	192	4
NMTAP	15	288	4
NMTAP	16	0	5
NMTAP	16	96	5
NMTAP	16	192	4
NMTAP	16	288	4
NMHLD	17	0	4	288
NMTAP	17	96	5
NMTAP	17	192	6
NMTAP	17	288	7
BRSTR	18	0	0
NMSCL	18	0	0	96	144	5
NMSCR	18	0	0	96	144	3
NMTAP	19	0	4
NMTAP	19	0	5
NMTAP	19	96	6
NMTAP	19	192	4
NMTAP	19	192	5
NMTAP	19	288	3
NMTAP	20	0	4
NMTAP	20	0	5
NMTAP	20	96	6
NMTAP	20	192	4
NMTAP	20	192	5
BXTAP	20	288	0
BXTAP	20	288	7
NMTAP	21	0	2
NMTAP	21	0	3
NMTAP	21	96	1
NMTAP	21	192	2
NMTAP	21	192	3
NMTAP	21	288	4
NMTAP	22	0	2
NMTAP	22	0	3
NMTAP	22	96	1
NMTAP	22	192	2
NMTAP	22	192	3
BXTAP	22	288	0
BXTAP	22	288	7
NMTAP	23	0	4
NMTAP	23	0	5
NMTAP	23	96	6
NMTAP	23	192	4
NMTAP	23	192	5
NMTAP	23	288	3
NMTAP	24	0	4
NMTAP	24	0	5
NMTAP	24	96	6
NMTAP	24	192	4
NMTAP	24	192	5
BXTAP	24	288	0
BXTAP	24	288	7
NMTAP	25	0	2
NMTAP	25	0	3
NMTAP	25	96	1
NMTAP	25	192	2
NMTAP	25	192	3
NMTAP	25	288	4
NMTAP	26	0	2
NMTAP	26	0	3
NMTAP	26	96	2
NMTAP	26	96	3
BXHLD	26	192	1	96
BXHLD	26	192	4	96
EXTAP	27	0	0
EXHLD	27	48	0	624
NMTTP	28	0	6	B	0	M1
NMTTP	28	96	0	C	0	M1
NMTTP	28	192	2	B	0	M1
NMTTP	28	288	2	A	0	M1
EXTAP	29	0	1
EXTAP	29	0	3
EXHLD	29	48	1	624
EXHLD	29	48	3	144
NMTTP	30	0	4	B	0	M1
NMTTP	30	96	0	C	0	M1
NMTTP	30	192	0	B	0	M1
NMTTP	30	288	0	A	0	M1
EXTAP	31	0	0
EXTAP	31	0	2
EXHLD	31	48	0	144
EXHLD	31	48	2	624
NMTTP	32	0	1	B	0	M1
NMTTP	32	96	0	C	0	M1
NMTTP	32	192	5	B	0	M1
NMTTP	32	288	5	A	0	M1
NMHLD	33	0	1	96
NMTAP	33	96	3
NMHLD	33	144	3	96
NMTAP	33	240	5
NMHLD	33	288	5	96
NMTAP	34	0	7
NMHLD	34	48	7	96
NMTAP	34	144	0
NMTAP	34	192	0
NMTAP	34	288	1
NMTAP	34	288	6
NMHLD	35	0	2	576
NMTAP	35	0	5
NMTAP	35	96	4
NMTAP	35	192	3
NMTAP	35	288	1
NMTAP	36	0	0
NMTAP	36	96	7
NMSTR	36	192	6
NMSI_	36	192	6	96	48	3
NMTAP	37	0	1
NMHLD	37	96	4	480
NMTAP	37	192	3
NMTAP	37	288	3
NMTAP	38	0	5
NMTAP	38	96	6
NMSTR	38	192	7
NMSI_	38	192	7	96	48	2
NMTAP	39	0	6
NMHLD	39	96	2	480
NMTAP	39	192	0
NMTAP	39	288	1
NMTAP	40	0	3
NMTAP	40	96	4
NMSTR	40	192	5
NMSI_	40	192	5	96	48	3
NMHLD	41	0	1	96
NMTAP	41	96	3
NMHLD	41	144	3	96
NMTAP	41	240	5
NMHLD	41	288	5	96
NMTAP	42	0	7
NMHLD	42	48	7	96
NMTAP	42	144	0
NMTAP	42	192	0
NMTAP	42	288	1
NMTAP	42	288	6
NMHLD	43	0	0	576
NMSTR	43	0	7
NMSCR	43	0	7	96	480	5
EXTAP	45	0	0
EXTAP	45	0	7
EXTAP	45	96	0
EXTAP	45	96	7
BXTAP	45	192	2
BXTAP	45	192	5
NMTAP	46	0	6
NMTAP	46	0	7
NMTAP	46	96	0
NMTAP	46	96	1
NMTAP	46	192	2
NMTAP	46	192	3
NMTAP	46	288	4
NMTAP	46	288	5
NMTAP	47	0	6
NMTAP	47	96	0
NMTAP	47	96	7
NMHLD	47	192	6	72
NMHLD	47	264	4	72
NMTAP	47	336	3
NMTAP	48	0	3
NMTAP	48	96	1
NMTAP	48	192	0
NMTAP	48	192	1
NMTAP	48	288	6
NMTAP	48	288	7
NMSTR	49	0	4
NMSI_	49	0	4	96	48	1
NMSTR	49	0	5
NMSI_	49	0	5	96	48	0
NMTAP	49	288	2
NMTAP	49	288	7
NMTAP	50	0	3
NMSTR	50	0	6
NMSI_	50	0	6	96	48	1
NMSTR	50	192	3
NMSI_	50	192	3	96	48	1
NMSTR	51	0	5
NMSI_	51	0	5	96	48	1
NMSTR	51	192	3
NMSI_	51	192	3	96	48	1
NMHLD	52	0	6	384
NMSTR	52	192	5
NMSCR	52	192	5	96	96	1
BXHLD	53	144	2	144
BXHLD	53	144	4	144
NMTAP	54	0	0
NMTAP	54	0	1
NMTAP	54	96	6
NMTAP	54	96	7
NMTAP	54	192	4
NMTAP	54	192	5
NMTAP	54	288	2
NMTAP	54	288	3
NMTAP	55	0	0
NMTAP	55	96	0
NMTAP	55	96	7
NMHLD	55	192	1	72
NMHLD	55	264	3	72
NMTAP	55	336	4
NMTAP	56	0	4
NMTAP	56	96	6
NMTAP	56	192	6
NMTAP	56	192	7
NMTAP	56	288	0
NMTAP	56	288	1
NMSTR	56	336	0
NMSCL	56	336	0	96	96	5
NMSTR	56	336	1
NMSCR	56	336	1	96	96	4
NMTAP	57	288	3
NMTAP	57	288	6
NMHLD	58	0	4	288
NMTAP	58	0	5
NMTAP	58	96	5
NMTAP	58	192	5
NMTAP	58	288	5
NMHLD	59	0	1	288
NMTAP	59	0	4
NMTAP	59	96	3
NMTAP	59	192	2
NMTAP	59	288	0
NMTAP	60	0	1
NMTAP	60	0	7
NMTAP	60	96	3
NMTAP	60	96	4
NMTAP	60	192	0
NMTAP	60	192	6
NMTAP	60	288	3
NMTAP	60	288	4
NMTAP	61	0	1
NMTAP	61	0	7
NMSTR	61	96	0
BRSI_	61	96	0	96	48	4
BRTAP	61	192	5
NMHLD	62	0	4	288
NMTAP	62	0	5
NMTAP	62	96	6
NMTAP	62	192	5
NMTAP	62	288	7
NMHLD	62	336	7	192
NMTAP	63	48	4
NMTAP	63	144	3
NMTAP	63	240	0
NMTAP	63	240	2
NMTAP	63	336	1
NMTAP	63	336	7
NMTAP	64	48	0
NMTAP	64	48	2
NMTAP	64	96	0
NMTAP	64	96	2
NMHLD	64	192	1	96
NMTAP	64	192	7
NMTAP	64	288	3
NMSTR	64	336	3
NMSUR	64	336	3	96	144	4
NMTAP	66	0	2
NMHLD	66	0	3	288
NMTAP	66	96	1
NMTAP	66	192	2
NMTAP	66	288	0
NMHLD	66	336	0	192
NMTAP	67	48	3
NMTAP	67	144	4
NMTAP	67	240	5
NMTAP	67	240	7
NMTAP	67	336	0
NMTAP	67	336	6
NMTAP	68	48	5
NMTAP	68	48	7
NMTAP	68	96	5
NMTAP	68	96	7
NMTAP	68	192	0
NMTAP	68	192	6
NMTAP	68	288	0
NMTAP	68	288	1
BRHLD	68	336	0	624
BRSTR	68	336	1
BRSCR	68	336	1	96	336	7
CNSXR	70	0	7	0	192	2
NMHLD	71	0	2	576
NMTAP	71	0	3
NMTAP	71	96	7
NMTAP	71	192	0
NMTAP	71	288	4
NMTAP	72	0	3
NMSTR	72	96	7
BRSI_	72	96	7	96	48	4
NMTAP	73	0	4
NMHLD	73	0	5	576
NMTAP	73	96	0
NMTAP	73	192	7
NMTAP	73	288	3
NMTAP	74	0	4
NMSTR	74	96	0
BRSI_	74	96	0	96	48	3
NMHLD	75	0	2	576
NMTAP	75	0	3
NMTAP	75	96	7
NMTAP	75	192	0
NMTAP	75	288	4
NMTAP	76	0	3
NMSTR	76	96	7
BRSI_	76	96	7	96	48	4
NMTAP	77	0	4
NMHLD	77	0	6	288
NMTAP	77	96	0
NMTAP	77	192	7
NMTAP	77	288	3
NMTAP	78	0	4
NMTAP	78	0	5
NMSTR	78	96	2
BRSI_	78	96	2	96	48	5
NMSTR	78	96	7
BRSI_	78	96	7	96	48	4
NMTAP	79	0	4
NMTAP	79	0	5
NMTAP	79	96	2
NMTAP	79	96	3
NMTAP	79	192	0
NMTAP	79	192	1
NMTAP	79	288	6
NMTAP	79	288	7
NMTAP	80	0	4
NMTAP	80	0	5
NMSTR	80	96	2
BRSI_	80	96	2	96	48	7
NMSTR	80	96	3
BRSI_	80	96	3	96	48	6
NMTAP	81	0	0
NMTAP	81	0	1
NMTAP	81	96	2
NMTAP	81	96	3
NMTAP	81	192	4
NMTAP	81	192	5
NMTAP	81	288	6
NMTAP	81	288	7
NMTAP	82	0	0
NMTAP	82	0	1
NMSTR	82	96	2
BRSI_	82	96	2	96	48	7
NMSTR	82	96	3
BRSI_	82	96	3	96	48	6
NMTAP	83	0	4
NMTAP	83	0	5
NMTAP	83	96	1
NMTAP	83	96	7
NMTAP	83	192	2
NMTAP	83	192	3
NMTAP	83	288	0
NMTAP	83	288	6
NMTAP	84	0	4
NMTAP	84	0	5
NMTAP	84	96	0
NMTAP	84	96	1
NMTAP	84	192	2
NMTAP	84	192	3
NMTAP	84	288	6
NMTAP	84	288	7
BXSTR	85	0	4
BRSI_	85	0	4	96	48	1
BXSTR	85	0	5
BRSI_	85	0	5	96	48	0
BXSTR	85	192	2
BRSI_	85	192	2	96	48	7
BXSTR	85	192	3
BRSI_	85	192	3	96	48	6
BXSTR	86	0	4
BRSI_	86	0	4	96	48	1
BXSTR	86	0	5
BRSI_	86	0	5	96	48	0
BXHLD	86	192	2	96
BXHLD	86	192	7	96

T_REC_TAP	233
T_REC_BRK	1
T_REC_XTP	9
T_REC_BXX	8
T_REC_HLD	31
T_REC_XHO	5
T_REC_BHO	1
T_REC_BXH	6
T_REC_STR	30
T_REC_BST	2
T_REC_XST	0
T_REC_XBS	6
T_REC_TTP	20
T_REC_THO	1
T_REC_SLD	22
T_REC_BSL	17
T_REC_ALL	392
T_NUM_TAP	292
T_NUM_BRK	41
T_NUM_HLD	37
T_NUM_SLD	22
T_NUM_ALL	392
T_JUDGE_TAP	309
T_JUDGE_HLD	298
T_JUDGE_SLD	39
T_JUDGE_ALL	646
TTM_EACHPAIRS	102
TTM_SCR_TAP	146000
TTM_SCR_BRK	106600
TTM_SCR_HLD	37000
TTM_SCR_SLD	33000
TTM_SCR_ALL	322600
TTM_SCR_S	308950
TTM_SCR_SS	318500
TTM_RAT_ACV	10128

