VERSION	0.00.00	1.04.00
FES_MODE	0
BPM_DEF	202.000	202.000	202.000	202.000
MET_DEF	4	4
RESOLUTION	384
CLK_DEF	384
COMPATIBLE_CODE	MA2

BPM	0	0	202.000
MET	0	0	4	4

NMTAP	2	0	3
NMTAP	2	0	6
NMTAP	2	48	5
NMTAP	2	72	4
NMTAP	2	96	5
NMTAP	2	144	2
NMTAP	2	144	6
NMTAP	2	192	5
NMTAP	2	216	3
NMTAP	2	240	5
NMHLD	2	288	1	432
NMHLD	2	288	6	384
NMTAP	4	0	1
NMTAP	4	0	4
NMTAP	4	48	2
NMTAP	4	72	3
NMTAP	4	96	2
NMTAP	4	144	1
NMTAP	4	144	5
NMTAP	4	192	2
NMTAP	4	216	4
NMTAP	4	240	2
NMHLD	4	288	1	384
NMHLD	4	288	6	432
NMTAP	6	0	2
NMTAP	6	0	6
NMTAP	6	48	5
NMTAP	6	72	3
NMTAP	6	96	5
NMTAP	6	144	1
NMTAP	6	144	6
NMTAP	6	192	5
NMTAP	6	216	2
NMTAP	6	240	5
NMHLD	6	288	0	432
NMHLD	6	288	6	384
NMTAP	8	0	1
NMTAP	8	0	5
NMTAP	8	48	2
NMTAP	8	72	4
NMTAP	8	96	2
NMTAP	8	144	1
NMTAP	8	144	6
NMTAP	8	192	2
NMTAP	8	216	5
NMTAP	8	240	2
NMTAP	8	288	1
NMHLD	8	288	7	336
NMTTP	9	48	4	E	0	M1
NMTTP	9	72	5	E	0	M1
NMTTP	9	96	6	E	0	M1
NMTTP	9	120	7	E	0	M1
NMTTP	9	144	0	E	0	M1
NMTTP	9	168	1	E	0	M1
NMTTP	9	192	2	E	0	M1
NMTTP	9	216	3	E	0	M1
NMTTP	9	240	4	E	0	M1
BRTAP	9	288	1
BRTAP	9	288	6
EXSTR	10	0	4
NMSI_	10	0	4	96	48	0
NMTAP	10	48	3
NMTAP	10	96	2
EXSTR	10	144	1
NMSCR	10	144	1	96	96	5
NMTAP	10	240	6
NMTAP	10	288	6
NMTAP	10	336	7
EXSTR	11	0	7
NMSI_	11	0	7	96	48	3
NMTAP	11	48	0
NMTAP	11	96	1
EXSTR	11	144	2
NMSCL	11	144	2	96	96	6
NMTAP	11	240	5
NMTAP	11	288	5
NMTAP	11	336	4
EXSTR	12	0	4
NMSV_	12	0	4	96	48	7
NMTAP	12	48	3
NMTAP	12	96	2
EXTAP	12	144	1
NMTAP	12	192	0
NMTAP	12	216	6
NMTAP	12	240	0
NMTAP	12	288	5
NMTAP	12	288	7
NMTAP	12	336	0
BRTAP	13	0	1
BRTAP	13	0	7
BRSTR	13	48	0
NMSI_	13	48	0	96	48	4
BRTAP	13	48	2
EXTAP	13	144	0
EXTAP	13	144	7
NMTAP	13	192	7
NMTAP	13	216	6
NMTAP	13	240	5
NMTAP	13	264	4
NMTAP	13	288	3
NMTAP	13	312	2
NMTAP	13	336	1
NMTAP	13	360	0
EXSTR	14	0	3
NMSI_	14	0	3	96	48	7
EXTAP	14	0	7
NMTAP	14	96	5
EXSTR	14	144	6
NMSCL	14	144	6	96	96	2
NMTAP	14	240	1
NMTAP	14	288	1
NMTAP	14	336	0
EXSTR	15	0	0
NMSI_	15	0	0	96	48	4
NMTAP	15	48	7
NMTAP	15	96	6
EXTAP	15	144	5
NMTAP	15	240	3
NMTAP	15	240	6
NMTAP	15	288	2
NMTAP	15	288	7
NMTAP	15	336	0
NMTAP	15	336	1
NMTAP	16	0	1
NMTAP	16	24	2
NMTAP	16	48	3
NMTAP	16	72	4
NMTAP	16	96	5
NMTAP	16	120	6
NMTAP	16	144	7
NMTAP	16	168	0
NMTAP	16	192	1
NMTAP	16	192	5
NMTAP	16	216	2
NMTAP	16	216	6
NMTAP	16	240	3
NMTAP	16	240	7
NMTAP	16	264	0
NMTAP	16	264	4
BXTAP	16	288	1
BXTAP	16	288	5
BXTAP	16	336	3
BXSTR	16	336	7
BRSCL	16	336	7	96	48	4
NMTAP	17	48	3
NMTAP	17	64	2
NMTAP	17	80	1
NMTAP	17	96	0
EXTAP	17	192	1
EXTAP	17	224	3
EXTAP	17	256	2
EXTAP	17	288	6
EXTAP	17	320	4
EXTAP	17	352	5
EXTAP	18	0	3
EXTAP	18	0	6
NMTAP	18	48	3
NMTAP	18	48	6
NMTAP	18	96	5
NMTAP	18	120	4
NMTAP	18	168	4
NMTAP	18	192	5
NMTAP	18	240	2
NMTAP	18	264	3
NMTAP	18	312	3
NMTAP	18	336	2
NMTAP	19	0	1
NMTAP	19	0	4
NMTAP	19	48	1
NMTAP	19	48	4
NMTAP	19	96	2
NMTAP	19	120	3
NMTAP	19	168	3
NMTAP	19	192	2
NMTAP	19	240	5
NMTAP	19	264	4
NMTAP	19	312	4
NMTAP	19	336	5
NMTAP	20	0	3
NMTAP	20	0	6
NMTAP	20	48	3
NMTAP	20	48	6
NMTAP	20	96	5
NMTAP	20	120	4
NMTAP	20	168	4
NMTAP	20	192	5
NMTAP	20	240	2
NMTAP	20	264	3
NMTAP	20	312	3
NMTAP	20	336	2
NMTAP	21	0	1
NMTAP	21	0	4
NMTAP	21	48	1
NMTAP	21	48	4
NMTAP	21	96	2
NMTAP	21	120	3
NMTAP	21	168	3
NMTAP	21	192	1
NMTAP	21	240	1
NMTAP	21	264	2
NMTAP	21	312	2
NMTAP	21	336	0
NMTAP	22	0	0
NMHLD	22	0	6	144
NMTAP	22	96	5
NMHLD	22	144	5	96
NMHLD	22	240	4	144
NMTAP	22	336	3
NMSTR	23	0	3
NMSXR	23	0	3	96	192	7
NMTAP	23	240	4
NMTAP	23	288	5
NMTAP	23	336	6
NMHLD	24	0	5	144
NMTAP	24	96	6
NMHLD	24	144	6	96
NMHLD	24	240	7	144
NMTAP	24	336	0
NMSTR	25	0	0
NMSCR	25	0	0	96	96	4
EXTAP	25	192	6
EXTAP	25	216	6
EXTAP	25	264	7
EXTAP	25	288	7
EXTAP	25	336	0
EXTAP	25	336	5
NMTAP	26	0	1
NMTAP	26	0	4
NMTAP	26	48	2
NMTAP	26	48	3
NMTAP	26	96	1
NMTAP	26	120	0
NMTAP	26	168	2
NMTAP	26	192	3
NMTAP	26	240	5
NMTAP	26	264	4
NMTAP	26	312	6
NMTAP	26	336	7
NMTAP	27	0	0
NMTAP	27	0	5
NMTAP	27	48	0
NMTAP	27	48	5
NMTAP	27	96	6
NMTAP	27	120	7
NMTAP	27	168	5
NMTAP	27	192	4
NMTAP	27	240	2
NMTAP	27	264	3
NMTAP	27	312	1
NMTAP	27	336	0
NMTAP	28	0	2
NMTAP	28	0	7
NMTAP	28	48	2
NMTAP	28	48	7
NMTAP	28	96	1
NMTAP	28	120	0
NMTAP	28	168	2
NMTAP	28	192	3
NMTAP	28	240	5
NMTAP	28	264	4
NMTAP	28	312	6
NMTAP	28	336	7
NMTAP	29	0	0
NMTAP	29	0	5
NMTAP	29	48	0
NMTAP	29	48	5
NMTAP	29	96	6
NMTAP	29	120	7
NMTAP	29	168	5
EXTAP	29	192	4
EXTAP	29	216	4
EXTAP	29	264	6
EXTAP	29	288	6
EXTAP	29	336	0
NMHLD	30	0	1	144
NMTAP	30	0	4
NMTAP	30	96	2
NMHLD	30	144	2	96
NMHLD	30	240	3	96
NMTAP	30	336	4
NMTAP	30	360	3
NMSTR	31	0	4
NMSXL	31	0	4	96	192	0
NMTAP	31	48	2
NMTAP	31	96	1
NMTAP	31	144	0
NMTAP	31	240	1
NMTAP	31	288	2
NMTAP	31	336	3
EXTAP	32	0	4
EXSTR	32	0	6
NMSI_	32	0	6	96	48	2
EXTAP	32	96	1
EXTAP	32	96	6
EXSTR	32	144	0
NMSI_	32	144	0	96	48	4
EXTAP	32	240	0
EXTAP	32	240	4
EXTAP	32	336	3
EXTAP	32	336	5
NMTAP	33	0	3
NMTAP	33	0	5
NMTAP	33	24	2
NMTAP	33	48	1
NMTAP	33	72	0
NMTAP	33	96	3
NMTAP	33	96	7
NMTAP	33	120	4
NMTAP	33	144	5
NMTAP	33	168	6
NMTAP	33	192	3
NMTAP	33	192	7
NMTAP	33	216	2
NMTAP	33	240	1
NMTAP	33	264	0
NMTAP	33	288	3
NMTAP	33	288	7
NMTAP	33	312	4
NMTAP	33	336	5
NMTAP	33	360	6
EXHLD	34	0	3	144
EXTAP	34	0	7
NMTTP	34	96	4	E	0	M1
NMHLD	34	144	5	144
NMTTP	34	240	5	E	0	M1
NMHLD	34	288	3	144
NMTTP	35	0	4	E	0	M1
NMHLD	35	48	5	96
NMTTP	35	144	4	B	0	M1
NMTTP	35	144	5	E	0	M1
BRTAP	36	0	2
BRHLD	36	0	4	144
NMTTP	36	96	4	E	0	M1
NMHLD	36	144	2	144
NMTTP	36	240	3	E	0	M1
NMHLD	36	288	4	144
NMTTP	37	0	4	E	0	M1
NMHLD	37	48	2	144
NMTTP	37	144	3	E	0	M1
BRTAP	37	192	4
BRTAP	37	240	5
EXHLD	38	0	3	144
EXTAP	38	0	5
NMTTP	38	96	4	E	0	M1
NMHLD	38	144	5	144
NMTTP	38	240	5	E	0	M1
NMHLD	38	288	3	144
NMTTP	39	0	4	E	0	M1
NMHLD	39	48	5	144
NMTTP	39	144	5	E	0	M1
BRHLD	39	192	3	0
BRTAP	40	0	2
BRHLD	40	0	4	144
NMTTP	40	96	4	E	0	M1
NMHLD	40	144	2	144
NMTTP	40	240	3	E	0	M1
NMHLD	40	288	4	144
NMTTP	41	0	4	E	0	M1
NMHLD	41	48	2	144
NMTTP	41	144	3	E	0	M1
BRTAP	41	192	4
BRTAP	41	240	5
EXHLD	42	0	2	72
EXTAP	42	0	6
NMSTR	42	72	0
NMSI_	42	72	0	96	48	4
NMTAP	42	144	0
NMHLD	42	192	3	72
NMSTR	42	264	5
NMSCL	42	264	5	96	48	2
NMTAP	42	336	5
NMHLD	43	0	0	72
NMSTR	43	72	1
NMSI_	43	72	1	96	48	6
NMTAP	43	144	1
NMHLD	43	192	2	72
NMHLD	43	264	3	72
NMTAP	43	336	4
NMTAP	44	0	1
NMHLD	44	0	5	72
NMSTR	44	72	7
NMSI_	44	72	7	96	48	3
NMTAP	44	144	7
NMHLD	44	192	4	72
NMSTR	44	264	2
NMSCR	44	264	2	96	48	5
NMTAP	44	336	2
NMHLD	45	0	7	72
NMSTR	45	72	6
NMSI_	45	72	6	96	48	1
NMTAP	45	144	6
NMHLD	45	192	5	72
NMHLD	45	264	4	72
NMTAP	45	336	3
NMHLD	46	0	2	72
NMTAP	46	0	6
NMSTR	46	72	3
NMSI_	46	72	3	96	48	7
NMTAP	46	144	3
NMHLD	46	192	0	72
NMSTR	46	264	5
NMSCR	46	264	5	96	48	0
NMTAP	46	336	5
NMHLD	47	0	3	72
NMSTR	47	72	1
NMSUL	47	72	1	96	48	5
NMTAP	47	144	1
NMHLD	47	192	2	72
NMHLD	47	264	4	72
NMTAP	47	336	3
NMTAP	48	0	2
NMTAP	48	24	4
NMTAP	48	48	2
NMTAP	48	72	4
NMTAP	48	96	3
NMTAP	48	120	5
NMTAP	48	144	3
NMTAP	48	168	5
NMTAP	48	192	2
NMTAP	48	216	4
NMTAP	48	240	2
NMTAP	48	264	4
NMTAP	48	288	2
BXHLD	48	336	1	48
BXHLD	48	336	5	48
BRTAP	49	48	0
BRTAP	49	48	6
BRTAP	49	96	0
BRTAP	49	96	6
BRTAP	49	144	0
BRTAP	49	144	6
NMTAP	49	192	7
NMTAP	49	216	7
NMTAP	49	240	7
BRTAP	49	288	0
BRTAP	49	288	6
NMTAP	49	300	1
NMTAP	49	312	2
NMTAP	49	324	3
NMTAP	49	336	4
NMTAP	49	348	5
NMTAP	49	360	6
NMTAP	49	372	7
NMHLD	50	0	0	0
NMHLD	51	0	1	0
NMHLD	52	0	2	0
NMHLD	53	0	3	0
NMHLD	54	0	4	0
NMHLD	55	0	5	0
NMHLD	56	0	6	0
NMSTR	57	0	1
NMSI_	57	0	1	96	48	5
NMTAP	57	48	0
NMSTR	57	96	7
NMSI_	57	96	7	96	48	3
CNSCR	57	144	5	0	48	7
CNSCL	57	240	3	0	48	1
EXTAP	58	0	3
EXHLD	58	0	5	192
NMTAP	58	96	3
NMTAP	58	144	2
NMHLD	58	192	1	72
NMHLD	58	264	2	72
NMTAP	58	336	3
NMHLD	59	0	3	72
NMHLD	59	72	2	72
NMTAP	59	144	1
NMSTR	59	192	1
NMSCR	59	192	1	96	48	3
NMTAP	59	336	4
NMTAP	59	360	5
EXHLD	60	0	6	192
NMTAP	60	96	4
NMTAP	60	144	3
NMHLD	60	192	2	72
NMHLD	60	264	3	72
NMTAP	60	336	4
NMHLD	61	0	4	72
NMHLD	61	72	3	72
NMTAP	61	144	2
NMSTR	61	192	2
NMSCL	61	192	2	96	48	0
NMTAP	61	336	3
NMTAP	61	360	4
EXHLD	62	0	5	336
NMTAP	62	96	4
NMTAP	62	144	4
NMTAP	62	192	4
NMTAP	62	240	4
EXTAP	62	288	3
NMTAP	62	336	3
NMTAP	62	360	4
EXHLD	63	0	2	336
NMTAP	63	96	3
NMTAP	63	144	3
NMTAP	63	192	3
NMTAP	63	240	3
EXTAP	63	288	4
NMTAP	63	336	4
NMTAP	63	360	3
EXTAP	64	0	4
NMTAP	64	48	2
NMTAP	64	96	3
NMTAP	64	96	4
NMTAP	64	144	5
NMTAP	64	192	3
NMTAP	64	192	4
NMTAP	64	240	4
NMTAP	64	240	5
NMTAP	64	288	2
NMTAP	64	288	3
NMTAP	64	336	0
NMTAP	64	336	1
NMSTR	65	0	6
NMSI_	65	0	6	96	48	4
NMSTR	65	0	7
NMSI_	65	0	7	96	48	3
BRSTR	65	96	6
NMSI_	65	96	6	96	48	2
BRSTR	65	96	7
NMSI_	65	96	7	96	48	1
BRSTR	65	192	6
NMSI_	65	192	6	96	48	4
BRSTR	65	192	7
NMSI_	65	192	7	96	48	3
BRTAP	65	288	6
BRTAP	65	288	7
EXTAP	66	0	0
EXSTR	66	0	1
NMSI_	66	0	1	96	48	5
NMTAP	66	96	0
NMTAP	66	96	1
NMTAP	66	144	7
NMTAP	66	192	4
NMSTR	66	192	6
NMSCL	66	192	6	96	72	3
NMSTR	66	264	3
NMSI_	66	264	3	96	48	7
NMTAP	66	288	6
NMTAP	66	336	7
NMSTR	67	0	0
NMSLR	67	0	0	96	72	4
NMSTR	67	72	4
NMSI_	67	72	4	96	48	0
NMTAP	67	96	0
NMTAP	67	144	7
NMSTR	67	192	6
NMSCL	67	192	6	96	72	3
NMSTR	67	264	3
NMSI_	67	264	3	96	48	7
NMTAP	67	288	6
NMTAP	67	336	0
NMTAP	67	360	1
EXSTR	68	0	2
NMSI_	68	0	2	96	48	6
NMTAP	68	96	2
NMTAP	68	96	3
NMTAP	68	144	4
NMSTR	68	192	5
NMSCR	68	192	5	96	72	0
NMTAP	68	192	7
NMSTR	68	264	0
NMSI_	68	264	0	96	48	4
NMTAP	68	288	5
NMTAP	68	336	4
NMSTR	69	0	3
NMSLL	69	0	3	96	72	7
NMSTR	69	72	7
NMSI_	69	72	7	96	48	3
NMTAP	69	96	3
NMTAP	69	144	4
NMSTR	69	192	5
NMSCR	69	192	5	96	72	0
NMSTR	69	264	0
NMSI_	69	264	0	96	48	4
NMTAP	69	288	5
NMTAP	69	336	3
NMTAP	69	360	2
EXSTR	70	0	1
NMSI_	70	0	1	96	48	5
NMTAP	70	96	0
NMTAP	70	96	1
NMTAP	70	144	7
NMTAP	70	192	4
NMSTR	70	192	6
NMSCL	70	192	6	96	72	3
NMSTR	70	264	3
NMSI_	70	264	3	96	48	7
NMTAP	70	288	6
NMTAP	70	336	7
NMSTR	71	0	0
NMSLR	71	0	0	96	72	4
NMSTR	71	72	4
NMSI_	71	72	4	96	48	0
NMTAP	71	96	0
NMTAP	71	144	7
NMTAP	71	192	6
NMTAP	71	264	1
NMTAP	71	264	7
NMTAP	71	336	3
NMTAP	71	336	4
NMTAP	72	0	2
NMTAP	72	0	5
NMTAP	72	48	6
NMTAP	72	72	7
NMTAP	72	120	3
NMTAP	72	144	4
NMTAP	72	192	2
NMTAP	72	192	5
NMTAP	72	240	1
NMTAP	72	264	0
NMTAP	72	312	4
NMTAP	72	336	3
EXTAP	73	0	1
EXTAP	73	0	5
EXTAP	73	72	3
EXTAP	73	72	7
EXTAP	73	144	4
EXTAP	73	144	5
BXTAP	73	192	0
BXTAP	73	192	7
BRTAP	73	288	1
NMTAP	73	300	2
NMTAP	73	312	3
NMTAP	73	324	4
NMTAP	73	336	5
NMTAP	73	348	6
NMTAP	73	360	7
NMTAP	73	372	0
EXTAP	74	0	1
EXSTR	74	0	5
NMSI_	74	0	5	96	48	1
NMTAP	74	96	4
NMTAP	74	96	5
NMTAP	74	144	3
NMTAP	74	192	0
NMSTR	74	192	2
NMSCL	74	192	2	96	72	7
NMSTR	74	264	7
NMSI_	74	264	7	96	48	3
NMTAP	74	288	2
NMTAP	74	336	3
NMSTR	75	0	4
NMSLR	75	0	4	96	72	0
NMSTR	75	72	0
NMSI_	75	72	0	96	48	4
NMTAP	75	96	4
NMTAP	75	144	3
NMSTR	75	192	2
NMSCL	75	192	2	96	72	7
NMSTR	75	264	7
NMSI_	75	264	7	96	48	3
NMTAP	75	288	2
NMTAP	75	336	4
NMTAP	75	360	5
EXSTR	76	0	6
NMSI_	76	0	6	96	48	2
NMTAP	76	96	6
NMTAP	76	96	7
NMTAP	76	144	0
NMSTR	76	192	1
NMSI_	76	192	1	96	48	4
NMTAP	76	192	3
NMTAP	76	264	4
NMTAP	76	288	1
NMTAP	76	336	5
EXTAP	77	0	6
EXTAP	77	0	7
NMTAP	77	48	4
NMTAP	77	48	5
NMTAP	77	96	2
NMTAP	77	96	3
NMTAP	77	144	0
NMTAP	77	144	1
NMTAP	77	192	6
NMTAP	77	216	7
NMTAP	77	264	5
NMTAP	77	288	4
NMTAP	77	336	3
NMTAP	77	336	6
BRTAP	78	0	2
NMTAP	78	32	2
NMTAP	78	64	2
BRTAP	78	96	1
NMTAP	78	128	1
NMTAP	78	160	1
BRTAP	78	192	0
NMTAP	78	224	0
NMTAP	78	256	0
BRTAP	78	288	7
NMTAP	78	320	7
NMTAP	78	352	7
BRTAP	79	0	6
NMTAP	79	32	6
NMTAP	79	64	6
BRTAP	79	96	5
NMTAP	79	128	5
NMTAP	79	160	5
NMTAP	79	192	3
NMTAP	79	216	2
NMTAP	79	240	1
NMTAP	79	264	0
NMTAP	79	288	3
NMTAP	79	312	4
NMTAP	79	336	5
NMTAP	79	360	6
EXTAP	80	0	2
NMTAP	80	24	3
NMTAP	80	48	2
NMTAP	80	72	3
NMTAP	80	96	1
NMTAP	80	120	0
NMTAP	80	144	1
NMTAP	80	168	0
BXTAP	80	192	3
NMTAP	80	240	7
NMTAP	80	252	6
NMTAP	80	264	5
NMTAP	80	276	4
BXTAP	80	288	2
NMTAP	80	336	7
NMTAP	80	348	6
NMTAP	80	360	5
NMTAP	80	372	4
BXTAP	81	0	1
NMTAP	81	72	2
NMTAP	81	72	6
NMTAP	81	144	3
NMTAP	81	144	4
EXSTR	81	192	1
NMSXL	81	192	1	96	96	0
EXSTR	81	192	5
NMSXL	81	192	5	96	96	4
BRTAP	81	288	1
BRTAP	81	288	5
NMTAP	82	96	0
NMTAP	82	96	4
EXSTR	82	144	1
NMSI_	82	144	1	96	48	3
NMTAP	82	240	4
EXSTR	82	288	5
NMSI_	82	288	5	96	48	7
NMTAP	83	0	0
EXSTR	83	48	1
NMSI_	83	48	1	96	48	7
NMTAP	83	144	6
EXSTR	83	192	5
NMSI_	83	192	5	96	48	3
NMTAP	83	288	2
NMTAP	83	336	1
EXSTR	84	0	0
BRSI_	84	0	0	96	96	4
NMSTR	84	96	4
BRSCR	84	96	4	96	48	6
EXSTR	84	144	6
BRSI_	84	144	6	96	96	2
NMSTR	84	240	2
BRSCL	84	240	2	96	48	0
EXSTR	84	288	0
BRSI_	84	288	0	96	96	4
NMSTR	85	0	4
BRSCR	85	0	4	96	48	6
EXSTR	85	48	6
BRSI_	85	48	6	96	96	2
NMSTR	85	144	2
BRSCL	85	144	2	96	48	0
EXTAP	85	192	0
EXTAP	85	288	6
EXSTR	86	0	2
NMSI_	86	0	2	96	48	0
EXTAP	86	0	5
NMTAP	86	96	7
EXSTR	86	144	6
NMSI_	86	144	6	96	48	4
NMTAP	86	240	3
EXSTR	86	288	2
NMSI_	86	288	2	96	48	0
NMTAP	87	0	7
EXSTR	87	48	6
NMSI_	87	48	6	96	48	0
NMTAP	87	144	1
EXSTR	87	192	2
NMSI_	87	192	2	96	48	4
NMTAP	87	288	5
NMTAP	87	336	6
EXSTR	88	0	7
BRSI_	88	0	7	96	96	3
NMSTR	88	96	3
BRSCL	88	96	3	96	48	1
EXSTR	88	144	1
BRSI_	88	144	1	96	96	5
NMSTR	88	240	5
BRSCR	88	240	5	96	48	7
EXTAP	88	288	7
NMTAP	89	0	0
NMTAP	89	16	1
NMTAP	89	32	2
NMTAP	89	48	3
BRSTR	89	96	7
NMSI_	89	96	7	96	48	3
BRSTR	89	192	7
NMSF_	89	192	7	96	48	3
BRTAP	89	288	7
EXTAP	90	0	1
EXTAP	90	0	5
NMHLD	90	48	6	96
NMTAP	90	48	7
NMTAP	90	72	0
NMTAP	90	96	1
NMTAP	90	120	2
NMTAP	90	144	3
NMTAP	90	192	5
NMTAP	90	216	3
NMTAP	90	240	5
NMTAP	90	264	3
NMTAP	90	288	6
NMTAP	90	312	2
NMTAP	90	336	7
EXTAP	91	0	0
EXTAP	91	0	1
NMTAP	91	48	0
NMHLD	91	48	1	96
NMTAP	91	72	7
NMTAP	91	96	6
NMTAP	91	120	5
NMTAP	91	144	4
NMTAP	91	192	2
NMTAP	91	216	4
NMTAP	91	240	2
NMTAP	91	264	4
NMTAP	91	288	1
NMTAP	91	312	5
NMTAP	91	336	0
EXTAP	92	0	6
EXTAP	92	0	7
NMHLD	92	48	6	96
NMTAP	92	48	7
NMTAP	92	72	0
NMTAP	92	96	1
NMTAP	92	120	2
NMTAP	92	144	3
NMTAP	92	192	5
NMTAP	92	216	3
NMTAP	92	240	5
NMTAP	92	264	3
NMTAP	92	288	5
NMTAP	92	312	3
NMTAP	92	336	4
BRTAP	93	0	2
NMTAP	93	32	0
NMTAP	93	64	0
BRTAP	93	96	1
NMTAP	93	128	7
NMTAP	93	160	7
BRTAP	93	192	0
NMTAP	93	224	6
NMTAP	93	256	6
BRTAP	93	288	7
NMTAP	93	320	5
NMTAP	93	352	5
EXTAP	94	0	4
EXTAP	94	0	5
NMTAP	94	48	4
NMHLD	94	48	5	96
NMTAP	94	72	3
NMTAP	94	96	2
NMTAP	94	120	1
NMTAP	94	144	0
NMTAP	94	192	6
NMTAP	94	216	0
NMTAP	94	240	6
NMTAP	94	264	0
NMTAP	94	288	5
NMTAP	94	312	1
NMTAP	94	336	4
EXTAP	95	0	2
EXTAP	95	0	3
NMHLD	95	48	2	96
NMTAP	95	48	3
NMTAP	95	72	4
NMTAP	95	96	5
NMTAP	95	120	6
NMTAP	95	144	7
NMTAP	95	192	1
NMTAP	95	216	7
NMTAP	95	240	1
NMTAP	95	264	7
NMTAP	95	288	2
NMTAP	95	312	6
NMTAP	95	336	3
EXTAP	96	0	2
NMTAP	96	24	3
NMTAP	96	48	2
NMTAP	96	72	3
NMTAP	96	96	1
NMTAP	96	120	0
NMTAP	96	144	1
NMTAP	96	168	0
BXTAP	96	192	3
NMTAP	96	240	7
NMTAP	96	252	6
NMTAP	96	264	5
NMTAP	96	276	4
BXTAP	96	288	2
NMTAP	96	336	7
NMTAP	96	348	6
NMTAP	96	360	5
NMTAP	96	372	4
NMTAP	97	0	1
NMTAP	97	24	2
NMTAP	97	48	1
NMTAP	97	72	2
NMTAP	97	96	0
NMTAP	97	120	7
NMTAP	97	144	0
NMTAP	97	168	7
NMTAP	97	192	5
NMTAP	97	216	6
NMTAP	97	240	5
NMTAP	97	264	6
NMTAP	97	288	0
NMTAP	97	312	7
NMTAP	97	336	1
NMTAP	97	360	6
BXTAP	98	0	2
BXTAP	98	0	5
NMTAP	98	144	1
NMTAP	98	144	7
NMHLD	98	288	3	384
NMHLD	98	288	5	432
NMTAP	100	0	2
NMTAP	100	0	6
NMTAP	100	48	1
NMTAP	100	72	7
NMTAP	100	96	1
NMTAP	100	144	2
NMTAP	100	144	5
NMTAP	100	192	1
NMTAP	100	216	6
NMTAP	100	240	1
NMHLD	100	288	2	432
NMHLD	100	288	4	384
NMTAP	102	0	1
NMTAP	102	0	5
NMTAP	102	48	6
NMTAP	102	72	0
NMTAP	102	96	6
NMTAP	102	144	2
NMTAP	102	144	5
NMTAP	102	192	6
NMTAP	102	216	1
NMTAP	102	240	6
NMHLD	102	288	3	384
NMHLD	102	288	5	432
NMTAP	104	0	2
NMTAP	104	0	6
NMTAP	104	48	1
NMTAP	104	72	7
NMTAP	104	96	1
NMTAP	104	144	2
NMTAP	104	144	5
NMSTR	104	192	1
NMSI_	104	192	1	96	48	5
NMSTR	104	216	6
NMSI_	104	216	6	96	24	2
NMTAP	104	240	1

T_REC_TAP	569
T_REC_BRK	35
T_REC_XTP	64
T_REC_BXX	12
T_REC_HLD	68
T_REC_XHO	7
T_REC_BHO	3
T_REC_BXH	2
T_REC_STR	49
T_REC_BST	7
T_REC_XST	32
T_REC_XBS	1
T_REC_TTP	26
T_REC_THO	0
T_REC_SLD	76
T_REC_BSL	13
T_REC_ALL	964
T_NUM_TAP	740
T_NUM_BRK	73
T_NUM_HLD	75
T_NUM_SLD	76
T_NUM_ALL	964
T_JUDGE_TAP	795
T_JUDGE_HLD	267
T_JUDGE_SLD	89
T_JUDGE_ALL	1151
TTM_EACHPAIRS	128
TTM_SCR_TAP	370000
TTM_SCR_BRK	189800
TTM_SCR_HLD	75000
TTM_SCR_SLD	114000
TTM_SCR_ALL	748800
TTM_SCR_S	719300
TTM_SCR_SS	741500
TTM_RAT_ACV	10098

