VERSION	0.00.00	1.04.00
FES_MODE	0
BPM_DEF	202.000	202.000	202.000	202.000
MET_DEF	4	4
RESOLUTION	384
CLK_DEF	384
COMPATIBLE_CODE	MA2

BPM	0	0	202.000
MET	0	0	4	4

NMTAP	2	0	2
NMTAP	2	0	4
NMTAP	2	144	2
NMTAP	2	144	4
NMHLD	2	288	2	384
NMHLD	2	288	4	432
NMTAP	4	0	3
NMTAP	4	0	5
NMTAP	4	144	3
NMTAP	4	144	5
NMHLD	4	288	3	384
NMHLD	4	288	5	432
NMTAP	6	0	0
NMTAP	6	0	6
NMTAP	6	144	0
NMTAP	6	144	6
NMHLD	6	288	0	432
NMHLD	6	288	6	384
NMTAP	8	0	1
NMTAP	8	0	7
NMTAP	8	144	1
NMTAP	8	144	7
NMSTR	8	288	0
BRSSL	8	288	0	96	192	4
NMTAP	8	288	7
BRTAP	9	288	3
BRTAP	9	288	5
NMTAP	10	0	3
NMTAP	10	0	4
NMTAP	10	96	2
NMTAP	10	144	2
NMTAP	10	144	4
NMTAP	10	240	5
NMTAP	10	288	3
NMTAP	10	288	5
NMTAP	11	0	2
NMTAP	11	48	2
NMTAP	11	48	4
NMTAP	11	144	6
NMTAP	11	192	4
NMTAP	11	192	6
NMTAP	11	288	1
NMTAP	11	288	5
NMTAP	12	0	2
NMTAP	12	0	7
NMTAP	12	96	6
NMTAP	12	144	6
NMTAP	12	144	7
NMTAP	12	240	1
NMTAP	12	288	0
NMTAP	12	288	1
NMTAP	13	0	0
NMTAP	13	0	7
NMTAP	13	48	0
NMTAP	13	48	7
BRSTR	13	144	0
NMSI_	13	144	0	96	48	4
BRSTR	13	144	6
NMSI_	13	144	6	96	48	3
NMTAP	14	0	3
NMTAP	14	0	4
NMTAP	14	96	5
NMTAP	14	144	3
NMTAP	14	144	5
NMTAP	14	240	2
NMTAP	14	288	2
NMTAP	14	288	4
NMTAP	15	0	5
NMTAP	15	48	3
NMTAP	15	48	5
NMTAP	15	144	1
NMTAP	15	192	1
NMTAP	15	192	3
NMTAP	15	288	0
NMTAP	15	288	1
NMTAP	16	0	7
NMTAP	16	48	6
NMTAP	16	96	5
NMTAP	16	144	4
NMTAP	16	192	3
NMTAP	16	240	2
NMTAP	16	288	1
NMSTR	16	336	0
BRSF_	16	336	0	96	144	4
BRTAP	17	288	2
BRTAP	17	288	6
NMTAP	18	0	7
NMTAP	18	48	7
NMTAP	18	96	0
NMTAP	18	96	7
NMHLD	18	192	1	72
NMHLD	18	264	3	72
NMTAP	18	336	2
NMTAP	19	48	3
NMTAP	19	48	4
NMTAP	19	96	3
NMTAP	19	96	4
NMHLD	19	192	6	72
NMHLD	19	264	4	72
NMTAP	19	336	5
NMTAP	20	48	3
NMTAP	20	48	4
NMTAP	20	96	3
NMTAP	20	96	4
NMHLD	20	192	1	72
NMHLD	20	264	3	72
NMTAP	20	336	2
NMTAP	21	48	3
NMTAP	21	48	4
NMTAP	21	96	3
NMTAP	21	96	4
EXHLD	21	192	5	72
EXTAP	21	264	7
EXTAP	21	336	6
EXTAP	21	336	7
EXTAP	22	0	6
EXTAP	22	0	7
NMTAP	22	96	0
NMTAP	22	96	1
NMTAP	22	144	0
NMTAP	22	144	1
NMTAP	22	240	2
NMTAP	22	240	3
NMTAP	22	336	4
NMTAP	22	336	5
NMSTR	23	0	4
NMSUL	23	0	4	96	192	3
NMHLD	23	0	5	288
NMTAP	24	0	0
NMTAP	24	0	1
NMTAP	24	96	6
NMTAP	24	96	7
NMTAP	24	144	6
NMTAP	24	144	7
NMTAP	24	240	4
NMTAP	24	240	5
NMTAP	24	336	2
NMTAP	24	336	3
NMHLD	25	0	2	288
NMSTR	25	0	3
NMSUR	25	0	3	96	192	4
NMTAP	26	0	5
NMTAP	26	48	5
NMTAP	26	96	3
NMTAP	26	96	5
NMHLD	26	192	6	72
NMHLD	26	264	4	72
NMTAP	26	336	5
NMTAP	27	48	3
NMTAP	27	48	4
NMTAP	27	96	3
NMTAP	27	96	4
NMHLD	27	192	1	72
NMHLD	27	264	3	72
NMTAP	27	336	2
NMTAP	28	48	3
NMTAP	28	48	4
NMTAP	28	96	3
NMTAP	28	96	4
NMHLD	28	192	6	72
NMHLD	28	264	4	72
NMTAP	28	336	5
NMTAP	29	48	3
NMTAP	29	48	4
NMTAP	29	96	3
NMTAP	29	96	4
NMHLD	29	192	2	72
NMTAP	29	264	0
NMTAP	29	336	0
NMTAP	29	336	1
NMTAP	30	0	0
NMTAP	30	0	1
NMTAP	30	96	7
NMTAP	30	144	7
NMTAP	30	192	0
NMTAP	30	240	0
NMTAP	30	288	6
NMTAP	30	336	6
NMTAP	31	0	2
NMTAP	31	48	2
NMTAP	31	96	3
NMTAP	31	144	3
NMTAP	31	192	4
NMTAP	31	240	4
NMTAP	31	288	5
NMTAP	31	336	5
NMTAP	32	0	6
NMTAP	32	0	7
NMTAP	32	96	0
NMTAP	32	96	1
NMTAP	32	144	0
NMTAP	32	144	1
NMTAP	32	240	3
NMTAP	32	240	4
NMTAP	32	336	6
NMTAP	32	336	7
NMTAP	33	0	6
NMTAP	33	0	7
NMTAP	33	48	0
NMTAP	33	96	1
NMTAP	33	144	2
NMTAP	33	192	3
NMTAP	33	240	4
NMTAP	33	288	5
NMTAP	33	336	6
NMHLD	34	0	0	576
NMSTR	34	0	7
NMSXL	34	0	7	96	480	3
NMHLD	36	0	6	480
NMSTR	36	0	7
NMSI_	36	0	7	96	168	4
CNSCL	36	264	4	0	72	3
CNSI_	36	336	3	0	144	0
BRTAP	37	192	7
BRTAP	37	240	7
NMHLD	38	0	2	480
NMSTR	38	0	6
NMSXL	38	0	6	96	240	7
CNSI_	38	336	7	0	144	4
BRTAP	39	192	0
NMSTR	40	0	3
NMSI_	40	0	3	96	168	7
NMHLD	40	0	6	480
CNSI_	40	264	7	0	120	5
BRTAP	41	192	0
BRTAP	41	192	7
BRTAP	41	240	0
BRTAP	41	240	7
NMHLD	42	0	1	72
NMHLD	42	72	2	72
NMTAP	42	144	3
NMHLD	42	192	4	72
NMHLD	42	264	5	72
NMTAP	42	336	6
NMHLD	43	0	7	72
NMHLD	43	72	0	72
NMTAP	43	144	1
NMSTR	43	192	1
NMSI_	43	192	1	96	48	4
NMSI_	43	192	1	96	48	5
NMHLD	44	0	6	72
NMHLD	44	72	5	72
NMTAP	44	144	4
NMHLD	44	192	3	72
NMHLD	44	264	2	72
NMTAP	44	336	1
NMHLD	45	0	0	72
NMHLD	45	72	7	72
NMTAP	45	144	6
NMSTR	45	192	6
NMSI_	45	192	6	96	48	1
NMSI_	45	192	6	96	48	3
NMHLD	46	0	2	72
NMHLD	46	72	3	72
NMTAP	46	144	1
NMHLD	46	192	7	72
NMHLD	46	264	0	72
NMTAP	46	336	6
NMHLD	47	0	4	72
NMHLD	47	72	5	72
NMTAP	47	144	3
NMSTR	47	192	3
NMSI_	47	192	3	96	48	1
NMSI_	47	192	3	96	48	6
NMTAP	48	0	0
NMTAP	48	24	7
NMTAP	48	48	0
NMTAP	48	72	7
NMTAP	48	96	0
NMTAP	48	120	7
NMTAP	48	144	0
NMTAP	48	168	7
NMTAP	48	192	0
NMTAP	48	216	7
NMTAP	48	240	0
NMTAP	48	264	7
NMTAP	48	288	0
EXTAP	48	336	1
EXTAP	48	336	6
NMTAP	49	48	2
NMTAP	49	48	5
NMTAP	49	96	2
NMTAP	49	96	5
NMTAP	49	144	3
NMTAP	49	144	4
BRSTR	49	192	3
BRSI_	49	192	3	96	48	0
BRSTR	49	192	4
BRSI_	49	192	4	96	48	7
EXHLD	50	0	1	2688
EXTAP	50	0	6
NMTTP	51	0	1	E	0	M1
NMTTP	52	0	2	E	0	M1
NMTTP	53	0	3	E	0	M1
NMTTP	54	0	4	E	0	M1
NMTTP	55	0	5	E	0	M1
NMTTP	56	0	6	E	0	M1
NMSTR	57	0	7
NMSF_	57	0	7	96	192	3
BXHLD	58	0	3	768
BXTAP	58	0	4
NMTTP	58	96	5	B	0	M1
NMTTP	58	192	6	B	0	M1
NMTTP	58	288	7	B	0	M1
NMTTP	59	0	0	A	0	M1
NMTTP	59	96	7	A	0	M1
NMTTP	59	192	6	A	0	M1
NMTTP	59	288	5	A	0	M1
BXHLD	60	0	4	672
NMTTP	60	96	2	B	0	M1
NMTTP	60	192	1	B	0	M1
NMTTP	60	288	0	B	0	M1
NMTTP	61	0	7	A	0	M1
NMTTP	61	96	0	A	0	M1
NMTTP	61	192	1	A	0	M1
NMTTP	61	288	2	A	0	M1
NMTAP	62	0	3
NMTAP	62	48	3
NMTAP	62	96	5
NMTAP	62	144	5
NMTAP	62	192	2
NMTAP	62	240	2
NMTAP	62	288	4
NMTAP	62	336	4
NMTAP	63	0	1
NMTAP	63	48	1
NMTAP	63	96	7
NMTAP	63	144	7
NMTAP	63	192	0
NMTAP	63	240	0
NMTAP	63	288	6
NMTAP	63	336	6
NMTAP	64	0	0
NMTAP	64	24	7
NMTAP	64	48	0
NMTAP	64	72	7
NMTAP	64	96	0
NMTAP	64	120	7
NMTAP	64	144	0
NMTAP	64	168	7
NMTAP	64	192	1
NMTAP	64	216	6
NMTAP	64	240	1
NMTAP	64	264	6
NMTAP	64	288	1
NMTAP	64	312	6
NMTAP	64	336	1
NMTAP	64	360	6
NMHLD	65	0	0	96
BRTAP	65	96	7
BRTAP	65	192	2
BRTAP	65	192	3
BRTAP	65	288	4
BRTAP	65	288	5
BRTAP	66	0	0
BRTAP	66	0	7
NMTAP	66	96	1
NMTAP	66	144	1
NMTAP	66	192	0
NMHLD	66	192	2	72
NMHLD	66	264	3	72
NMTAP	66	336	4
NMSTR	67	0	4
NMSI_	67	0	4	96	48	0
NMTAP	67	0	5
NMTAP	67	96	7
NMTAP	67	192	2
NMSTR	67	192	3
NMSI_	67	192	3	96	48	7
NMTAP	67	288	0
NMTAP	68	0	0
NMTAP	68	0	6
NMTAP	68	96	6
NMTAP	68	144	6
NMHLD	68	192	5	72
NMTAP	68	192	7
NMHLD	68	264	4	72
NMTAP	68	336	3
NMTAP	69	0	2
NMSTR	69	0	3
NMSI_	69	0	3	96	48	7
NMTAP	69	96	0
NMSTR	69	192	4
NMSI_	69	192	4	96	48	0
NMTAP	69	192	5
NMTAP	69	288	7
NMTAP	70	0	1
NMTAP	70	0	7
NMTAP	70	96	2
NMTAP	70	144	4
NMSTR	70	192	1
NMSI_	70	192	1	96	48	4
NMSTR	70	192	5
NMSI_	70	192	5	96	48	0
NMSTR	71	0	2
NMSI_	71	0	2	96	48	7
NMSTR	71	0	6
NMSI_	71	0	6	96	48	3
NMSTR	71	192	1
NMSI_	71	192	1	96	48	4
NMSTR	71	192	5
NMSI_	71	192	5	96	48	0
NMTAP	72	0	3
NMTAP	72	0	7
NMTAP	72	96	4
NMTAP	72	96	5
NMTAP	72	192	0
NMTAP	72	192	4
NMTAP	72	288	2
NMTAP	72	288	3
BRTAP	73	0	2
BRTAP	73	0	5
BRTAP	73	72	1
BRTAP	73	72	6
BRTAP	73	144	0
BRTAP	73	144	7
BRSTR	73	192	0
NMSI_	73	192	0	96	48	3
BRSTR	73	192	7
NMSI_	73	192	7	96	48	4
NMTAP	74	0	2
NMTAP	74	0	5
NMTAP	74	96	2
NMTAP	74	144	2
NMHLD	74	192	1	72
NMTAP	74	192	3
NMHLD	74	264	0	72
NMTAP	74	336	7
NMSTR	75	0	6
NMSI_	75	0	6	96	48	3
NMSTR	75	0	7
NMSI_	75	0	7	96	48	3
NMSTR	75	192	0
NMSI_	75	192	0	96	48	4
NMSTR	75	192	1
NMSI_	75	192	1	96	48	4
NMTAP	76	0	3
NMTAP	76	0	5
NMTAP	76	96	5
NMTAP	76	144	5
NMTAP	76	192	4
NMHLD	76	192	6	72
NMHLD	76	264	7	72
NMTAP	76	336	0
NMSTR	77	0	0
NMSI_	77	0	0	96	48	3
NMSTR	77	0	1
NMSI_	77	0	1	96	48	3
NMSTR	77	192	6
NMSI_	77	192	6	96	48	4
NMSTR	77	192	7
NMSI_	77	192	7	96	48	4
EXTAP	78	0	2
EXTAP	78	32	3
EXTAP	78	64	2
EXTAP	78	96	3
EXTAP	78	192	5
EXTAP	78	224	4
EXTAP	78	256	5
EXTAP	78	288	4
EXTAP	79	0	1
EXTAP	79	32	0
EXTAP	79	64	1
EXTAP	79	96	0
NMSTR	79	192	0
NMSI_	79	192	0	96	48	3
NMSTR	79	192	6
NMSI_	79	192	6	96	48	3
NMTAP	80	0	2
NMTAP	80	24	5
NMTAP	80	48	2
NMTAP	80	72	5
NMTAP	80	96	2
NMTAP	80	120	5
NMTAP	80	144	2
NMTAP	80	168	5
NMTAP	80	192	3
NMTAP	80	216	4
NMTAP	80	240	3
NMTAP	80	264	4
NMTAP	80	288	3
BRTAP	81	0	2
BRTAP	81	0	5
BRTAP	81	72	1
BRTAP	81	72	6
BRTAP	81	144	0
BRTAP	81	144	7
BRSTR	81	192	0
NMSI_	81	192	0	96	48	4
BRSTR	81	192	7
NMSI_	81	192	7	96	48	3
NMTAP	82	0	2
NMTAP	82	0	5
NMTAP	82	96	1
NMTAP	82	144	2
NMTAP	82	144	3
NMTAP	82	240	6
NMTAP	82	288	4
NMTAP	82	288	5
NMTAP	83	0	1
NMTAP	83	48	2
NMTAP	83	48	3
NMTAP	83	144	6
NMTAP	83	192	4
NMTAP	83	192	5
NMTAP	83	288	3
NMTAP	83	288	4
NMTTP	84	0	0	B	0	M1
NMTTP	84	48	1	B	0	M1
NMTTP	84	96	2	B	0	M1
NMTTP	84	144	3	B	0	M1
NMTTP	84	192	7	B	0	M1
NMTTP	84	240	6	B	0	M1
NMTTP	84	288	5	B	0	M1
NMTTP	84	336	4	B	0	M1
NMTTP	85	0	3	E	0	M1
NMTTP	85	48	2	E	0	M1
NMTTP	85	96	1	E	0	M1
NMTTP	85	144	0	E	0	M1
NMTTP	85	192	7	E	0	M1
NMTTP	85	240	6	E	0	M1
NMTTP	85	288	5	E	0	M1
EXTAP	86	0	0
EXTAP	86	0	7
NMTAP	86	96	1
NMTAP	86	144	2
NMTAP	86	144	3
NMTAP	86	240	6
NMTAP	86	288	4
NMTAP	86	288	5
NMTAP	87	0	1
NMTAP	87	48	2
NMTAP	87	48	3
NMTAP	87	144	6
NMTAP	87	192	4
NMTAP	87	192	5
NMTAP	87	288	2
NMTAP	87	288	3
NMTTP	88	0	0	A	0	M1
NMTTP	88	48	1	A	0	M1
NMTTP	88	96	2	A	0	M1
NMTTP	88	144	3	A	0	M1
NMTTP	88	192	4	A	0	M1
NMTTP	88	240	5	A	0	M1
NMTTP	88	288	6	A	0	M1
NMTTP	88	336	7	A	0	M1
NMHLD	89	0	0	96
BRTAP	89	96	7
BRTAP	89	192	2
BRTAP	89	192	3
BRTAP	89	288	4
BRTAP	89	288	5
NMSTR	90	0	7
NMSI_	90	0	7	96	48	3
NMTAP	90	48	7
NMSTR	90	96	2
NMSI_	90	96	2	96	48	7
NMTAP	90	144	2
NMTAP	90	192	6
NMTAP	90	240	6
NMTAP	90	288	0
NMTAP	90	288	5
NMSTR	91	0	1
NMSI_	91	0	1	96	48	4
NMTAP	91	48	1
NMSTR	91	96	5
NMSI_	91	96	5	96	48	0
NMTAP	91	144	5
NMTAP	91	192	1
NMTAP	91	240	1
NMTAP	91	288	2
NMTAP	91	288	7
NMSTR	92	0	6
NMSI_	92	0	6	96	48	4
NMTAP	92	48	6
NMSTR	92	96	1
NMSI_	92	96	1	96	48	3
NMTAP	92	144	1
NMTAP	92	192	6
NMTAP	92	240	6
NMTAP	92	288	4
NMTAP	92	288	5
EXTAP	93	0	2
EXTAP	93	32	2
EXTAP	93	64	2
EXTAP	93	96	1
EXTAP	93	96	3
EXTAP	93	192	5
EXTAP	93	224	5
EXTAP	93	256	5
EXTAP	93	288	4
EXTAP	93	288	6
NMSTR	94	0	1
NMSI_	94	0	1	96	48	5
NMTAP	94	48	1
NMSTR	94	96	6
NMSI_	94	96	6	96	48	2
NMTAP	94	144	6
NMSTR	94	192	0
NMSI_	94	192	0	96	48	4
NMTAP	94	240	0
NMSTR	94	288	7
NMSI_	94	288	7	96	48	3
NMTAP	94	336	7
NMSTR	95	0	2
NMSI_	95	0	2	96	48	6
NMTAP	95	48	2
NMSTR	95	96	5
NMSI_	95	96	5	96	48	1
NMTAP	95	144	5
NMSTR	95	192	3
NMSI_	95	192	3	96	48	0
NMTAP	95	240	3
NMTAP	95	288	7
NMTAP	95	336	7
NMTAP	96	0	1
NMTAP	96	24	6
NMTAP	96	48	1
NMTAP	96	72	6
NMTAP	96	96	1
NMTAP	96	120	6
NMTAP	96	144	1
NMTAP	96	168	6
NMTAP	96	192	0
NMTAP	96	216	7
NMTAP	96	240	0
NMTAP	96	264	7
NMTAP	96	288	0
NMTAP	96	312	7
NMTAP	96	336	0
NMTAP	96	360	7
NMTAP	97	0	0
NMTAP	97	24	1
NMTAP	97	48	2
NMTAP	97	72	3
NMTAP	97	96	4
NMTAP	97	120	5
NMTAP	97	144	6
NMTAP	97	168	7
NMTAP	97	192	0
NMTAP	97	216	1
NMTAP	97	240	2
NMTAP	97	264	3
NMTAP	97	288	4
NMTAP	97	312	5
NMTAP	97	336	6
NMTAP	97	360	7
BRTAP	98	0	0
NMTAP	98	144	1
NMTAP	98	144	7
NMHLD	98	288	1	384
NMHLD	98	288	7	432
NMTAP	100	0	0
NMTAP	100	0	6
NMTAP	100	144	0
NMTAP	100	144	6
NMHLD	100	288	0	384
NMHLD	100	288	6	432
NMTAP	102	0	3
NMTAP	102	0	5
NMTAP	102	144	3
NMTAP	102	144	5
NMHLD	102	288	3	432
NMHLD	102	288	5	384
NMTAP	104	0	2
NMTAP	104	0	4
NMTAP	104	144	2
NMTAP	104	144	4
BRTAP	104	288	2
BRTAP	104	288	4

T_REC_TAP	380
T_REC_BRK	38
T_REC_XTP	32
T_REC_BXX	1
T_REC_HLD	59
T_REC_XHO	2
T_REC_BHO	0
T_REC_BXH	2
T_REC_STR	45
T_REC_BST	8
T_REC_XST	0
T_REC_XBS	0
T_REC_TTP	43
T_REC_THO	0
T_REC_SLD	52
T_REC_BSL	4
T_REC_ALL	666
T_NUM_TAP	500
T_NUM_BRK	53
T_NUM_HLD	61
T_NUM_SLD	52
T_NUM_ALL	666
T_JUDGE_TAP	547
T_JUDGE_HLD	326
T_JUDGE_SLD	56
T_JUDGE_ALL	929
TTM_EACHPAIRS	145
TTM_SCR_TAP	250000
TTM_SCR_BRK	137800
TTM_SCR_HLD	61000
TTM_SCR_SLD	78000
TTM_SCR_ALL	526800
TTM_SCR_S	505900
TTM_SCR_SS	521500
TTM_RAT_ACV	10101

