VERSION	0.00.00	1.04.00
FES_MODE	0
BPM_DEF	124.000	124.000	124.000	124.000
MET_DEF	4	4
RESOLUTION	384
CLK_DEF	384
COMPATIBLE_CODE	MA2

BPM	0	0	124.000
MET	0	0	4	4

NMSTR	1	0	2
NMSCR	1	0	2	96	192	5
NMSTR	2	0	5
NMSCL	2	0	5	96	192	2
NMSTR	3	0	2
NMSV_	3	0	2	96	192	5
EXTAP	4	0	5
EXTAP	4	72	4
NMHLD	4	144	3	144
NMSTR	5	0	2
NMSCR	5	0	2	96	192	5
NMSTR	6	0	5
NMSCL	6	0	5	96	192	2
NMSTR	7	0	3
BRSXL	7	0	3	96	480	6
NMSXR	7	0	3	96	480	0
NMHLD	9	0	3	96
NMSTR	9	0	5
NMSCL	9	0	5	96	192	2
NMHLD	10	0	3	96
NMSTR	10	0	5
NMSUR	10	0	5	96	192	2
NMHLD	11	0	3	96
NMSTR	11	0	5
NMSXR	11	0	5	96	192	6
NMTTP	12	0	5	E	0	M1
NMTTP	12	72	4	E	0	M1
NMTTP	12	144	3	E	0	M1
NMSTR	13	0	2
NMSCR	13	0	2	96	192	5
NMHLD	13	0	4	96
NMSTR	14	0	2
NMSUL	14	0	2	96	192	5
NMHLD	14	0	4	96
NMSTR	15	0	2
NMSXL	15	0	2	96	192	1
NMHLD	15	0	4	96
NMTTP	16	0	3	E	0	M1
NMTTP	16	72	4	E	0	M1
NMTTP	16	144	5	E	0	M1
NMHLD	17	0	3	96
EXSTR	17	0	4
NMSCR	17	0	4	96	192	7
NMHLD	17	144	3	144
NMSTR	18	0	3
NMSUR	18	0	3	96	192	0
NMHLD	18	0	5	96
NMHLD	18	144	5	144
NMSTR	19	0	2
NMSCL	19	0	2	96	192	7
NMTAP	19	0	4
NMTAP	19	96	5
BXHLD	19	192	6	96
NMTTP	20	0	6	E	0	M1
NMTTP	20	72	2	E	0	M1
NMTTP	20	144	0	C	0	M1
NMHLD	21	0	3	96
NMSTR	21	0	5
NMSCR	21	0	5	96	192	1
NMHLD	21	144	3	144
NMSTR	22	0	2
NMSUR	22	0	2	96	192	0
NMHLD	22	0	4	96
NMHLD	22	144	4	144
NMSTR	23	0	1
BRSV_	23	0	1	96	192	4
NMSTR	23	0	6
NMSV_	23	0	6	96	192	3
NMTTP	24	0	1	B	0	M1
NMTTP	24	0	2	B	0	M1
NMTTP	24	0	2	E	0	M1
NMTTP	24	72	5	B	0	M1
NMTTP	24	72	6	B	0	M1
NMTTP	24	72	6	E	0	M1
NMTTP	24	144	0	C	0	M1
NMTAP	25	0	3
NMSTR	25	0	5
NMSLL	25	0	5	96	576	7
NMTTP	25	192	5	B	0	M1
NMTTP	25	192	6	B	0	M1
NMTTP	26	192	1	B	0	M1
NMTTP	26	192	2	B	0	M1
NMSTR	27	0	2
NMSLR	27	0	2	96	576	0
NMTAP	27	0	4
NMTTP	27	192	1	B	0	M1
NMTTP	27	192	2	B	0	M1
NMTTP	28	192	5	B	0	M1
NMTTP	28	192	6	B	0	M1
NMTAP	29	0	2
NMSTR	29	0	4
NMSXL	29	0	4	96	576	2
NMTTP	29	192	5	B	0	M1
NMTTP	29	192	6	E	0	M1
NMTTP	30	192	0	B	0	M1
NMTTP	30	192	1	B	0	M1
NMTAP	31	0	3
NMSTR	31	96	3
NMSXL	31	96	3	96	384	3
NMSXR	31	96	3	96	384	3
NMTAP	31	192	3
NMSTR	32	288	0
NMSI_	32	288	0	96	48	3
NMSTR	32	288	4
NMSI_	32	288	4	96	48	7
BXTAP	33	0	0
BXTAP	33	0	4
NMTAP	33	144	3
NMSTR	33	192	2
NMSI_	33	192	2	96	48	0
NMSTR	33	288	2
NMSI_	33	288	2	96	48	4
NMTAP	33	288	5
NMTAP	34	0	2
NMSTR	34	0	5
NMSCR	34	0	5	96	96	0
NMSTR	34	96	0
BRSCR	34	96	0	96	96	3
NMSTR	34	192	3
NMSCR	34	192	3	96	96	6
NMTAP	34	288	1
NMSTR	35	0	0
BRSI_	35	0	0	96	48	3
NMSTR	35	96	0
NMSI_	35	96	0	96	48	5
NMTAP	35	96	6
NMSTR	35	192	0
BRSCR	35	192	0	96	48	3
NMTAP	35	192	2
BRSTR	35	288	0
NMSV_	35	288	0	96	48	5
BRSV_	35	288	0	96	48	3
BRTAP	35	288	6
CNSI_	36	48	3	0	48	1
CNSI_	36	48	5	0	48	7
NMTAP	36	192	1
NMTAP	36	192	7
NMSTR	36	288	2
BRSI_	36	288	2	96	48	7
NMSTR	36	288	6
BRSI_	36	288	6	96	48	3
BRTAP	37	0	2
BRTAP	37	0	6
NMTAP	37	144	5
NMSTR	37	192	5
NMSI_	37	192	5	96	48	3
NMTAP	37	288	1
NMSTR	37	288	5
BRSI_	37	288	5	96	48	7
NMSTR	38	0	1
NMSCR	38	0	1	96	96	4
NMTAP	38	0	5
NMSTR	38	96	4
BRSCR	38	96	4	96	96	7
NMSTR	38	192	7
NMSCR	38	192	7	96	96	3
NMTAP	38	288	5
NMSTR	39	0	7
BRSI_	39	0	7	96	48	4
NMTAP	39	96	1
NMSTR	39	96	7
NMSI_	39	96	7	96	48	2
NMTAP	39	192	5
NMSTR	39	192	7
BRSCL	39	192	7	96	48	4
BRTAP	39	288	1
BRSTR	39	288	7
NMSSR	39	288	7	96	96	3
NMTAP	40	192	2
NMTAP	40	192	4
NMSTR	40	288	1
NMSI_	40	288	1	96	48	3
NMSTR	40	288	5
NMSI_	40	288	5	96	48	7
NMTAP	41	0	1
NMTAP	41	0	5
NMSTR	41	96	2
BRSI_	41	96	2	96	48	0
NMSTR	41	96	6
BRSI_	41	96	6	96	48	4
NMTAP	41	192	2
NMTAP	41	192	6
NMTAP	41	288	1
NMTAP	41	288	7
NMSTR	42	0	0
NMSV_	42	0	0	96	48	3
NMSTR	42	0	6
BRSV_	42	0	6	96	48	3
NMTAP	42	96	0
NMTAP	42	96	6
NMTAP	42	192	2
NMTAP	42	192	4
NMSTR	42	288	3
NMSI_	42	288	3	96	48	7
NMTAP	42	288	4
NMTAP	43	0	3
NMTAP	43	0	6
NMTAP	43	96	3
NMSTR	43	96	4
BRSI_	43	96	4	96	48	0
NMTAP	43	192	1
NMTAP	43	192	4
NMSTR	43	288	2
NMSCL	43	288	2	96	96	6
NMTAP	43	288	3
NMSTR	44	0	6
BRSCR	44	0	6	96	96	2
NMTAP	44	96	4
NMTAP	44	192	6
NMSTR	44	288	5
NMSI_	44	288	5	96	96	2
NMSTR	45	0	2
BRSI_	45	0	2	96	96	7
NMSTR	45	96	7
NMSI_	45	96	7	96	96	4
NMSTR	45	192	4
BRSI_	45	192	4	96	96	1
NMSTR	45	288	1
NMSCL	45	288	1	96	192	5
NMTAP	46	0	3
NMTAP	46	96	2
NMTAP	46	192	1
EXSTR	46	288	0
NMSXL	46	288	0	96	288	4
EXSTR	46	288	4
BRSXL	46	288	4	96	288	0
NMTAP	48	0	6
NMSTR	48	96	5
NMSUL	48	96	5	96	96	1
NMSTR	49	0	0
NMSCR	49	0	0	96	192	3
NMSTR	50	0	7
NMSV_	50	0	7	96	192	4
NMSTR	51	0	1
NMSCR	51	0	1	96	192	5
NMSTR	52	0	6
NMSCL	52	0	6	96	192	2
NMSTR	53	0	2
NMSXR	53	0	2	96	576	5
NMSTR	55	0	6
NMSXR	55	0	6	96	576	1
NMSTR	57	0	1
NMSLR	57	0	1	96	192	6
NMSTR	58	0	5
NMSLR	58	0	5	96	192	2
NMSTR	59	0	3
NMSI_	59	0	3	96	48	0
NMSTR	59	192	7
NMSXR	59	192	7	96	96	7
NMTAP	60	0	0
NMSTR	60	288	2
BRSI_	60	288	2	96	48	5
NMSTR	60	288	6
BRSI_	60	288	6	96	48	1
BRTAP	61	0	2
BRTAP	61	0	6
NMTAP	61	144	0
NMSTR	61	192	7
NMSI_	61	192	7	96	48	5
NMTAP	61	288	3
NMSTR	61	288	7
BRSI_	61	288	7	96	48	1
NMSTR	62	0	2
NMSCR	62	0	2	96	96	5
NMTAP	62	0	7
NMSTR	62	96	5
BRSCR	62	96	5	96	96	0
NMSTR	62	192	0
NMSCR	62	192	0	96	96	3
NMTAP	62	288	5
NMSTR	63	0	7
BRSI_	63	0	7	96	48	2
NMTAP	63	96	1
NMSTR	63	96	7
NMSI_	63	96	7	96	48	4
NMTAP	63	192	5
NMSTR	63	192	7
BRSCR	63	192	7	96	48	2
BRTAP	63	288	1
BRSTR	63	288	7
NMSV_	63	288	7	96	48	4
BRSV_	63	288	7	96	48	2
CNSI_	64	48	2	0	48	0
CNSI_	64	48	4	0	48	6
NMTAP	64	192	1
NMTAP	64	192	5
NMSTR	64	288	2
BRSI_	64	288	2	96	48	7
NMSTR	64	288	6
BRSI_	64	288	6	96	48	3
BRTAP	65	0	2
BRTAP	65	0	6
NMTAP	65	144	3
NMSTR	65	192	3
NMSI_	65	192	3	96	48	5
NMTAP	65	288	2
NMSTR	65	288	3
BRSI_	65	288	3	96	48	1
NMTAP	66	0	3
EXSTR	66	0	4
NMSCR	66	0	4	96	96	7
NMSTR	66	96	7
BRSUR	66	96	7	96	96	4
NMSTR	66	192	4
NMSCR	66	192	4	96	96	7
NMTAP	66	288	7
NMSTR	67	0	0
BRSI_	67	0	0	96	48	5
NMSTR	67	96	0
NMSI_	67	96	0	96	48	3
NMTAP	67	96	6
NMSTR	67	192	0
BRSCL	67	192	0	96	48	5
NMTAP	67	192	2
BRSTR	67	288	0
BRSSR	67	288	0	96	96	4
BRTAP	67	288	6
NMTAP	68	192	2
NMTAP	68	192	4
NMSTR	68	288	4
NMSI_	68	288	4	96	48	6
NMTAP	68	288	6
NMTAP	69	0	3
NMTAP	69	0	4
NMTAP	69	96	2
NMSTR	69	96	4
BRSI_	69	96	4	96	48	2
NMTAP	69	192	4
NMTAP	69	192	5
NMSTR	69	288	3
NMSI_	69	288	3	96	48	5
NMTAP	69	288	5
NMTAP	70	0	2
NMTAP	70	0	3
NMTAP	70	96	1
NMSTR	70	96	3
BRSI_	70	96	3	96	48	1
NMTAP	70	192	3
NMTAP	70	192	4
NMSTR	70	288	3
NMSI_	70	288	3	96	48	5
NMTAP	70	288	5
NMTAP	71	0	2
NMSTR	71	0	3
BRSI_	71	0	3	96	48	1
NMSTR	71	96	3
NMSI_	71	96	3	96	48	6
NMTAP	71	96	4
NMTAP	71	192	2
NMSTR	71	192	3
BRSI_	71	192	3	96	48	7
BRSTR	71	288	3
NMSLL	71	288	3	96	96	4
BRSTR	71	288	5
NMSLR	71	288	5	96	96	4
NMTAP	72	192	3
NMTAP	72	192	5
NMTAP	72	288	6
NMSTR	72	288	7
NMSI_	72	288	7	96	48	2
NMTAP	73	0	1
NMSTR	73	0	7
BRSI_	73	0	7	96	48	4
NMTAP	73	96	5
NMSTR	73	96	7
NMSV_	73	96	7	96	48	2
NMTAP	73	192	1
NMSTR	73	192	7
BRSV_	73	192	7	96	48	4
NMTAP	73	288	5
NMSTR	73	288	7
NMSCR	73	288	7	96	96	3
NMSTR	74	0	3
NMSCR	74	0	3	96	96	7
NMTAP	74	96	7
NMSTR	74	192	0
NMSLR	74	192	0	96	96	4
NMSTR	74	288	4
BRSF_	74	288	4	96	336	0
NMSTR	76	96	5
NMSCL	76	96	5	96	96	2

T_REC_TAP	87
T_REC_BRK	10
T_REC_XTP	2
T_REC_BXX	2
T_REC_HLD	15
T_REC_XHO	0
T_REC_BHO	0
T_REC_BXH	1
T_REC_STR	104
T_REC_BST	6
T_REC_XST	4
T_REC_XBS	0
T_REC_TTP	28
T_REC_THO	0
T_REC_SLD	77
T_REC_BSL	41
T_REC_ALL	377
T_NUM_TAP	225
T_NUM_BRK	60
T_NUM_HLD	15
T_NUM_SLD	77
T_NUM_ALL	377
T_JUDGE_TAP	243
T_JUDGE_HLD	37
T_JUDGE_SLD	118
T_JUDGE_ALL	398
TTM_EACHPAIRS	80
TTM_SCR_TAP	112500
TTM_SCR_BRK	156000
TTM_SCR_HLD	15000
TTM_SCR_SLD	115500
TTM_SCR_ALL	399000
TTM_SCR_S	381250
TTM_SCR_SS	393000
TTM_RAT_ACV	10152

