VERSION	0.00.00	1.04.00
FES_MODE	0
BPM_DEF	124.000	124.000	124.000	124.000
MET_DEF	4	4
RESOLUTION	384
CLK_DEF	384
COMPATIBLE_CODE	MA2

BPM	0	0	124.000
MET	0	0	4	4

NMHLD	1	0	5	336
NMTAP	1	336	3
NMHLD	2	0	3	336
NMTAP	2	336	4
NMHLD	3	0	4	384
NMHLD	4	0	2	192
NMTAP	4	192	3
NMHLD	5	0	1	336
NMTAP	5	336	3
NMHLD	6	0	3	384
NMHLD	7	0	2	384
NMSTR	8	0	4
NMSSL	8	0	4	96	192	0
NMSTR	9	0	2
NMSCR	9	0	2	96	96	4
NMTAP	9	336	6
NMSTR	10	0	6
NMSCL	10	0	6	96	96	4
NMTAP	10	336	2
NMSTR	11	0	2
NMSCL	11	0	2	96	192	6
NMTAP	12	288	4
NMSTR	13	0	5
NMSCR	13	0	5	96	96	7
NMTAP	13	336	1
NMSTR	14	0	1
NMSCL	14	0	1	96	96	7
NMTAP	14	336	6
NMSTR	15	0	6
NMSCL	15	0	6	96	192	2
NMHLD	16	0	1	192
NMTAP	16	192	3
NMSTR	17	0	1
NMSI_	17	0	1	96	96	3
NMTAP	17	336	5
NMSTR	18	0	5
NMSI_	18	0	5	96	96	3
NMTAP	18	336	1
NMSTR	19	0	1
NMSLR	19	0	1	96	192	5
NMTAP	20	288	5
NMSTR	21	0	6
NMSI_	21	0	6	96	96	0
NMTAP	21	336	2
NMSTR	22	0	2
NMSI_	22	0	2	96	96	0
NMTAP	22	336	5
NMSTR	23	0	5
NMSI_	23	0	5	96	192	1
NMSV_	23	0	5	96	192	0
NMHLD	25	0	0	1344
NMTTP	25	192	0	C	0	M1
NMTTP	26	0	3	D	0	M1
NMTTP	26	192	1	A	0	M1
NMTTP	27	0	0	D	0	M1
NMTTP	27	192	6	A	0	M1
NMTTP	28	0	5	D	0	M1
NMTTP	28	192	3	A	0	M1
NMHLD	29	0	4	1152
NMTTP	29	192	0	C	0	M1
NMTTP	30	0	7	D	0	M1
NMTTP	30	192	5	A	0	M1
NMTTP	31	0	4	D	0	M1
NMTTP	31	192	2	A	0	M1
NMTTP	32	0	1	D	0	M1
NMTTP	32	192	0	D	0	M1
EXTAP	32	336	1
EXTAP	32	336	5
BXSTR	33	0	1
NMSCR	33	0	1	96	96	3
BXSTR	33	0	5
NMSCR	33	0	5	96	96	7
CNSI_	33	192	3	0	48	0
CNSI_	33	192	7	0	48	4
NMTAP	34	0	1
NMTAP	34	0	4
NMTAP	34	96	2
NMTAP	34	96	3
NMTAP	34	192	3
NMTAP	34	192	6
NMTAP	34	288	4
NMTAP	34	288	5
NMTAP	35	0	2
NMTAP	35	0	6
NMTAP	35	96	1
NMTAP	35	96	5
NMTAP	35	192	0
NMTAP	35	192	4
NMSTR	35	288	3
NMSUR	35	288	3	96	96	7
NMSTR	35	288	7
NMSUR	35	288	7	96	96	3
EXTAP	36	336	2
EXTAP	36	336	6
BXSTR	37	0	2
NMSCR	37	0	2	96	72	4
BXSTR	37	0	6
NMSCR	37	0	6	96	72	0
CNSI_	37	168	0	0	72	5
CNSI_	37	168	4	0	72	1
NMTAP	38	0	1
NMTAP	38	0	4
NMTAP	38	96	2
NMTAP	38	96	3
NMTAP	38	192	3
NMTAP	38	192	6
NMTAP	38	288	4
NMTAP	38	288	5
EXSTR	39	0	4
NMSV_	39	0	4	96	96	3
EXSTR	39	0	6
NMSV_	39	0	6	96	96	7
NMTAP	40	0	1
NMTAP	40	0	3
NMTAP	40	96	2
NMTAP	40	96	3
NMTAP	40	192	3
NMTAP	40	192	4
NMTAP	40	288	4
NMTAP	40	288	5
NMTAP	41	0	6
NMTAP	41	0	7
NMTAP	41	96	0
NMTAP	41	96	7
NMTAP	41	192	0
NMTAP	41	192	1
NMTAP	41	288	2
NMTAP	41	288	7
NMTAP	42	0	0
NMTAP	42	0	1
NMTAP	42	96	0
NMTAP	42	96	7
NMTAP	42	192	6
NMTAP	42	192	7
NMTAP	42	288	0
NMTAP	42	288	5
NMTAP	43	0	6
NMTAP	43	0	7
NMTAP	43	96	0
NMTAP	43	96	1
NMTAP	43	192	2
NMTAP	43	192	3
NMTAP	43	288	4
NMTAP	43	288	5
NMHLD	44	0	3	96
NMHLD	44	0	6	96
NMTAP	44	288	1
NMTAP	44	288	4
NMTAP	45	0	2
NMTAP	45	0	4
NMTAP	45	96	3
NMTAP	45	96	5
NMTAP	45	192	4
NMTAP	45	192	6
NMTAP	45	288	3
NMTAP	45	288	5
NMHLD	46	0	1	96
NMHLD	46	0	3	96
NMHLD	46	192	3	96
NMHLD	46	192	5	96
NMSTR	47	0	2
NMSCL	47	0	2	96	96	7
NMSTR	47	0	4
NMSCR	47	0	4	96	96	7
NMSTR	48	0	1
NMSUR	48	0	1	96	96	5
NMHLD	49	0	6	288
NMTAP	49	96	4
NMTAP	49	192	4
NMTAP	49	288	3
NMHLD	50	0	1	288
NMTAP	50	96	3
NMTAP	50	192	3
NMTAP	50	288	4
NMHLD	51	0	6	576
NMTAP	51	96	4
NMTAP	51	192	4
NMTAP	51	288	3
NMTAP	52	0	3
NMTAP	52	96	4
NMTAP	52	192	4
NMSTR	53	0	2
NMSCR	53	0	2	96	576	1
NMSTR	55	0	6
NMSLL	55	0	6	96	288	2
CNSCL	56	0	2	0	288	7
NMSTR	57	0	1
NMSLR	57	0	1	96	288	5
CNSCR	58	0	5	0	288	0
NMTTP	59	0	0	E	0	M1
NMTTP	59	192	0	C	0	M1
NMTTP	60	0	4	E	0	M1
NMTAP	60	192	3
NMTAP	60	192	4
EXTAP	60	336	2
EXTAP	60	336	6
BXSTR	61	0	2
NMSCL	61	0	2	96	96	0
BXSTR	61	0	6
NMSCL	61	0	6	96	96	4
CNSI_	61	192	0	0	48	3
CNSI_	61	192	4	0	48	7
NMTAP	62	0	3
NMTAP	62	0	6
NMTAP	62	96	4
NMTAP	62	96	5
NMTAP	62	192	1
NMTAP	62	192	4
NMTAP	62	288	2
NMTAP	62	288	3
NMTAP	63	0	1
NMTAP	63	0	5
NMTAP	63	96	2
NMTAP	63	96	6
NMTAP	63	192	3
NMTAP	63	192	7
NMSTR	63	288	0
NMSUL	63	288	0	96	96	4
NMSTR	63	288	4
NMSUL	63	288	4	96	96	0
EXTAP	64	336	1
EXTAP	64	336	5
BXSTR	65	0	1
NMSCL	65	0	1	96	96	7
BXSTR	65	0	5
NMSCL	65	0	5	96	96	3
CNSI_	65	192	3	0	48	6
CNSI_	65	192	7	0	48	2
NMTAP	66	0	3
NMTAP	66	0	6
NMTAP	66	96	4
NMTAP	66	96	5
NMTAP	66	192	1
NMTAP	66	192	4
NMTAP	66	288	2
NMTAP	66	288	3
EXSTR	67	0	1
NMSV_	67	0	1	96	96	0
EXSTR	67	0	3
NMSV_	67	0	3	96	96	4
NMTAP	68	0	1
NMTAP	68	0	3
NMTAP	68	96	3
NMTAP	68	96	4
NMTAP	68	192	4
NMTAP	68	192	6
NMTAP	68	288	4
NMTAP	68	288	5
NMTAP	69	0	3
NMTAP	69	0	6
NMTAP	69	96	5
NMTAP	69	144	4
NMTAP	69	192	3
NMTAP	69	288	1
NMTAP	69	336	2
NMTAP	70	0	3
NMTAP	70	96	4
NMTAP	70	144	5
NMTAP	70	192	6
NMTAP	70	288	0
NMTAP	70	288	7
NMTAP	71	0	1
NMTAP	71	96	2
NMTAP	71	96	3
NMSTR	71	192	4
NMSXL	71	192	4	96	192	7
NMSXR	71	192	4	96	192	1
NMTAP	72	288	0
NMTAP	73	0	1
NMHLD	73	0	5	96
NMTAP	73	96	4
NMHLD	73	192	2	96
NMTAP	73	192	6
NMTAP	73	288	3
NMTAP	74	0	1
NMTAP	74	0	4
NMTAP	74	96	2
NMTAP	74	96	3
NMTAP	74	144	2
NMTAP	74	144	3
NMTAP	74	240	1
NMTAP	74	240	5
NMTAP	74	336	0
NMTAP	74	336	7
NMTAP	75	0	0
NMTAP	75	0	7
BRHLD	75	144	2	144
BRHLD	75	144	5	144
NMTTP	76	0	3	A	0	M1
NMTTP	76	0	4	A	0	M1
NMTTP	76	0	4	D	0	M1

T_REC_TAP	156
T_REC_BRK	0
T_REC_XTP	8
T_REC_BXX	0
T_REC_HLD	21
T_REC_XHO	0
T_REC_BHO	2
T_REC_BXH	0
T_REC_STR	24
T_REC_BST	0
T_REC_XST	4
T_REC_XBS	8
T_REC_TTP	20
T_REC_THO	0
T_REC_SLD	38
T_REC_BSL	0
T_REC_ALL	281
T_NUM_TAP	212
T_NUM_BRK	10
T_NUM_HLD	21
T_NUM_SLD	38
T_NUM_ALL	281
T_JUDGE_TAP	220
T_JUDGE_HLD	151
T_JUDGE_SLD	38
T_JUDGE_ALL	409
TTM_EACHPAIRS	76
TTM_SCR_TAP	106000
TTM_SCR_BRK	26000
TTM_SCR_HLD	21000
TTM_SCR_SLD	57000
TTM_SCR_ALL	210000
TTM_SCR_S	202750
TTM_SCR_SS	209000
TTM_RAT_ACV	10047

