VERSION	0.00.00	1.04.00
FES_MODE	0
BPM_DEF	213.000	213.000	213.000	213.000
MET_DEF	4	4
RESOLUTION	384
CLK_DEF	384
COMPATIBLE_CODE	MA2

BPM	0	0	213.000
MET	0	0	4	4

NMTHO	2	240	0	144	C	0	M1
NMTTP	3	0	4	D	0	M1
NMTTP	3	192	5	E	0	M1
NMTTP	4	0	6	D	0	M1
NMTTP	4	192	7	E	0	M1
NMTTP	5	0	0	D	0	M1
NMTTP	5	192	1	E	0	M1
NMTTP	6	0	2	D	0	M1
NMTTP	6	192	3	E	0	M1
NMHLD	6	288	4	96
EXTAP	7	0	3
NMTTP	7	192	4	E	0	M1
NMTTP	8	0	2	E	0	M1
NMTTP	8	192	0	E	0	M1
NMTTP	9	0	6	E	0	M1
NMTTP	9	192	4	E	0	M1
EXHLD	10	0	3	96
NMTAP	10	96	4
NMTAP	10	192	2
NMTAP	10	240	4
NMTAP	10	288	3
NMTAP	10	336	5
NMTAP	11	0	4
NMTAP	11	48	4
NMHLD	11	96	6	48
NMTAP	11	192	3
NMTAP	11	240	3
NMHLD	11	288	5	48
NMTAP	12	0	2
NMTAP	12	48	2
NMHLD	12	96	4	48
NMSTR	12	192	1
NMSI_	12	192	1	96	48	7
NMTAP	12	288	3
NMTTP	13	0	5	B	0	M1
NMTTP	13	0	5	E	0	M1
NMTTP	13	0	6	B	0	M1
NMTTP	13	0	7	E	1	M1
NMTTP	13	192	0	C	0	M1
NMTTP	13	192	0	A	0	M1
NMTTP	13	192	0	D	0	M1
NMTTP	13	192	1	B	0	M1
NMTTP	13	192	1	A	0	M1
NMTTP	13	192	1	D	0	M1
NMTTP	13	192	2	B	1	M1
NMTTP	13	192	2	A	0	M1
NMTTP	14	0	4	B	0	M1
NMTTP	14	0	4	A	0	M1
NMTTP	14	0	5	B	0	M1
NMTTP	14	0	5	D	0	M1
NMTTP	14	0	6	B	0	M1
NMTTP	14	0	6	E	1	M1
NMTTP	14	0	7	B	0	M1
NMTTP	14	0	7	A	0	M1
NMTTP	14	0	7	D	0	M1
NMSTR	14	192	3
BRSF_	14	192	3	96	48	7
BRHLD	15	0	1	96
BRHLD	15	0	5	96
NMTAP	15	192	2
NMTAP	15	192	4
NMTAP	15	288	3
NMTAP	15	336	3
NMTAP	16	48	5
NMTAP	16	96	5
NMSTR	16	192	4
NMSI_	16	192	4	96	48	0
NMSTR	16	192	6
NMSI_	16	192	6	96	48	4
NMHLD	17	0	1	96
NMHLD	17	0	3	96
NMTAP	17	192	4
NMTAP	17	192	6
NMTAP	17	288	5
NMTAP	17	336	5
NMTAP	18	0	0
NMTAP	18	16	1
NMTAP	18	32	2
NMTAP	18	48	3
NMTAP	18	64	4
NMTAP	18	80	5
NMTAP	18	96	6
NMTAP	18	112	7
NMTAP	18	128	0
NMTAP	18	144	1
NMTAP	18	160	2
NMTAP	18	176	3
EXSTR	18	192	4
NMSI_	18	192	4	96	48	0
EXTAP	18	240	4
BRHLD	19	0	2	384
BRHLD	19	0	6	384
NMTAP	20	96	3
NMTAP	20	96	5
NMTAP	20	144	4
NMSTR	20	192	2
NMSI_	20	192	2	96	48	4
NMSTR	20	192	6
NMSI_	20	192	6	96	48	0
NMTAP	21	0	2
NMTAP	21	48	3
NMTAP	21	96	1
NMTAP	21	96	4
NMTAP	21	144	2
NMTAP	21	192	3
NMTAP	21	240	2
NMTAP	21	288	1
NMTAP	21	288	4
NMTAP	21	336	3
NMTAP	22	0	2
NMTAP	22	48	3
NMTAP	22	96	1
NMTAP	22	96	4
NMTAP	22	144	2
NMTAP	22	192	3
NMTAP	22	240	2
NMTAP	22	288	1
NMTAP	22	288	4
NMTAP	22	336	1
NMTAP	22	336	4
NMTAP	23	0	5
NMTAP	23	48	4
NMTAP	23	96	3
NMTAP	23	96	6
NMTAP	23	144	5
NMTAP	23	192	4
NMTAP	23	240	5
NMTAP	23	288	3
NMTAP	23	288	6
NMTAP	23	336	4
NMTAP	24	0	5
NMTAP	24	48	4
NMTAP	24	96	3
NMTAP	24	96	6
NMTAP	24	144	5
NMTAP	24	192	3
NMTAP	24	192	4
NMTAP	24	240	3
NMTAP	24	240	4
NMTAP	24	288	3
NMTAP	24	288	4
NMTAP	24	336	3
NMTAP	24	336	4
NMSTR	25	0	2
NMSI_	25	0	2	96	48	7
NMTAP	25	48	2
NMTAP	25	96	5
NMTAP	25	144	5
NMSTR	25	192	6
NMSI_	25	192	6	96	48	3
NMTAP	25	240	6
NMTAP	25	288	0
NMTAP	25	336	0
NMSTR	26	0	1
NMSI_	26	0	1	96	48	5
NMTAP	26	48	1
NMSTR	26	96	4
NMSCR	26	96	4	96	96	2
NMTAP	26	144	4
NMHLD	26	192	3	96
NMSTR	27	0	0
NMSCL	27	0	0	96	48	5
NMSTR	27	0	6
NMSI_	27	0	6	96	48	2
NMTAP	27	192	3
NMTAP	27	240	4
NMTAP	27	288	5
NMTAP	27	336	6
BRSTR	28	0	0
NMSI_	28	0	0	96	48	6
BRSTR	28	96	1
NMSI_	28	96	1	96	48	5
BRSTR	28	192	2
NMSI_	28	192	2	96	48	4
EXTAP	29	0	1
EXTAP	29	0	5
NMTAP	29	48	5
NMTAP	29	96	1
NMTAP	29	144	6
NMTAP	29	192	1
NMTAP	29	192	6
NMTAP	29	288	1
NMTAP	29	288	7
NMTAP	29	336	7
NMTAP	30	0	1
NMTAP	30	48	5
NMTAP	30	96	1
NMTAP	30	96	5
NMSTR	30	192	1
NMSI_	30	192	1	96	48	3
NMTAP	30	192	7
NMTAP	30	288	5
NMTAP	30	336	5
NMTAP	31	0	4
NMTAP	31	0	5
NMTAP	31	96	4
NMTAP	31	96	6
NMTAP	31	144	6
NMTAP	31	192	4
NMTAP	31	240	7
NMTAP	31	288	4
NMTAP	31	288	7
NMSTR	32	0	4
NMSI_	32	0	4	96	48	0
BRTAP	32	0	6
NMTAP	32	96	4
BRTAP	32	96	5
NMTAP	32	192	6
NMTAP	32	192	7
NMTAP	32	240	5
NMTAP	32	264	4
NMTAP	32	288	5
NMTAP	32	336	3
EXTAP	33	0	2
EXTAP	33	0	6
NMTAP	33	48	2
NMTAP	33	96	6
NMTAP	33	144	1
NMTAP	33	192	1
NMTAP	33	192	6
NMTAP	33	288	0
NMTAP	33	288	6
NMTAP	33	336	0
NMTAP	34	0	6
NMTAP	34	48	2
NMTAP	34	96	2
NMTAP	34	96	6
NMTAP	34	192	0
NMSTR	34	192	6
NMSI_	34	192	6	96	48	4
NMTAP	34	288	2
NMTAP	34	336	2
NMTAP	35	0	2
NMTAP	35	0	3
NMTAP	35	96	1
NMTAP	35	96	3
NMTAP	35	144	2
EXTAP	35	192	3
EXTAP	35	192	4
EXTAP	35	240	3
EXTAP	35	240	4
BRTAP	35	288	2
BRSTR	35	288	5
NMSI_	35	288	5	96	48	3
NMSTR	36	0	1
NMSI_	36	0	1	96	48	5
EXTAP	36	0	5
EXTAP	36	96	1
NMSTR	36	96	7
NMSI_	36	96	7	96	48	1
NMSTR	36	192	3
NMSI_	36	192	3	96	48	7
EXTAP	36	192	7
EXTAP	36	288	3
EXTAP	36	288	4
EXTAP	37	0	1
EXTAP	37	0	5
NMHLD	37	48	5	48
NMTAP	37	96	1
NMTAP	37	144	6
NMTAP	37	192	1
NMHLD	37	192	6	48
NMTAP	37	288	1
NMTAP	37	288	7
NMHLD	37	336	7	48
NMTAP	38	0	1
NMTAP	38	48	6
NMTAP	38	96	1
NMHLD	38	96	6	48
NMSTR	38	192	1
NMSI_	38	192	1	96	48	3
NMHLD	38	192	4	48
NMTAP	38	288	4
NMTAP	38	336	5
NMTAP	39	0	4
NMHLD	39	0	5	48
NMTAP	39	96	4
NMTAP	39	96	6
NMHLD	39	144	6	48
NMTAP	39	192	4
NMTAP	39	240	7
NMTAP	39	288	4
NMHLD	39	288	7	48
NMSTR	40	0	4
NMSI_	40	0	4	96	48	0
NMSTR	40	0	6
NMSI_	40	0	6	96	48	4
NMTAP	40	96	4
NMTAP	40	96	6
NMTAP	40	192	1
NMTAP	40	192	3
NMTAP	40	240	2
NMTAP	40	264	3
NMTAP	40	288	1
NMTAP	40	336	1
EXTAP	41	0	0
EXTAP	41	0	7
BRHLD	41	48	0	48
BRHLD	41	48	7	48
NMTAP	41	144	2
NMTAP	41	144	5
NMSTR	41	192	1
NMSI_	41	192	1	96	48	5
NMSTR	41	240	6
NMSI_	41	240	6	96	48	2
NMTAP	41	288	1
NMTAP	41	336	6
NMSTR	42	0	0
NMSLR	42	0	0	96	96	4
NMSTR	42	96	4
NMSLR	42	96	4	96	96	0
NMSTR	42	192	0
NMSI_	42	192	0	96	48	4
NMTAP	42	288	4
BRTAP	43	0	3
BRTAP	43	0	5
NMTAP	43	48	2
NMTAP	43	72	3
BRTAP	43	96	1
NMTAP	43	144	5
NMTAP	43	168	4
BRTAP	43	192	6
EXTAP	43	240	0
EXTAP	43	240	7
EXTAP	43	288	0
EXTAP	43	288	7
EXTAP	43	336	0
EXTAP	43	336	7
NMHLD	44	0	1	144
NMHLD	44	0	6	144
NMSTR	44	192	3
NMSI_	44	192	3	96	48	0
NMSTR	44	192	7
NMSI_	44	192	7	96	48	4
BRTAP	44	288	3
BRTAP	44	288	7
NMSTR	45	0	1
NMSI_	45	0	1	96	48	3
NMTAP	45	48	4
NMTAP	45	96	1
NMSTR	45	144	7
NMSI_	45	144	7	96	48	5
NMTAP	45	192	4
NMTAP	45	240	7
NMSTR	45	288	0
NMSI_	45	288	0	96	48	4
NMTAP	45	336	4
NMTAP	46	0	0
NMTAP	46	48	6
NMTAP	46	96	6
NMTAP	46	144	3
NMSTR	46	192	1
NMSI_	46	192	1	96	48	6
NMSTR	46	192	5
NMSI_	46	192	5	96	48	2
NMTAP	46	288	1
NMTAP	46	288	5
NMSTR	47	0	0
NMSCR	47	0	0	96	48	3
NMTAP	47	48	3
NMTAP	47	96	0
NMSTR	47	144	7
NMSCL	47	144	7	96	48	4
NMTAP	47	192	4
NMTAP	47	240	7
NMTAP	47	288	2
NMTAP	47	336	2
NMSTR	48	0	1
NMSI_	48	0	1	96	48	3
NMSTR	48	0	3
NMSI_	48	0	3	96	48	7
NMTAP	48	96	1
NMTAP	48	96	3
EXTAP	48	192	4
EXTAP	48	192	6
EXTAP	48	240	3
EXTAP	48	240	4
EXTAP	48	288	1
EXTAP	48	288	3
NMTAP	49	0	0
NMSTR	49	0	7
NMSCL	49	0	7	96	48	4
NMHLD	49	48	0	48
NMTAP	49	48	7
NMSTR	49	192	2
NMSCL	49	192	2	96	48	7
NMTAP	49	192	3
NMTAP	49	240	2
NMHLD	49	240	3	48
NMSTR	50	0	5
NMSCL	50	0	5	96	48	2
NMTAP	50	0	6
NMTAP	50	48	5
NMHLD	50	48	6	48
NMSTR	50	192	0
NMSCL	50	192	0	96	48	5
NMTAP	50	192	1
NMTAP	50	240	0
NMHLD	50	240	1	48
BRTAP	51	0	3
BRTAP	51	0	4
NMTAP	51	48	2
NMTAP	51	72	3
BRTAP	51	96	1
NMTAP	51	144	5
NMTAP	51	168	4
BRTAP	51	192	6
NMTAP	51	240	0
NMTAP	51	240	7
NMTAP	51	288	1
NMTAP	51	288	6
NMTAP	51	336	2
NMTAP	51	336	5
BRTAP	52	0	3
BRTAP	52	0	4
NMTAP	52	96	0
NMTAP	52	96	7
NMTAP	52	108	1
NMTAP	52	120	2
NMTAP	52	132	3
NMTAP	52	144	4
NMTAP	52	156	5
NMTAP	52	168	6
NMTAP	52	180	7
EXSTR	52	192	0
NMSF_	52	192	0	96	32	4
NMTTP	52	288	0	C	1	M1
BRSTR	53	0	2
NMSXL	53	0	2	96	576	1
BRSTR	53	0	6
NMSXL	53	0	6	96	576	5
BRHLD	55	0	0	96
NMTAP	55	0	6
NMTAP	55	96	4
BRHLD	55	192	1	96
NMTAP	55	192	5
NMTAP	55	288	3
BRHLD	56	0	2	96
NMTAP	56	0	4
NMTAP	56	16	5
NMTAP	56	32	6
NMTAP	56	48	7
NMTAP	56	64	0
NMTAP	56	80	1
NMTAP	56	112	3
NMTAP	56	128	4
NMTAP	56	144	5
NMTAP	56	160	6
NMTAP	56	176	7
NMSTR	56	192	0
BRSF_	56	192	0	96	48	4
NMHLD	57	0	2	96
NMHLD	57	0	6	96
NMTAP	57	192	4
NMTAP	57	240	5
NMTAP	57	288	5
NMTAP	57	336	4
NMTAP	58	0	3
NMTAP	58	48	3
NMTAP	58	96	4
NMTAP	58	144	5
NMSTR	58	192	5
NMSCR	58	192	5	96	48	0
NMTAP	58	288	4
NMTAP	58	288	5
NMHLD	59	0	1	96
NMHLD	59	0	3	96
NMTAP	59	192	3
NMTAP	59	240	2
NMTAP	59	288	2
NMTAP	59	336	3
NMTAP	60	0	4
NMTAP	60	48	4
NMTAP	60	96	3
NMTAP	60	144	2
NMSTR	60	192	2
NMSCL	60	192	2	96	48	7
NMTAP	60	288	2
NMTAP	60	288	3
NMHLD	61	0	4	48
NMTAP	61	0	6
NMTAP	61	48	6
EXTAP	61	96	7
NMTAP	61	192	4
NMHLD	61	192	5	48
NMTAP	61	240	4
EXTAP	61	288	0
NMHLD	62	0	2	48
NMTAP	62	0	3
NMTAP	62	48	3
EXTAP	62	96	7
NMTAP	62	192	1
NMHLD	62	192	3	48
NMTAP	62	240	1
EXTAP	62	288	0
NMSTR	63	0	6
NMSI_	63	0	6	96	48	3
NMTAP	63	48	7
NMTAP	63	96	6
NMTAP	63	144	2
NMSTR	63	192	4
NMSI_	63	192	4	96	48	7
NMTAP	63	240	3
NMTAP	63	288	4
NMTAP	63	336	0
NMHLD	64	0	6	72
NMHLD	64	72	4	72
NMTAP	64	144	3
NMSTR	64	192	3
NMSI_	64	192	3	96	48	7
NMTAP	64	288	0
EXTAP	65	0	2
EXHLD	65	48	2	576
NMTAP	65	144	3
NMTAP	65	240	1
NMTAP	65	336	4
NMTAP	66	48	3
NMTAP	66	144	5
NMTAP	66	240	3
NMTAP	66	288	1
NMTAP	66	288	4
EXTAP	67	0	5
EXHLD	67	48	5	576
NMTAP	67	144	4
NMTAP	67	240	6
NMTAP	67	336	3
NMTAP	68	48	4
NMTAP	68	144	2
NMTAP	68	240	4
NMTAP	68	288	3
NMTAP	68	288	6
NMSTR	69	0	1
NMSI_	69	0	1	96	48	4
NMTAP	69	48	0
NMTAP	69	96	1
NMTAP	69	144	5
NMSTR	69	192	3
NMSI_	69	192	3	96	48	0
NMTAP	69	240	4
NMTAP	69	288	3
NMTAP	69	336	7
NMHLD	70	0	1	72
NMHLD	70	72	3	72
NMTAP	70	144	4
NMSTR	70	192	4
NMSI_	70	192	4	96	48	0
NMTAP	70	288	7
NMSTR	71	0	1
NMSCR	71	0	1	96	48	3
NMSTR	71	0	5
NMSCR	71	0	5	96	48	7
NMHLD	71	192	0	192
NMHLD	71	192	4	192
NMSTR	72	48	3
BRSXL	72	48	3	96	144	3
BRSXR	72	48	3	96	144	3
NMTAP	72	48	7
EXHLD	73	0	2	96
EXHLD	73	0	4	96
NMHLD	73	144	2	96
NMHLD	73	144	4	96
NMHLD	73	288	2	96
NMHLD	73	288	4	96
NMTAP	74	48	3
NMTAP	74	96	3
NMTAP	74	192	3
NMTAP	74	288	3
NMHLD	75	0	3	96
NMHLD	75	144	2	96
NMHLD	75	144	4	96
NMSTR	75	288	1
NMSXR	75	288	1	96	288	2
NMSTR	75	288	5
NMSXR	75	288	5	96	288	6
EXHLD	77	0	3	96
EXHLD	77	0	5	96
NMHLD	77	144	3	96
NMHLD	77	144	5	96
NMHLD	77	288	3	96
NMHLD	77	288	5	96
NMTAP	78	48	4
NMTAP	78	96	4
NMTAP	78	192	4
NMTAP	78	288	4
NMHLD	79	0	4	96
NMHLD	79	144	3	96
NMHLD	79	144	5	96
NMSTR	79	288	2
NMSCR	79	288	2	96	144	5
NMSTR	79	288	6
NMSCR	79	288	6	96	144	1
NMSTR	80	192	3
NMSI_	80	192	3	96	48	0
NMSTR	80	192	7
NMSI_	80	192	7	96	48	4
EXTAP	80	288	3
EXTAP	80	288	7
NMTAP	81	0	1
NMTAP	81	0	5
NMTAP	81	96	3
NMTAP	81	288	3
NMHLD	82	0	5	96
NMHLD	82	96	3	96
NMHLD	82	192	1	96
NMTAP	82	288	3
NMHLD	83	0	2	96
NMHLD	83	0	4	96
NMHLD	83	144	1	96
NMHLD	83	144	5	96
NMTAP	83	288	0
NMTAP	83	288	6
NMSTR	84	0	7
NMSCL	84	0	7	96	96	4
NMSTR	84	96	4
NMSCL	84	96	4	96	96	1
NMSTR	84	192	1
NMSCL	84	192	1	96	96	6
NMTAP	84	288	6
EXHLD	85	0	3	384
NMTAP	85	96	4
NMTAP	85	288	4
NMHLD	86	0	6	96
NMHLD	86	96	4	96
NMHLD	86	192	2	96
NMTAP	86	288	4
NMHLD	87	0	3	96
NMHLD	87	0	5	96
NMHLD	87	144	2	96
NMHLD	87	144	4	96
NMSTR	87	288	3
NMSI_	87	288	3	96	48	5
NMSTR	87	288	4
NMSI_	87	288	4	96	48	2
CNSI_	88	48	2	0	96	6
CNSI_	88	48	5	0	96	1
CNSI_	88	144	1	0	48	7
CNSI_	88	144	6	0	48	0
BRTAP	88	288	1
BRTAP	88	288	6
NMTAP	89	0	3
NMTAP	89	0	4
NMTAP	89	96	1
NMTAP	89	96	3
NMTAP	89	192	4
NMTAP	89	192	6
NMTAP	89	288	0
NMTAP	89	288	1
NMTAP	89	336	0
NMTAP	89	336	1
NMTAP	90	0	2
NMTAP	90	0	7
NMTAP	90	96	4
NMTAP	90	96	5
NMTAP	90	192	2
NMTAP	90	192	3
NMTAP	90	240	2
NMTAP	90	240	3
NMTAP	90	288	5
NMTAP	90	312	4
NMTAP	90	336	5
NMTAP	91	0	6
NMTAP	91	0	7
NMTAP	91	48	6
NMTAP	91	48	7
NMTAP	91	96	0
NMTAP	91	96	5
NMTAP	91	192	2
NMTAP	91	192	3
NMTAP	91	288	0
NMTAP	91	288	7
NMTAP	91	336	0
NMTAP	91	336	7
NMSTR	92	0	1
NMSI_	92	0	1	96	48	3
NMSTR	92	0	6
NMSI_	92	0	6	96	48	4
NMTAP	92	96	1
NMTAP	92	96	6
NMTAP	92	192	0
NMTAP	92	192	7
NMTAP	92	240	1
NMTAP	92	240	6
NMTAP	92	288	2
NMTAP	92	288	5
NMTAP	92	336	3
NMTAP	92	336	4
NMTAP	93	0	2
NMTAP	93	0	5
NMTAP	93	48	2
NMTAP	93	48	5
NMHLD	93	96	0	48
NMHLD	93	96	7	48
NMHLD	93	192	1	48
NMTAP	93	192	3
NMHLD	93	288	2	48
NMTAP	93	288	4
NMTAP	93	336	4
NMHLD	94	0	3	48
NMTAP	94	0	5
NMHLD	94	96	4	48
NMTAP	94	96	6
NMTAP	94	192	3
NMHLD	94	192	5	48
NMTAP	94	240	3
NMTAP	94	288	4
NMHLD	94	288	6	48
NMTAP	94	336	4
NMTAP	95	0	3
NMTAP	95	0	7
NMTAP	95	48	3
NMTAP	95	48	7
NMTAP	95	96	2
NMTAP	95	96	6
NMTAP	95	144	2
NMTAP	95	144	6
NMTAP	95	192	1
NMTAP	95	192	5
NMTAP	95	240	1
NMTAP	95	240	5
NMTAP	95	288	0
NMTAP	95	288	4
NMTAP	95	336	0
NMTAP	95	336	4
NMTAP	96	0	1
NMTAP	96	24	3
NMTAP	96	48	1
NMTAP	96	72	3
NMTAP	96	96	2
NMTAP	96	120	4
NMTAP	96	144	2
NMTAP	96	168	4
NMTAP	96	192	3
NMTAP	96	216	5
NMTAP	96	240	3
NMTAP	96	264	5
NMSTR	96	288	4
NMSUL	96	288	4	96	144	3
NMTAP	96	312	6
NMTAP	96	336	4
NMTAP	96	360	6
NMTTP	97	192	0	D	0	M1
NMTTP	97	240	7	E	0	M1
NMTTP	97	288	0	C	0	M1
NMTTP	97	336	5	E	0	M1
NMTTP	98	0	4	D	0	M1
NMTTP	98	48	3	E	0	M1
NMTTP	98	96	0	C	0	M1
NMTTP	98	144	1	E	0	M1
NMTTP	98	192	0	D	0	M1
NMTTP	98	288	0	C	1	M1
NMTTP	98	288	2	B	0	M1
NMTTP	98	288	2	A	0	M1
NMTTP	98	288	6	B	0	M1
NMTTP	98	288	6	A	0	M1
EXSTR	99	0	1
NMSCR	99	0	1	96	48	4
EXTAP	99	0	7
NMTAP	99	96	1
NMHLD	99	144	7	48
NMTAP	99	192	5
NMHLD	99	240	6	48
NMTAP	99	288	4
NMTAP	99	336	2
NMTAP	100	0	0
NMSTR	100	0	6
NMSCL	100	0	6	96	48	3
NMTAP	100	96	6
NMHLD	100	144	0	48
NMTAP	100	192	2
NMHLD	100	240	1	48
EXTAP	100	288	3
EXTAP	100	312	4
EXTAP	100	336	5
EXTAP	100	360	6
EXTAP	101	0	0
EXTAP	101	0	7
NMSTR	101	96	2
NMSI_	101	96	2	96	48	7
NMSTR	101	96	6
NMSI_	101	96	6	96	48	3
NMTAP	101	144	3
NMTAP	101	144	7
NMTAP	101	192	2
NMTAP	101	192	6
NMTAP	101	288	1
NMTAP	101	288	5
NMTAP	101	336	1
NMTAP	101	336	5
NMSTR	102	0	0
NMSI_	102	0	0	96	48	3
NMTAP	102	48	7
NMTAP	102	96	0
NMSTR	102	144	5
NMSI_	102	144	5	96	48	0
NMTAP	102	192	4
NMTAP	102	240	5
NMTAP	102	288	3
NMTAP	102	336	2
EXTAP	103	0	0
EXSTR	103	0	1
NMSCR	103	0	1	96	48	4
NMTAP	103	96	1
NMHLD	103	144	7	48
NMTAP	103	192	5
NMHLD	103	240	6	48
NMTAP	103	288	4
NMTAP	103	336	5
EXSTR	104	0	6
NMSCL	104	0	6	96	48	3
EXTAP	104	0	7
NMTAP	104	96	6
NMHLD	104	144	0	48
NMTAP	104	192	2
NMHLD	104	240	1	48
NMTAP	104	288	3
NMTAP	104	336	2
NMTAP	104	336	4
NMTAP	105	0	5
NMSTR	105	48	5
NMSI_	105	48	5	96	48	3
NMTAP	105	96	2
NMTAP	105	144	5
NMTAP	105	192	1
NMSTR	105	240	1
NMSI_	105	240	1	96	48	5
NMTAP	105	288	3
NMTAP	105	336	1
NMTAP	106	0	7
NMTAP	106	96	0
NMTAP	106	96	7
NMTAP	106	120	1
NMTAP	106	120	6
NMTAP	106	144	2
NMTAP	106	144	5
BXTAP	106	192	2
BXTAP	106	192	5
EXTAP	106	288	0
EXTAP	106	288	7
NMSTR	107	0	1
NMSI_	107	0	1	96	48	4
NMSTR	107	0	6
NMSI_	107	0	6	96	48	3
NMTAP	107	48	0
NMTAP	107	48	7
BRTAP	107	96	1
BRTAP	107	96	6
NMTAP	107	192	2
NMTAP	107	192	5
NMTAP	107	288	0
NMTAP	107	288	7
NMTAP	107	336	6
NMTAP	108	0	3
NMTAP	108	0	5
NMTAP	108	48	2
NMTAP	108	96	0
NMSTR	108	96	1
NMSI_	108	96	1	96	48	5
NMTAP	108	192	1
NMSTR	108	192	7
NMSCL	108	192	7	96	48	4
NMTAP	108	288	2
NMTAP	108	336	2
NMHLD	109	0	1	48
NMHLD	109	0	3	48
NMTAP	109	96	4
NMTAP	109	96	6
NMTAP	109	144	6
NMTAP	109	192	3
NMTAP	109	192	5
NMTAP	109	240	2
NMTAP	109	288	2
NMTAP	109	288	6
NMTAP	109	336	7
NMSTR	110	0	0
NMSI_	110	0	0	96	48	4
NMSTR	110	0	1
NMSI_	110	0	1	96	48	3
NMTAP	110	96	0
NMTAP	110	96	1
NMTAP	110	192	6
NMTAP	110	192	7
NMTAP	110	240	5
NMTAP	110	264	4
NMTAP	110	288	5
NMTAP	110	336	3
NMSTR	111	0	1
NMSI_	111	0	1	96	48	5
NMTAP	111	48	0
NMTAP	111	48	2
NMTAP	111	96	1
NMTAP	111	192	4
NMTAP	111	192	6
NMTAP	111	288	0
NMTAP	111	288	7
NMTAP	111	336	1
NMTAP	112	0	2
NMTAP	112	0	4
NMTAP	112	48	5
NMSTR	112	96	6
NMSI_	112	96	6	96	48	2
NMTAP	112	96	7
NMSTR	112	192	0
NMSCR	112	192	0	96	48	3
NMTAP	112	192	6
NMTAP	112	288	5
NMTAP	112	336	5
NMSTR	113	0	6
NMSI_	113	0	6	96	48	4
NMSTR	113	0	7
NMSI_	113	0	7	96	48	3
NMTAP	113	192	0
NMSTR	113	192	1
NMSCR	113	192	1	96	48	4
NMTAP	113	288	7
NMTAP	113	336	7
NMHLD	114	0	5	96
NMHLD	114	0	6	96
NMHLD	114	144	1	96
NMHLD	114	144	2	96
BRSTR	114	288	3
NMSCL	114	288	3	96	480	4
BRTAP	114	288	7
NMTTP	115	0	0	C	1	M1
NMTAP	116	192	3
NMTAP	116	192	4
NMTAP	116	240	0
NMTAP	116	264	7
BRTAP	116	288	1
BRTAP	116	288	6
NMHLD	117	0	1	48
NMTAP	117	48	3
NMTAP	117	96	2
NMHLD	117	144	6	48
NMTAP	117	192	4
NMTAP	117	240	5
NMSTR	117	288	0
NMSCR	117	288	0	96	48	3
NMTAP	117	288	3
BRTAP	118	0	0
NMSTR	118	0	7
NMSCL	118	0	7	96	48	4
NMTAP	118	96	4
BRTAP	118	96	7
NMTAP	118	192	2
NMTAP	118	192	3
NMTAP	118	240	1
NMTAP	118	264	0
NMTAP	118	288	1
NMTAP	118	336	2
NMTAP	118	336	7
NMSTR	119	0	6
NMSI_	119	0	6	96	48	2
NMTAP	119	48	5
NMTAP	119	48	7
NMTAP	119	96	6
NMTAP	119	192	1
NMTAP	119	192	3
NMTAP	119	288	0
NMTAP	119	288	7
NMTAP	119	336	6
NMTAP	120	0	3
NMTAP	120	0	5
NMTAP	120	48	2
NMTAP	120	96	0
NMSTR	120	96	1
NMSI_	120	96	1	96	48	5
NMTAP	120	192	1
NMSTR	120	192	7
NMSCL	120	192	7	96	48	4
NMTAP	120	288	3
NMTAP	120	336	3
NMTAP	121	0	2
NMSTR	121	48	2
NMSI_	121	48	2	96	48	4
NMTAP	121	96	5
NMTAP	121	144	2
NMTAP	121	192	6
NMSTR	121	240	6
NMSI_	121	240	6	96	48	2
NMTAP	121	288	4
NMTAP	121	336	6
NMTAP	122	0	1
NMTAP	122	48	0
NMTAP	122	48	1
NMTAP	122	144	6
NMTAP	122	192	6
NMSTR	122	192	7
NMSI_	122	192	7	96	48	3
BRTAP	122	288	0
BRTAP	122	288	7
NMSTR	123	0	1
NMSCR	123	0	1	96	48	4
NMTAP	123	48	0
NMTAP	123	96	1
NMSTR	123	144	6
NMSCL	123	144	6	96	48	3
NMTAP	123	192	7
NMTAP	123	240	6
EXSTR	123	288	0
NMSI_	123	288	0	96	48	4
EXTAP	123	336	4
EXSTR	124	0	0
NMSI_	124	0	0	96	48	2
NMSI_	124	0	0	96	48	3
BRSTR	124	96	0
NMSI_	124	96	0	96	48	5
NMSI_	124	96	0	96	48	6
BRSTR	124	192	0
NMSI_	124	192	0	96	48	4
BRTAP	124	288	0
NMSTR	125	0	6
NMSCL	125	0	6	96	48	3
NMTAP	125	48	7
NMTAP	125	96	6
NMSTR	125	144	1
NMSCR	125	144	1	96	48	4
NMTAP	125	192	0
NMTAP	125	240	1
EXSTR	125	288	7
NMSI_	125	288	7	96	48	3
EXTAP	125	336	3
BRSTR	126	0	7
NMSCL	126	0	7	96	48	4
NMSCR	126	0	7	96	48	2
BRTAP	126	96	7
NMTAP	126	192	1
NMTAP	126	192	5
NMTAP	126	240	1
NMTAP	126	240	5
NMTAP	126	288	2
NMTAP	126	288	6
NMTAP	126	336	2
NMTAP	126	336	6
BRSTR	127	0	3
NMSI_	127	0	3	96	48	1
BRSTR	127	0	7
NMSI_	127	0	7	96	48	3
BRTAP	127	48	3
BRTAP	127	48	7
BRSTR	127	192	0
NMSI_	127	192	0	96	48	4
BRSTR	127	192	4
NMSI_	127	192	4	96	48	6
BRTAP	127	240	0
BRTAP	127	240	4
NMTAP	128	0	3
NMSTR	128	0	7
NMSI_	128	0	7	96	48	3
NMSTR	128	96	1
NMSI_	128	96	1	96	48	6
NMTAP	128	96	7
NMTAP	128	192	1
NMSTR	128	192	5
NMSI_	128	192	5	96	48	2
NMTAP	128	288	2
NMTAP	128	288	5
NMSTR	129	0	0
BRSI_	129	0	0	96	48	4
NMSTR	129	0	7
BRSI_	129	0	7	96	48	5
BRTAP	129	96	0
BRTAP	129	96	7
NMSTR	129	192	0
BRSI_	129	192	0	96	48	2
NMSTR	129	192	7
BRSI_	129	192	7	96	48	3
BRTAP	129	288	0
BRTAP	129	288	7
NMTAP	130	0	4
NMTAP	130	0	5
NMTAP	130	48	6
NMTAP	130	96	7
NMTAP	130	144	2
NMTAP	130	144	3
NMTAP	130	192	1
NMTAP	130	240	0
BRTAP	130	288	2
BRTAP	130	288	6
EXHLD	131	0	0	96
EXHLD	131	0	4	96
NMTAP	131	144	3
NMTAP	131	144	5
NMTAP	131	192	3
NMTAP	131	192	5
NMTAP	131	240	1
NMTAP	131	264	0
NMTAP	131	288	1
NMTAP	131	336	2
NMTAP	131	336	7
NMTAP	132	0	6
NMTAP	132	24	4
NMTAP	132	72	4
NMTAP	132	96	5
NMTAP	132	144	5
NMTAP	132	192	2
NMTAP	132	216	3
NMTAP	132	240	1
NMTAP	132	288	5
NMTAP	132	312	4
NMTAP	132	336	6
EXHLD	133	0	3	96
EXHLD	133	0	7	96
NMTAP	133	144	2
NMTAP	133	144	4
NMTAP	133	192	2
NMTAP	133	192	4
NMTAP	133	240	6
NMTAP	133	264	7
NMTAP	133	288	6
NMTAP	133	336	0
NMTAP	133	336	5
NMTAP	134	0	1
NMTAP	134	24	3
NMTAP	134	72	3
NMTAP	134	96	2
NMTAP	134	144	2
NMTAP	134	192	5
NMTAP	134	216	4
NMTAP	134	240	6
NMTAP	134	288	2
NMTAP	134	312	3
NMTAP	134	336	1
EXTAP	135	0	0
EXTAP	135	0	4
NMTAP	135	48	1
NMTAP	135	96	2
EXTAP	135	144	3
EXTAP	135	144	7
NMTAP	135	192	6
NMTAP	135	240	5
EXTAP	135	288	3
EXTAP	135	288	4
NMTAP	135	336	3
NMTAP	135	336	4
BRTAP	136	0	2
BRTAP	136	0	5
NMTAP	136	48	2
NMTAP	136	48	5
BRTAP	136	96	1
BRTAP	136	96	6
NMTAP	136	144	1
NMTAP	136	144	6
BRTAP	136	192	0
BRTAP	136	192	7
NMTAP	136	208	1
NMTAP	136	224	2
NMTAP	136	240	3
NMTAP	136	256	4
NMTAP	136	272	5
NMTAP	136	288	6
NMTAP	136	304	7
NMTAP	136	320	0
NMTAP	136	336	1
NMTAP	136	352	2
NMTAP	136	368	3
BXSTR	137	0	0
NMSI_	137	0	0	96	48	4
EXTAP	137	0	4
NMTAP	137	96	0
NMTAP	137	96	4
BXSTR	137	192	1
NMSI_	137	192	1	96	48	4
EXSTR	137	192	5
NMSI_	137	192	5	96	48	0
NMTAP	137	288	1
NMTAP	137	288	5
BXSTR	138	0	2
NMSCL	138	0	2	96	192	4
EXTAP	138	0	6
NMSTR	138	288	3
NMSF_	138	288	3	96	32	7
BRTAP	139	0	3

T_REC_TAP	634
T_REC_BRK	45
T_REC_XTP	60
T_REC_BXX	2
T_REC_HLD	87
T_REC_XHO	12
T_REC_BHO	9
T_REC_BXH	0
T_REC_STR	106
T_REC_BST	14
T_REC_XST	9
T_REC_XBS	3
T_REC_TTP	50
T_REC_THO	1
T_REC_SLD	128
T_REC_BSL	8
T_REC_ALL	1168
T_NUM_TAP	859
T_NUM_BRK	81
T_NUM_HLD	100
T_NUM_SLD	128
T_NUM_ALL	1168
T_JUDGE_TAP	923
T_JUDGE_HLD	222
T_JUDGE_SLD	136
T_JUDGE_ALL	1281
TTM_EACHPAIRS	262
TTM_SCR_TAP	429500
TTM_SCR_BRK	210600
TTM_SCR_HLD	100000
TTM_SCR_SLD	192000
TTM_SCR_ALL	932100
TTM_SCR_S	896300
TTM_SCR_SS	924000
TTM_RAT_ACV	10087

