VERSION	0.00.00	1.04.00
FES_MODE	0
BPM_DEF	213.000	213.000	213.000	213.000
MET_DEF	4	4
RESOLUTION	384
CLK_DEF	384
COMPATIBLE_CODE	MA2

BPM	0	0	213.000
MET	0	0	4	4

NMHLD	3	0	3	192
NMHLD	3	0	5	1536
NMTAP	4	0	3
NMTAP	4	192	3
NMHLD	5	0	4	192
NMTAP	6	0	4
NMTAP	6	192	4
EXHLD	7	0	3	384
NMTTP	7	192	2	B	0	M1
NMTTP	7	192	3	B	0	M1
NMHLD	8	0	6	384
NMTTP	8	192	4	B	0	M1
NMTTP	8	192	5	B	0	M1
NMHLD	9	0	2	384
NMTHO	9	192	0	192	C	0	M1
NMTAP	10	192	0
NMTAP	10	192	7
NMTAP	10	288	0
NMTAP	10	288	7
NMTAP	11	0	6
NMTAP	11	96	6
NMHLD	11	192	4	96
NMHLD	11	192	5	96
NMTAP	12	0	4
NMTAP	12	0	5
NMTAP	12	96	3
NMTAP	12	96	4
NMHLD	12	192	2	96
NMHLD	12	192	3	96
BRTAP	13	0	0
NMTAP	13	96	0
BRTAP	13	192	1
NMTAP	13	192	5
NMTAP	13	288	1
NMTAP	13	288	5
BRTAP	14	0	2
NMTAP	14	0	4
BXTAP	14	192	0
BXTAP	14	192	7
NMTAP	14	288	1
NMTAP	14	288	6
NMTAP	15	0	3
NMTAP	15	0	4
NMTAP	15	96	2
NMTAP	15	96	3
NMHLD	15	192	1	96
NMTAP	15	288	3
NMTAP	15	336	3
NMTAP	16	48	4
NMTAP	16	96	4
NMTAP	16	192	6
NMTAP	16	192	7
NMTAP	16	288	0
NMTAP	16	288	5
NMHLD	17	0	1	96
NMTAP	17	96	0
NMTAP	17	192	2
NMTAP	17	192	7
NMSTR	17	288	3
NMSUR	17	288	3	96	288	4
NMTAP	17	288	6
BXHLD	19	0	2	384
BXHLD	19	0	6	384
NMTAP	20	96	3
NMTAP	20	96	5
BRTAP	20	192	1
BRTAP	20	192	7
NMTAP	21	0	2
NMTAP	21	0	4
NMTAP	21	96	2
NMTAP	21	96	4
NMTAP	21	192	4
NMTAP	21	192	5
NMTAP	21	288	4
NMTAP	21	288	5
NMTAP	22	0	2
NMTAP	22	0	4
NMTAP	22	96	4
NMTAP	22	96	5
NMTAP	22	192	2
NMTAP	22	192	4
NMTAP	22	288	1
NMTAP	22	336	1
NMTAP	23	0	3
NMTAP	23	96	2
NMTAP	23	96	4
NMTAP	23	192	3
NMTAP	23	192	4
NMTAP	23	288	4
NMTAP	23	288	5
NMTAP	24	0	4
NMTAP	24	0	5
NMTAP	24	96	3
NMTAP	24	96	6
NMTAP	24	192	7
NMTAP	24	240	7
NMTAP	24	288	0
NMTAP	24	336	0
NMHLD	25	0	6	96
NMTAP	25	96	4
NMTAP	25	192	2
NMTAP	25	240	2
NMTAP	25	288	3
NMHLD	26	0	5	96
NMTAP	26	96	4
NMTAP	26	192	1
NMTAP	26	240	1
NMTAP	26	288	3
NMHLD	27	0	2	96
NMHLD	27	0	4	96
NMTAP	27	192	3
NMTAP	27	192	5
NMTAP	27	288	2
NMTAP	27	288	6
BRTAP	28	0	0
BRTAP	28	96	1
BRTAP	28	192	2
NMTAP	28	288	3
NMTAP	28	288	4
NMHLD	29	0	5	96
NMTAP	29	96	4
NMTAP	29	192	2
NMTAP	29	288	2
NMTAP	29	288	3
NMHLD	30	0	1	96
NMTAP	30	96	0
NMTAP	30	192	6
NMTAP	30	288	6
NMTAP	30	288	7
NMTAP	31	0	4
NMTAP	31	0	5
NMTAP	31	96	3
NMTAP	31	96	6
NMTAP	31	144	3
NMTAP	31	144	6
NMTAP	31	240	2
NMTAP	31	240	5
NMTAP	31	288	2
NMTAP	31	288	5
EXTAP	32	0	1
EXTAP	32	96	1
EXTAP	32	96	3
NMTAP	32	192	0
NMTAP	32	288	1
NMTAP	32	288	7
NMHLD	33	0	2	96
NMHLD	33	96	3	96
NMHLD	33	192	4	96
NMTAP	33	288	5
NMHLD	34	0	6	96
NMHLD	34	96	5	96
NMHLD	34	192	4	96
NMTAP	34	288	3
NMTAP	35	0	1
NMTAP	35	0	3
NMTAP	35	96	0
NMTAP	35	96	7
NMTAP	35	144	0
NMTAP	35	144	7
NMTAP	35	240	4
NMTAP	35	240	6
NMTAP	35	288	4
NMTAP	35	288	6
BRTAP	36	0	2
BRTAP	36	0	3
BRTAP	36	96	2
BRTAP	36	96	3
BRTAP	36	192	1
BRTAP	36	192	5
NMHLD	37	0	1	96
NMTAP	37	96	3
NMTAP	37	192	5
NMTAP	37	288	4
NMTAP	37	288	5
NMHLD	38	0	6	96
NMTAP	38	96	4
NMTAP	38	192	2
NMTAP	38	288	1
NMTAP	38	288	3
NMTAP	39	0	0
NMTAP	39	0	1
NMTAP	39	96	2
NMTAP	39	96	7
NMTAP	39	144	2
NMTAP	39	144	7
NMTAP	39	240	1
NMTAP	39	240	6
NMTAP	39	288	1
NMTAP	39	288	6
NMTAP	40	0	0
NMTAP	40	0	5
NMTAP	40	96	1
NMTAP	40	96	4
NMTAP	40	192	2
NMTAP	40	192	3
NMTAP	40	288	1
NMTAP	40	288	4
NMSTR	41	0	1
NMSI_	41	0	1	96	96	4
NMTAP	41	0	4
NMTAP	41	192	5
NMTAP	41	288	4
NMTAP	41	288	5
NMTAP	42	0	3
NMSTR	42	0	6
NMSI_	42	0	6	96	96	3
NMTAP	42	192	2
NMTAP	42	288	2
NMTAP	42	288	3
BRTAP	43	0	0
BRTAP	43	0	1
BRTAP	43	96	0
BRTAP	43	96	1
BRTAP	43	192	6
BRTAP	43	192	7
BRTAP	43	288	6
BRTAP	43	288	7
NMHLD	44	0	0	192
NMHLD	44	0	5	192
EXTAP	44	288	0
EXTAP	44	288	5
NMHLD	45	0	1	96
NMHLD	45	96	3	96
NMHLD	45	192	4	96
NMHLD	45	288	6	96
NMHLD	46	0	0	96
NMTAP	46	96	2
NMTAP	46	192	2
NMTAP	46	192	3
NMTAP	46	288	2
NMTAP	46	288	3
NMTAP	47	0	1
NMTAP	47	0	4
NMTAP	47	96	2
NMTAP	47	96	5
NMTAP	47	144	2
NMTAP	47	144	5
NMTAP	47	240	3
NMTAP	47	240	6
NMTAP	47	288	3
NMHLD	47	288	6	96
NMTAP	48	0	7
NMTAP	48	96	0
NMTAP	48	96	5
NMTAP	48	192	4
NMTAP	48	240	4
NMTAP	48	288	4
NMTAP	49	0	3
NMTAP	49	0	5
BXTAP	49	96	1
NMTAP	49	192	2
NMTAP	49	192	4
BXTAP	49	288	6
NMTAP	50	0	3
NMTAP	50	0	5
BXTAP	50	96	0
NMTAP	50	192	2
NMTAP	50	192	4
BXTAP	50	288	7
NMTAP	51	0	0
NMTAP	51	48	0
NMTAP	51	96	6
NMTAP	51	144	6
NMTAP	51	192	2
NMTAP	51	240	2
NMTAP	51	288	4
NMTAP	51	336	4
NMSTR	52	0	3
NMSI_	52	0	3	96	96	7
EXTAP	52	288	0
EXTAP	52	288	6
BXSTR	53	0	1
BRSCR	53	0	1	96	288	6
BXTAP	53	0	5
NMTAP	54	288	0
NMTAP	54	288	7
BXTAP	55	0	0
NMTAP	55	96	0
BXTAP	55	192	1
NMTAP	55	288	1
BRHLD	56	0	2	960
NMTAP	56	0	3
NMTTP	56	192	1	B	0	M1
NMTTP	56	192	2	B	0	M1
NMTTP	56	192	2	E	1	M1
NMTTP	57	0	7	E	0	M1
NMTTP	57	96	5	E	0	M1
NMTTP	57	192	7	B	0	M1
NMTTP	57	288	4	B	0	M1
NMTTP	58	0	0	B	0	M1
NMTTP	58	96	3	B	0	M1
EXHLD	58	192	6	768
NMTTP	59	0	0	B	0	M1
NMTTP	59	96	3	B	0	M1
NMTTP	59	192	7	B	0	M1
NMTTP	59	288	4	B	0	M1
NMTTP	60	0	7	E	0	M1
NMTTP	60	96	5	E	0	M1
BRTAP	60	192	0
NMTAP	60	288	1
NMHLD	61	0	2	192
NMTAP	61	0	3
EXTAP	61	96	0
NMHLD	61	192	3	192
EXTAP	61	288	0
NMHLD	62	0	4	192
EXTAP	62	96	7
NMTAP	62	192	5
EXTAP	62	288	3
EXTAP	62	288	6
NMTAP	63	0	2
NMTAP	63	48	2
NMTAP	63	96	3
NMTAP	63	192	5
NMTAP	63	240	5
NMTAP	63	288	4
EXHLD	64	0	3	96
EXHLD	64	0	5	96
EXTAP	64	144	3
EXTAP	64	144	5
EXTAP	64	192	3
EXTAP	64	192	5
NMTAP	64	288	3
NMTAP	64	288	4
EXTAP	65	0	2
EXHLD	65	48	2	480
NMTAP	65	144	4
NMTAP	65	240	3
NMTAP	65	336	1
NMTAP	66	48	3
NMTAP	66	144	4
NMTAP	66	192	4
NMTAP	66	288	3
NMTAP	66	288	4
EXTAP	67	0	5
EXHLD	67	48	5	480
NMTAP	67	144	3
NMTAP	67	240	4
NMTAP	67	336	6
NMTAP	68	48	4
NMTAP	68	144	3
NMTAP	68	192	3
NMTAP	68	288	4
NMTAP	68	288	6
NMTAP	69	0	6
NMTAP	69	48	6
NMTAP	69	96	4
NMTAP	69	144	4
NMTAP	69	192	5
NMTAP	69	240	5
NMTAP	69	288	3
NMTAP	69	336	3
NMTAP	70	0	4
NMTAP	70	48	4
NMTAP	70	96	2
NMTAP	70	144	2
NMTAP	70	192	3
NMTAP	70	288	2
NMTAP	70	288	3
NMTAP	71	0	1
NMTAP	71	0	4
NMTAP	71	96	0
NMTAP	71	96	7
NMTAP	71	192	4
NMTAP	71	192	6
NMTAP	71	288	2
NMSTR	71	288	3
BRSXL	71	288	3	96	216	3
BRSXR	71	288	3	96	216	3
EXSTR	73	0	2
NMSXL	73	0	2	96	480	7
EXTAP	73	0	4
EXTAP	75	0	0
EXSTR	75	0	6
NMSXL	75	0	6	96	480	3
EXHLD	77	0	2	288
EXHLD	77	0	3	144
NMTAP	78	96	2
NMTAP	78	96	3
NMTAP	78	192	1
NMTAP	78	192	4
NMHLD	79	0	4	144
NMHLD	79	0	5	288
NMTAP	80	96	4
NMTAP	80	96	5
NMHLD	80	192	3	192
NMTAP	80	192	6
NMSTR	81	0	5
NMSCR	81	0	5	96	192	0
NMTAP	82	0	1
NMTAP	82	96	1
NMTAP	82	192	2
NMTAP	82	288	2
NMTAP	82	288	3
NMSTR	83	0	4
NMSCR	83	0	4	96	192	7
NMTAP	84	0	1
NMTAP	84	96	1
NMTAP	84	192	2
NMTAP	84	288	2
NMTAP	84	288	3
NMSTR	85	0	4
NMSI_	85	0	4	96	192	0
NMTAP	85	288	1
NMSTR	86	0	1
NMSI_	86	0	1	96	192	5
NMTAP	86	288	6
NMTAP	87	0	7
NMTAP	87	96	7
NMTAP	87	192	6
NMSTR	87	288	5
NMSCL	87	288	5	96	192	0
NMSLL	87	288	5	96	192	0
BRTAP	88	288	7
NMTAP	89	0	0
NMTAP	89	0	6
NMTAP	89	96	1
NMTAP	89	96	5
NMTAP	89	192	2
NMTAP	89	192	3
NMTAP	89	288	1
NMTAP	89	336	1
NMTAP	90	0	0
NMTAP	90	96	0
NMTAP	90	96	1
NMTAP	90	192	0
NMTAP	90	192	7
NMTAP	90	288	6
NMTAP	90	336	6
NMTAP	91	0	7
NMTAP	91	96	0
NMTAP	91	96	5
NMTAP	91	192	1
NMTAP	91	192	6
NMTAP	91	288	2
NMTAP	91	288	7
NMTAP	91	336	2
NMTAP	91	336	7
NMHLD	92	0	2	288
NMSTR	92	0	7
NMSCL	92	0	7	96	192	3
NMTAP	93	0	2
NMTAP	93	48	2
NMTAP	93	96	4
NMTAP	93	144	4
NMTAP	93	192	3
NMTAP	93	240	3
NMTAP	93	288	5
NMTAP	93	336	5
NMTAP	94	0	1
NMTAP	94	48	1
NMTAP	94	96	7
NMTAP	94	144	7
NMTAP	94	192	0
NMTAP	94	240	0
NMTAP	94	288	6
NMTAP	94	336	6
NMTAP	95	0	0
NMTAP	95	48	0
NMTAP	95	96	7
NMTAP	95	144	7
NMTAP	95	192	0
NMTAP	95	240	0
NMTAP	95	288	7
NMTAP	95	336	7
EXTAP	96	0	0
EXTAP	96	24	7
EXTAP	96	48	0
EXTAP	96	72	7
EXTAP	96	96	0
EXTAP	96	120	7
EXTAP	96	144	0
EXTAP	96	168	7
EXTAP	96	192	0
EXTAP	96	216	7
EXTAP	96	240	0
EXTAP	96	264	7
BXSTR	96	288	0
BRSI_	96	288	0	96	48	4
NMHLD	98	0	3	144
NMHLD	98	0	4	144
NMTAP	98	192	3
NMTAP	98	192	4
BRTAP	98	288	0
EXSTR	99	0	1
NMSCR	99	0	1	96	48	4
EXTAP	99	0	7
NMTAP	99	96	5
NMHLD	99	144	5	96
NMTAP	99	240	4
NMTAP	99	336	6
NMTAP	99	336	7
NMSTR	100	0	6
NMSI_	100	0	6	96	48	2
NMTAP	100	0	7
NMTAP	100	96	1
NMHLD	100	144	1	96
NMTAP	100	240	0
NMTAP	100	336	2
NMTAP	100	336	7
NMTAP	101	0	2
NMTAP	101	0	7
NMTAP	101	96	6
NMTAP	101	144	6
NMTAP	101	192	4
NMTAP	101	240	5
NMTAP	101	288	2
NMTAP	101	336	2
NMSTR	102	0	1
NMSI_	102	0	1	96	48	4
NMTAP	102	0	3
NMTAP	102	96	5
NMSTR	102	144	5
NMSI_	102	144	5	96	48	0
NMTAP	102	240	2
NMTAP	102	288	2
EXSTR	103	0	1
NMSCR	103	0	1	96	48	4
EXTAP	103	0	7
NMTAP	103	96	6
NMHLD	103	144	6	96
NMTAP	103	240	7
NMTAP	103	336	0
NMTAP	103	336	5
NMTAP	104	0	0
EXSTR	104	0	5
NMSCR	104	0	5	96	48	0
NMTAP	104	96	2
NMHLD	104	144	2	96
NMTAP	104	240	3
NMTAP	104	288	3
NMTAP	105	0	1
NMTAP	105	48	1
NMTAP	105	96	3
NMTAP	105	144	2
NMTAP	105	192	5
NMTAP	105	240	5
NMTAP	105	288	4
NMTAP	105	336	6
NMHLD	106	0	6	96
NMTAP	106	96	7
NMTAP	106	192	0
NMTAP	106	192	1
BRTAP	106	288	2
BRTAP	106	288	7
NMTAP	107	0	6
NMHLD	107	48	6	96
NMTAP	107	144	4
NMHLD	107	192	4	96
NMTAP	107	288	2
NMHLD	107	336	2	96
NMTAP	108	48	0
NMTAP	108	96	0
NMSTR	108	192	1
NMSI_	108	192	1	96	48	6
NMTAP	108	192	7
NMSTR	108	288	5
NMSI_	108	288	5	96	48	2
NMTAP	109	0	0
NMTAP	109	96	1
NMTAP	109	96	3
NMTAP	109	144	1
NMTAP	109	144	3
NMTAP	109	240	4
NMTAP	109	240	5
NMHLD	109	288	4	96
NMTAP	109	288	5
NMHLD	110	0	3	96
NMTAP	110	96	2
NMTAP	110	192	1
NMSTR	110	192	4
NMSI_	110	192	4	96	48	0
EXTAP	110	288	1
NMTAP	111	0	2
NMHLD	111	48	2	96
NMTAP	111	144	4
NMHLD	111	192	4	96
NMTAP	111	288	6
NMHLD	111	336	6	96
NMTAP	112	48	7
NMTAP	112	96	7
NMTAP	112	192	0
NMTAP	112	192	5
NMTAP	112	288	0
NMTAP	112	288	5
NMSTR	113	0	6
NMSI_	113	0	6	96	48	2
NMHLD	113	0	7	96
NMHLD	113	192	0	96
NMSTR	113	192	1
NMSI_	113	192	1	96	48	5
EXTAP	114	0	7
EXTAP	114	96	4
EXTAP	114	96	6
EXTAP	114	144	4
EXTAP	114	144	6
BXTAP	114	240	1
BXTAP	114	240	3
BXSTR	114	288	1
BRSCR	114	288	1	96	384	6
BXTAP	114	288	3
NMTTP	115	0	0	C	1	M1
NMTAP	116	192	7
NMTAP	116	240	7
NMTAP	116	288	0
NMTAP	116	288	7
NMSTR	117	0	1
NMSI_	117	0	1	96	48	4
NMSTR	117	96	7
NMSI_	117	96	7	96	48	3
NMSTR	117	192	0
NMSI_	117	192	0	96	48	4
NMSTR	117	288	6
NMSI_	117	288	6	96	48	3
NMSTR	118	0	0
NMSI_	118	0	0	96	48	3
NMSI_	118	0	0	96	48	5
BXTAP	118	192	2
BXTAP	118	192	6
EXTAP	118	288	2
EXTAP	118	288	6
NMTAP	119	0	1
NMTAP	119	48	1
NMTAP	119	96	0
NMSTR	119	96	1
NMSI_	119	96	1	96	48	5
NMSTR	119	192	7
NMSI_	119	192	7	96	48	3
NMTAP	119	288	2
NMTAP	120	0	1
NMTAP	120	0	4
NMTAP	120	96	2
NMTAP	120	96	3
NMTAP	120	192	5
NMTAP	120	240	5
NMTAP	120	288	4
NMTAP	120	288	6
NMTAP	121	0	2
NMTAP	121	48	2
NMTAP	121	96	3
NMTAP	121	144	1
NMTAP	121	192	7
NMTAP	121	240	7
NMTAP	121	288	0
NMTAP	121	336	6
NMTAP	122	0	2
NMTAP	122	48	2
NMTAP	122	96	3
NMTAP	122	144	1
NMSTR	122	192	7
NMSI_	122	192	7	96	48	3
BRTAP	122	288	0
NMHLD	123	0	1	96
NMTAP	123	96	0
NMTAP	123	144	2
NMTAP	123	144	7
NMTAP	123	192	3
NMTAP	123	192	6
NMSTR	123	288	6
NMSI_	123	288	6	96	48	3
NMSTR	124	0	2
NMSI_	124	0	2	96	48	7
NMSTR	124	96	5
NMSI_	124	96	5	96	48	0
NMTAP	124	192	3
NMTAP	124	288	1
NMTAP	124	288	7
NMHLD	125	0	6	96
NMTAP	125	96	7
NMTAP	125	144	0
NMTAP	125	144	5
NMTAP	125	192	1
NMTAP	125	192	4
NMSTR	125	288	1
NMSI_	125	288	1	96	48	4
NMSTR	126	0	5
NMSI_	126	0	5	96	48	0
NMSTR	126	96	2
NMSI_	126	96	2	96	48	7
NMTAP	126	192	4
BXTAP	126	288	0
BXTAP	126	288	6
NMTAP	127	0	5
NMTAP	127	48	5
BRTAP	127	96	4
BRTAP	127	96	6
NMTAP	127	192	2
NMTAP	127	240	2
BRTAP	127	288	1
BRTAP	127	288	3
NMTAP	128	0	6
NMTAP	128	0	7
NMTAP	128	48	6
NMTAP	128	48	7
BRTAP	128	96	0
BRTAP	128	96	5
NMTAP	128	192	0
NMTAP	128	192	1
NMTAP	128	240	0
NMTAP	128	240	1
BRTAP	128	288	2
BRTAP	128	288	7
NMSTR	129	0	2
NMSI_	129	0	2	96	48	4
NMTAP	129	0	7
NMSTR	129	96	6
NMSI_	129	96	6	96	48	2
NMSTR	129	192	0
NMSI_	129	192	0	96	48	4
NMSTR	129	288	7
NMSCL	129	288	7	96	192	2
EXTAP	130	0	3
BRTAP	130	288	0
EXTAP	131	0	0
EXTAP	131	0	7
NMTAP	131	144	6
NMHLD	131	192	6	72
NMHLD	131	264	5	72
NMHLD	131	336	4	72
NMHLD	132	24	3	72
NMTAP	132	96	2
NMTAP	132	144	2
NMSTR	132	192	2
NMSI_	132	192	2	96	48	5
NMSI_	132	192	2	96	48	7
BXTAP	133	0	0
BXTAP	133	0	6
NMTAP	133	144	1
NMHLD	133	192	1	72
NMHLD	133	264	2	72
NMHLD	133	336	3	72
NMHLD	134	24	4	72
NMTAP	134	96	5
NMTAP	134	144	5
NMSTR	134	192	5
NMSI_	134	192	5	96	48	0
NMSI_	134	192	5	96	48	2
BXTAP	135	0	1
BXTAP	135	0	7
NMHLD	135	144	2	96
NMHLD	135	144	6	96
EXTAP	135	288	3
EXTAP	135	288	5
NMTAP	136	0	2
NMTAP	136	0	4
NMHLD	136	96	1	96
NMSTR	136	96	5
NMSLL	136	96	5	96	192	7
BRTAP	137	0	0
NMTAP	137	96	4
NMTAP	137	96	5
BRTAP	137	192	1
NMHLD	137	192	6	96
NMTAP	137	288	4
BRTAP	138	0	2
NMSTR	138	0	3
NMSCR	138	0	3	96	192	7
EXSTR	138	288	0
BRSF_	138	288	0	96	48	4

T_REC_TAP	444
T_REC_BRK	40
T_REC_XTP	47
T_REC_BXX	20
T_REC_HLD	71
T_REC_XHO	8
T_REC_BHO	1
T_REC_BXH	2
T_REC_STR	41
T_REC_BST	0
T_REC_XST	6
T_REC_XBS	3
T_REC_TTP	20
T_REC_THO	1
T_REC_SLD	49
T_REC_BSL	6
T_REC_ALL	759
T_NUM_TAP	558
T_NUM_BRK	72
T_NUM_HLD	80
T_NUM_SLD	49
T_NUM_ALL	759
T_JUDGE_TAP	621
T_JUDGE_HLD	308
T_JUDGE_SLD	55
T_JUDGE_ALL	984
TTM_EACHPAIRS	183
TTM_SCR_TAP	279000
TTM_SCR_BRK	187200
TTM_SCR_HLD	80000
TTM_SCR_SLD	73500
TTM_SCR_ALL	619700
TTM_SCR_S	594150
TTM_SCR_SS	612500
TTM_RAT_ACV	10117

