VERSION	0.00.00	1.04.00
FES_MODE	0
BPM_DEF	213.000	213.000	213.000	213.000
MET_DEF	4	4
RESOLUTION	384
CLK_DEF	384
COMPATIBLE_CODE	MA2

BPM	0	0	213.000
MET	0	0	4	4

NMTAP	3	0	2
NMTAP	4	0	3
NMTAP	5	0	4
NMTAP	6	0	5
EXTAP	7	0	6
EXTAP	7	0	7
NMTAP	8	0	4
NMTAP	8	0	5
NMTAP	9	0	2
NMTAP	9	0	3
EXTAP	10	0	0
EXTAP	10	0	1
NMTAP	11	0	2
NMTAP	11	192	2
NMTAP	12	0	3
NMTAP	12	192	3
BRTAP	13	0	4
BRTAP	13	192	4
BRTAP	14	0	4
NMHLD	15	0	5	192
NMTAP	15	192	4
NMHLD	16	0	2	192
NMTAP	16	192	3
NMHLD	17	0	5	192
NMTAP	17	192	4
NMHLD	18	0	2	192
NMTAP	18	192	3
NMSTR	19	0	1
NMSI_	19	0	1	96	192	5
NMTAP	21	0	6
NMTAP	21	96	6
NMTAP	21	192	6
NMTAP	22	0	5
NMTAP	22	96	5
NMTAP	22	192	5
NMTAP	23	0	4
NMTAP	23	96	4
NMTAP	23	192	4
NMTAP	24	0	3
NMTAP	24	96	3
NMTAP	24	192	3
NMTAP	25	0	2
NMTAP	25	96	2
NMTAP	25	192	2
NMTAP	26	0	1
NMTAP	26	96	1
NMTAP	26	192	1
NMHLD	27	0	0	192
NMHLD	27	0	7	192
BXTAP	28	0	0
BXTAP	28	96	0
BXTAP	28	192	0
NMTAP	29	0	1
NMTAP	29	96	1
NMTAP	29	192	2
NMTAP	29	288	2
NMTAP	30	0	3
NMTAP	30	96	3
NMTAP	30	192	4
NMTAP	30	192	5
NMTAP	31	0	6
NMTAP	31	96	6
NMTAP	31	192	5
NMTAP	31	288	5
NMTAP	32	0	4
NMTAP	32	96	4
NMTAP	32	192	2
NMTAP	32	192	3
NMTAP	33	0	2
NMTAP	33	96	2
NMTAP	33	192	1
NMTAP	33	288	1
NMTAP	34	0	0
NMTAP	34	96	0
NMTAP	34	192	6
NMTAP	34	192	7
NMTAP	35	0	5
NMTAP	35	96	5
NMTAP	35	192	6
NMTAP	35	288	6
NMTAP	36	0	7
NMTAP	36	96	7
EXTAP	36	192	0
EXTAP	36	192	1
NMTAP	37	0	1
NMTAP	37	96	1
NMTAP	37	192	2
NMTAP	37	192	3
NMTAP	37	288	2
NMTAP	37	288	3
NMTAP	38	0	4
NMTAP	38	96	4
NMTAP	38	192	4
NMTAP	38	192	5
NMTAP	39	0	6
NMTAP	39	96	6
NMTAP	39	192	4
NMTAP	39	192	5
NMTAP	39	288	4
NMTAP	39	288	5
NMTAP	40	0	3
NMTAP	40	96	3
NMTAP	40	192	2
NMTAP	40	192	3
NMSTR	41	0	1
NMSCR	41	0	1	96	192	4
NMSTR	42	0	5
NMSCR	42	0	5	96	192	0
NMTAP	43	0	1
NMTAP	43	96	1
NMTAP	43	192	2
NMTAP	43	192	3
NMTAP	44	0	4
NMTAP	44	0	5
NMTAP	44	96	4
NMTAP	44	96	5
EXTAP	44	192	4
EXTAP	44	192	5
NMTAP	45	0	5
NMTAP	45	96	5
NMTAP	45	192	6
NMTAP	45	192	7
NMTAP	45	288	6
NMTAP	45	288	7
NMTAP	46	0	0
NMTAP	46	96	0
NMTAP	46	192	0
NMTAP	46	192	1
NMTAP	47	0	2
NMTAP	47	96	2
NMTAP	47	192	0
NMTAP	47	192	1
NMTAP	47	288	0
NMTAP	47	288	1
NMTAP	48	0	7
NMTAP	48	96	7
NMTAP	48	192	6
NMTAP	48	192	7
NMTAP	49	0	4
NMTAP	49	0	5
NMTAP	49	96	4
NMTAP	49	96	5
NMTAP	49	192	4
NMTAP	49	192	5
NMTAP	50	0	2
NMTAP	50	0	3
NMTAP	50	96	2
NMTAP	50	96	3
NMTAP	50	192	2
NMTAP	50	192	3
NMTAP	51	0	0
NMTAP	51	0	1
NMTAP	51	96	0
NMTAP	51	96	1
NMTAP	51	192	0
NMTAP	51	192	1
BRTAP	52	0	6
BRTAP	52	0	7
NMSTR	53	0	6
NMSCL	53	0	6	96	192	3
NMSTR	54	0	2
NMSCL	54	0	2	96	192	7
BRTAP	55	0	6
BRTAP	55	192	6
BRTAP	56	0	6
NMHLD	57	0	5	192
NMTAP	57	192	4
NMHLD	58	0	2	192
NMTAP	58	192	3
NMHLD	59	0	5	192
NMTAP	59	192	4
NMHLD	60	0	2	192
NMTAP	60	192	3
NMTAP	61	0	4
NMTAP	61	0	5
NMTAP	61	192	6
NMTAP	61	192	7
NMTAP	62	0	0
NMTAP	62	0	1
NMTAP	62	192	2
NMTAP	62	192	3
NMTAP	63	0	4
NMTAP	63	96	4
NMTAP	63	192	4
NMTAP	64	0	5
NMTAP	64	96	5
NMTAP	64	192	4
NMTAP	64	192	5
NMHLD	65	0	6	192
NMTAP	65	192	7
NMHLD	66	0	1	192
NMTAP	66	192	0
NMHLD	67	0	6	192
NMTAP	67	192	7
NMHLD	68	0	1	192
NMTAP	68	192	0
NMTAP	69	0	7
NMTAP	69	96	7
NMTAP	69	192	6
NMTAP	69	192	7
NMTAP	70	0	0
NMTAP	70	96	0
NMTAP	70	192	0
NMTAP	70	192	1
EXTAP	71	0	0
EXTAP	71	0	7
EXTAP	71	192	0
EXTAP	71	192	7
BXTAP	72	0	0
BXTAP	72	0	7
NMSTR	73	0	1
NMSI_	73	0	1	96	192	4
NMSTR	74	0	5
NMSI_	74	0	5	96	192	0
NMSTR	75	0	1
NMSI_	75	0	1	96	192	5
NMTAP	76	0	6
NMTAP	76	96	6
NMTAP	76	192	0
NMTAP	76	192	7
NMSTR	77	0	6
NMSI_	77	0	6	96	192	3
NMSTR	78	0	2
NMSI_	78	0	2	96	192	7
NMSTR	79	0	6
NMSI_	79	0	6	96	192	2
NMTAP	80	0	1
NMTAP	80	96	1
NMTAP	80	192	0
NMTAP	80	192	7
NMSTR	81	0	0
NMSI_	81	0	0	96	192	3
NMSTR	82	0	4
NMSI_	82	0	4	96	192	0
NMSTR	83	0	1
NMSI_	83	0	1	96	192	5
NMTAP	84	0	6
NMTAP	84	96	6
NMTAP	84	192	0
NMTAP	84	192	7
NMSTR	85	0	7
NMSI_	85	0	7	96	192	4
NMSTR	86	0	3
NMSI_	86	0	3	96	192	7
NMSTR	87	0	6
NMSI_	87	0	6	96	192	2
NMTAP	88	0	1
NMTAP	88	96	1
NMTAP	88	192	0
NMTAP	88	192	7
NMTTP	89	0	1	B	0	L1
NMTTP	89	96	2	B	0	L1
NMTTP	89	192	3	B	0	L1
NMTTP	90	0	6	B	0	L1
NMTTP	90	96	5	B	0	L1
NMTTP	90	192	4	B	0	L1
NMTTP	91	0	0	B	0	L1
NMTTP	91	96	1	B	0	L1
NMTTP	91	192	2	B	0	L1
NMTTP	91	192	3	B	0	L1
NMTTP	92	0	7	B	0	L1
NMTTP	92	96	6	B	0	L1
NMTTP	92	192	4	B	0	L1
NMTTP	92	192	5	B	0	L1
NMTTP	93	0	0	B	0	L1
NMTTP	93	96	1	B	0	L1
NMTTP	93	192	2	B	0	L1
NMTTP	93	288	3	B	0	L1
NMTTP	94	0	4	B	0	L1
NMTTP	94	96	5	B	0	L1
NMTTP	94	192	6	B	0	L1
NMTTP	94	288	7	B	0	L1
NMTTP	95	0	1	E	0	L1
NMTTP	95	96	2	E	0	L1
NMTTP	95	192	3	E	0	L1
NMTTP	95	288	4	E	0	L1
NMTTP	96	0	5	E	0	L1
NMTTP	96	96	6	E	0	L1
NMTTP	96	192	7	E	0	L1
NMTTP	96	288	0	E	0	L1
NMTTP	97	0	0	C	1	L1
NMTAP	99	0	0
NMTAP	99	96	1
NMTAP	99	192	2
NMTAP	99	288	3
NMTAP	100	0	4
NMTAP	100	96	5
NMTAP	100	192	6
NMTAP	100	192	7
NMTAP	101	0	7
NMTAP	101	96	6
NMTAP	101	192	5
NMTAP	101	288	4
NMTAP	102	0	3
NMTAP	102	96	2
NMTAP	102	192	0
NMTAP	102	192	1
NMTAP	103	0	2
NMTAP	103	96	1
NMTAP	103	192	0
NMTAP	103	288	7
NMTAP	104	0	6
NMTAP	104	96	5
NMTAP	104	192	4
NMTAP	104	192	5
NMTAP	105	0	5
NMTAP	105	96	6
NMTAP	105	192	7
NMTAP	105	288	0
NMTAP	106	0	1
NMTAP	106	96	2
EXTAP	106	192	2
EXTAP	106	192	3
NMTAP	107	0	1
NMTAP	107	48	1
NMTAP	107	96	1
NMTAP	107	192	2
NMTAP	107	192	3
NMTAP	107	288	2
NMTAP	107	288	3
NMTAP	108	0	4
NMTAP	108	96	4
NMTAP	108	192	4
NMTAP	108	192	5
NMTAP	109	0	6
NMTAP	109	48	6
NMTAP	109	96	6
NMTAP	109	192	4
NMTAP	109	192	5
NMTAP	109	288	4
NMTAP	109	288	5
NMTAP	110	0	3
NMTAP	110	96	3
NMTAP	110	192	2
NMTAP	110	192	3
NMTAP	111	0	2
NMTAP	111	48	2
NMTAP	111	96	2
NMTAP	111	192	0
NMTAP	111	192	1
NMTAP	111	288	0
NMTAP	111	288	1
NMTAP	112	0	7
NMTAP	112	96	7
NMTAP	112	192	6
NMTAP	112	192	7
NMTAP	113	0	5
NMTAP	113	48	5
NMTAP	113	96	5
NMTAP	113	192	6
NMTAP	113	192	7
NMTAP	113	288	6
NMTAP	113	288	7
EXTAP	114	0	0
EXTAP	114	0	1
EXTAP	114	96	0
EXTAP	114	96	1
EXTAP	114	192	0
EXTAP	114	192	1
NMTAP	115	0	7
NMTAP	115	48	7
NMTAP	115	144	0
NMTAP	115	192	0
NMTAP	115	288	1
NMTAP	115	336	1
NMTAP	116	48	2
NMTAP	116	96	2
NMTAP	116	192	3
NMTAP	116	192	4
NMTAP	117	0	5
NMTAP	117	48	5
NMTAP	117	144	6
NMTAP	117	192	6
NMTAP	117	288	7
NMTAP	117	336	7
NMTAP	118	48	0
NMTAP	118	96	0
NMTAP	118	192	0
NMTAP	118	192	1
NMTAP	119	0	2
NMTAP	119	48	2
NMTAP	119	144	1
NMTAP	119	192	1
NMTAP	119	288	0
NMTAP	119	336	0
NMTAP	120	48	7
NMTAP	120	96	7
NMTAP	120	192	6
NMTAP	120	192	7
NMTAP	121	0	4
NMTAP	121	0	5
NMTAP	121	96	4
NMTAP	121	96	5
NMTAP	121	192	2
NMTAP	121	192	3
NMTAP	121	288	2
NMTAP	121	288	3
NMTAP	122	0	0
NMTAP	122	0	1
NMTAP	122	96	0
NMTAP	122	96	1
BRTAP	122	192	6
BRTAP	122	192	7
NMTAP	123	0	5
NMTAP	123	48	5
NMTAP	123	96	5
NMTAP	123	192	6
NMTAP	123	192	7
NMTAP	123	288	6
NMTAP	123	288	7
NMTAP	124	0	0
NMTAP	124	48	0
NMTAP	124	96	0
NMTAP	124	192	0
NMTAP	124	192	1
NMTAP	125	0	2
NMTAP	125	48	2
NMTAP	125	96	2
NMTAP	125	192	0
NMTAP	125	192	1
NMTAP	125	288	0
NMTAP	125	288	1
NMTAP	126	0	7
NMTAP	126	48	7
NMTAP	126	96	7
NMTAP	126	192	6
NMTAP	126	192	7
NMTAP	127	0	5
NMTAP	127	48	5
NMTAP	127	96	5
NMTAP	127	192	6
NMTAP	127	192	7
NMTAP	127	288	6
NMTAP	127	288	7
NMTAP	128	0	0
NMTAP	128	48	0
NMTAP	128	96	0
NMTAP	128	192	0
NMTAP	128	192	1
NMTAP	129	0	2
NMTAP	129	0	3
NMTAP	129	96	2
NMTAP	129	96	3
NMTAP	129	192	4
NMTAP	129	192	5
NMTAP	129	288	4
NMTAP	129	288	5
NMTAP	130	0	6
NMTAP	130	0	7
NMTAP	130	96	6
NMTAP	130	96	7
BRTAP	130	192	0
BRTAP	130	192	1
NMHLD	131	0	1	192
NMHLD	131	192	2	192
NMHLD	132	0	3	192
NMTAP	132	192	4
NMHLD	133	0	6	192
NMHLD	133	192	5	192
NMHLD	134	0	4	192
NMTAP	134	192	3
NMTAP	135	0	2
NMTAP	135	96	3
NMTAP	135	192	4
NMTAP	135	288	5
NMTAP	136	0	6
NMTAP	136	96	7
NMTAP	136	192	0
NMTAP	136	192	7
BRTAP	137	0	1
BRTAP	137	192	1
BRTAP	138	0	1
NMTTP	139	0	0	C	1	L1

T_REC_TAP	347
T_REC_BRK	15
T_REC_XTP	20
T_REC_BXX	5
T_REC_HLD	20
T_REC_XHO	0
T_REC_BHO	0
T_REC_BXH	0
T_REC_STR	17
T_REC_BST	0
T_REC_XST	0
T_REC_XBS	0
T_REC_TTP	32
T_REC_THO	0
T_REC_SLD	17
T_REC_BSL	0
T_REC_ALL	473
T_NUM_TAP	416
T_NUM_BRK	20
T_NUM_HLD	20
T_NUM_SLD	17
T_NUM_ALL	473
T_JUDGE_TAP	436
T_JUDGE_HLD	80
T_JUDGE_SLD	17
T_JUDGE_ALL	533
TTM_EACHPAIRS	94
TTM_SCR_TAP	208000
TTM_SCR_BRK	52000
TTM_SCR_HLD	20000
TTM_SCR_SLD	25500
TTM_SCR_ALL	305500
TTM_SCR_S	294400
TTM_SCR_SS	303500
TTM_RAT_ACV	10065

