VERSION	0.00.00	1.04.00
FES_MODE	0
BPM_DEF	120.000	180.000	180.000	120.000
MET_DEF	4	4
RESOLUTION	384
CLK_DEF	384
COMPATIBLE_CODE	MA2

BPM	0	0	120.000
BPM	3	48	180.000
MET	0	0	4	4
MET	2	0	4	2
MET	4	192	4	4
MET	55	192	4	2
MET	56	0	4	4

NMTAP	1	288	4
NMTAP	1	312	5
NMTAP	1	336	6
NMTAP	1	360	7
NMTAP	2	0	0
NMSTR	2	192	3
BRSSR	2	192	3	96	96	7
NMSTR	2	192	4
BRSSL	2	192	4	96	96	0
EXHLD	3	96	1	384
BXHLD	3	216	0	264
EXTAP	4	192	3
EXTAP	4	192	4
NMTAP	4	288	3
NMTAP	4	288	4
NMTAP	5	0	2
NMTAP	5	0	4
NMTAP	5	96	2
NMTAP	5	96	4
NMTAP	5	192	3
NMTAP	5	192	4
NMTAP	5	288	3
NMTAP	5	288	4
NMTAP	6	0	1
NMTAP	6	0	4
NMTAP	6	96	1
NMTAP	6	96	4
NMTAP	6	192	3
NMTAP	6	192	4
NMTAP	6	288	3
NMTAP	6	288	4
NMTAP	7	0	0
NMTAP	7	0	4
NMTAP	7	96	0
NMTAP	7	96	4
NMTAP	7	192	3
NMTAP	7	192	4
NMTAP	7	288	3
NMTAP	7	288	4
BRTAP	8	0	1
BRTAP	8	0	6
EXTAP	8	192	3
EXTAP	8	192	4
NMTAP	8	288	3
NMTAP	8	288	4
NMTAP	9	0	3
NMTAP	9	0	5
NMTAP	9	96	3
NMTAP	9	96	5
NMTAP	9	192	3
NMTAP	9	192	4
NMTAP	9	288	3
NMTAP	9	288	4
NMTAP	10	0	3
NMTAP	10	0	6
NMTAP	10	96	3
NMTAP	10	96	6
NMTAP	10	192	3
NMTAP	10	192	4
NMTAP	10	288	3
NMTAP	10	288	4
NMTAP	11	0	3
NMTAP	11	0	7
NMTAP	11	96	3
NMTAP	11	96	7
NMTAP	11	192	3
NMTAP	11	192	4
NMTAP	11	288	3
NMTAP	11	288	4
BRTAP	12	0	1
BRTAP	12	0	6
NMSTR	12	192	7
NMSI_	12	192	7	96	48	3
NMTAP	12	240	0
NMTAP	12	288	1
NMTAP	12	336	2
NMSTR	13	0	4
NMSI_	13	0	4	96	48	0
NMTAP	13	48	3
NMTAP	13	96	2
NMTAP	13	144	1
NMSTR	13	192	7
NMSI_	13	192	7	96	48	3
NMTAP	13	240	0
NMTAP	13	288	1
NMTAP	13	336	2
NMTAP	14	0	4
NMTAP	14	48	3
NMTAP	14	96	2
NMTAP	14	96	4
NMTAP	14	144	1
NMSTR	14	192	0
NMSI_	14	192	0	96	48	4
NMTAP	14	240	7
NMTAP	14	288	6
NMTAP	14	336	5
NMSTR	15	0	3
NMSI_	15	0	3	96	48	7
NMTAP	15	48	4
NMTAP	15	96	5
NMTAP	15	144	6
NMSTR	15	192	0
NMSI_	15	192	0	96	48	4
NMTAP	15	240	7
NMTAP	15	288	6
NMTAP	15	336	5
BRTAP	16	0	3
BRTAP	16	0	6
EXTAP	16	192	3
EXTAP	16	192	4
NMTAP	16	240	2
NMTAP	16	264	3
NMTAP	16	288	2
NMTAP	16	336	5
NMTAP	16	360	4
NMTAP	17	0	5
NMTAP	17	48	2
NMTAP	17	72	3
NMTAP	17	96	2
NMTAP	17	144	5
NMTAP	17	168	4
NMTAP	17	192	6
NMTAP	17	240	2
NMTAP	17	264	3
NMTAP	17	288	1
NMTAP	17	336	5
NMTAP	17	360	4
NMTAP	18	0	6
NMTAP	18	48	2
NMTAP	18	72	3
NMTAP	18	96	1
NMTAP	18	144	5
NMTAP	18	168	4
NMTAP	18	192	7
NMTAP	18	240	2
NMTAP	18	264	3
NMTAP	18	288	0
NMTAP	18	336	5
NMTAP	18	360	4
NMTAP	19	0	7
NMTAP	19	48	2
NMTAP	19	72	3
NMTAP	19	96	0
NMTAP	19	144	5
NMTAP	19	168	4
NMTAP	19	192	7
NMTAP	19	240	2
NMTAP	19	240	6
NMTAP	19	288	1
NMTAP	19	288	5
NMTAP	19	336	0
NMTAP	19	336	4
NMSTR	20	0	3
NMSCR	20	0	3	96	48	6
NMSTR	20	0	7
NMSCR	20	0	7	96	48	2
EXTAP	20	192	3
EXTAP	20	192	7
NMTAP	20	288	5
NMTAP	20	312	4
NMTAP	20	336	5
NMTAP	21	0	1
NMTAP	21	0	3
EXTAP	21	96	6
EXTAP	21	96	7
NMTAP	21	192	0
NMTAP	21	192	4
NMTAP	21	288	2
NMTAP	21	312	3
NMTAP	21	336	2
BRHLD	22	0	4	96
BRHLD	22	0	6	96
NMTAP	22	192	3
NMTAP	22	192	7
NMTAP	22	288	5
NMTAP	22	312	4
NMTAP	22	336	5
NMTTP	23	0	1	E	0	M1
NMTTP	23	24	6	E	0	M1
NMTTP	23	48	2	E	0	M1
NMTTP	23	72	5	E	0	M1
NMTTP	23	96	3	B	0	M1
NMTAP	23	192	0
NMTAP	23	192	4
NMTAP	23	288	2
NMTAP	23	312	3
NMTAP	23	336	2
NMHLD	24	0	5	96
NMTAP	24	72	4
NMTAP	24	96	4
NMTAP	24	144	3
NMTAP	24	144	6
NMTAP	24	192	2
NMTAP	24	192	7
NMTAP	24	288	6
NMTAP	24	312	4
NMTAP	24	336	5
NMTAP	25	0	1
NMTAP	25	0	3
EXTAP	25	96	6
EXTAP	25	96	7
NMTAP	25	192	0
NMTAP	25	192	4
NMTAP	25	288	1
NMTAP	25	312	3
NMTAP	25	336	2
BRHLD	26	0	4	96
BRHLD	26	0	6	96
NMTAP	26	192	3
NMTAP	26	192	7
NMTAP	26	288	6
NMTAP	26	312	4
NMTAP	26	336	5
NMTTP	27	0	1	E	0	M1
NMTTP	27	24	6	E	0	M1
NMTTP	27	48	2	E	0	M1
NMTTP	27	72	5	E	0	M1
NMTTP	27	96	3	B	0	M1
NMSTR	27	192	0
NMSLR	27	192	0	96	96	4
NMSTR	27	192	4
NMSLR	27	192	4	96	96	0
BRTAP	28	96	2
BRTAP	28	96	6
NMHLD	28	192	1	192
NMTAP	28	240	0
NMTAP	28	288	0
NMTAP	28	336	0
NMHLD	29	0	6	192
NMTAP	29	48	7
NMTAP	29	96	7
NMTAP	29	144	7
NMHLD	29	192	1	192
NMTAP	29	240	0
NMTAP	29	288	0
NMTAP	29	336	0
NMSTR	30	0	6
NMSI_	30	0	6	96	48	4
NMTAP	30	48	7
NMTAP	30	96	0
NMTAP	30	144	1
NMHLD	30	192	2	192
NMTAP	30	240	3
NMTAP	30	288	3
NMTAP	30	336	3
NMHLD	31	0	5	192
NMTAP	31	48	4
NMTAP	31	96	4
NMTAP	31	144	4
NMHLD	31	192	2	192
NMTAP	31	240	3
NMTAP	31	288	3
NMTAP	31	336	3
BRTAP	32	0	3
BRTAP	32	48	0
BRTAP	32	48	7
BRTAP	32	96	4
BRTAP	32	96	5
NMHLD	32	192	6	192
NMTAP	32	240	7
NMTAP	32	288	7
NMTAP	32	336	7
NMHLD	33	0	1	192
NMTAP	33	48	0
NMTAP	33	96	0
NMTAP	33	144	0
NMHLD	33	192	6	192
NMTAP	33	240	7
NMTAP	33	288	7
NMTAP	33	336	7
NMSTR	34	0	1
NMSI_	34	0	1	96	48	3
NMTAP	34	48	0
NMTAP	34	96	7
NMTAP	34	144	6
NMHLD	34	192	5	192
NMTAP	34	240	4
NMTAP	34	288	4
NMTAP	34	336	4
NMHLD	35	0	2	192
NMTAP	35	48	3
NMTAP	35	96	3
NMTAP	35	144	3
NMSTR	35	192	5
BRSXL	35	192	5	96	192	1
NMTAP	35	240	4
NMTAP	35	288	4
NMTAP	35	336	4
NMTAP	36	0	4
NMTAP	36	48	3
BRTAP	36	96	2
NMTAP	36	192	0
NMTAP	36	192	7
NMTAP	36	240	6
NMTAP	36	288	4
NMTAP	36	288	5
NMTAP	36	336	6
NMTAP	37	0	0
NMTAP	37	0	7
NMTAP	37	48	1
NMTAP	37	96	2
NMTAP	37	96	3
NMTAP	37	144	1
NMTAP	37	192	0
NMTAP	37	192	7
NMTAP	37	240	6
NMTAP	37	288	2
NMTAP	37	288	5
NMTAP	37	336	4
NMTAP	38	0	0
NMTAP	38	0	3
NMTAP	38	48	1
NMTAP	38	96	2
NMTAP	38	96	5
NMTAP	38	144	3
NMTAP	38	192	4
NMTAP	38	192	7
NMTAP	38	240	6
NMTAP	38	288	1
NMTAP	38	288	5
NMTAP	38	336	4
NMTAP	39	0	0
NMTAP	39	0	3
NMTAP	39	48	1
NMTAP	39	96	2
NMTAP	39	96	6
NMTAP	39	144	3
NMTAP	39	192	4
NMTAP	39	192	5
NMTAP	39	240	6
NMTAP	39	288	0
NMTAP	39	288	7
NMTAP	39	336	6
NMTAP	40	0	4
NMTAP	40	0	5
NMTAP	40	48	3
NMTAP	40	96	2
NMTAP	40	96	4
NMTAP	40	144	1
EXTAP	40	192	0
EXTAP	40	192	5
NMSTR	40	240	0
NMSI_	40	240	0	96	48	4
NMTAP	40	240	5
NMSTR	40	336	7
NMSI_	40	336	7	96	48	3
NMSTR	41	48	6
NMSI_	41	48	6	96	48	2
NMSTR	41	144	5
NMSI_	41	144	5	96	48	1
NMSTR	41	240	4
NMSI_	41	240	4	96	48	0
NMTAP	41	336	3
NMTAP	42	48	6
NMTAP	42	48	7
NMTAP	42	96	6
NMTAP	42	96	7
NMTAP	42	192	2
NMTAP	42	192	3
NMTAP	42	240	2
NMSTR	42	240	3
NMSI_	42	240	3	96	48	7
NMSTR	42	336	4
NMSI_	42	336	4	96	48	0
NMSTR	43	48	5
NMSI_	43	48	5	96	48	1
NMSTR	43	144	6
NMSI_	43	144	6	96	48	2
NMSTR	43	240	7
NMSI_	43	240	7	96	48	3
NMTAP	43	336	0
BXSTR	44	0	0
NMSCL	44	0	0	96	48	5
NMSCR	44	0	0	96	48	3
NMTAP	44	192	0
NMTAP	44	192	7
NMTAP	44	240	1
NMTAP	44	288	2
NMTAP	44	288	3
NMTAP	44	336	1
NMTAP	45	0	0
NMTAP	45	0	7
NMTAP	45	48	6
NMTAP	45	96	4
NMTAP	45	96	5
NMTAP	45	144	6
NMTAP	45	192	0
NMTAP	45	192	7
NMTAP	45	240	1
NMTAP	45	288	2
NMTAP	45	288	5
NMTAP	45	336	3
NMTAP	46	0	4
NMTAP	46	0	7
NMTAP	46	48	6
NMTAP	46	96	2
NMTAP	46	96	5
NMTAP	46	144	4
NMTAP	46	192	0
NMTAP	46	192	3
NMTAP	46	240	1
NMTAP	46	288	2
NMTAP	46	288	6
NMTAP	46	336	3
NMTAP	47	0	4
NMTAP	47	0	7
NMTAP	47	48	6
NMTAP	47	96	1
NMTAP	47	96	5
NMTAP	47	144	4
NMTAP	47	192	2
NMTAP	47	192	3
NMTAP	47	240	1
NMTAP	47	288	0
NMTAP	47	288	7
NMTAP	47	336	6
NMTAP	48	0	4
NMTAP	48	0	5
NMTAP	48	48	3
NMTAP	48	96	2
NMTAP	48	96	7
BXTAP	48	192	0
BXTAP	48	192	1
NMTAP	48	240	0
NMTAP	48	240	1
NMTAP	48	288	2
NMTAP	48	288	3
NMTAP	48	336	2
NMTAP	48	336	3
NMTAP	49	0	4
NMTAP	49	0	5
NMTAP	49	48	4
NMTAP	49	48	5
NMTAP	49	96	6
NMTAP	49	96	7
NMTAP	49	144	6
NMTAP	49	144	7
BXTAP	49	192	0
BXTAP	49	192	7
NMTAP	49	240	0
NMTAP	49	240	7
NMTAP	49	288	1
NMTAP	49	288	2
NMTAP	49	336	1
NMTAP	49	336	2
NMTAP	50	0	3
NMTAP	50	0	4
NMTAP	50	48	3
NMTAP	50	48	4
NMTAP	50	96	5
NMTAP	50	96	6
NMTAP	50	144	5
NMTAP	50	144	6
BXTAP	50	192	6
BXTAP	50	192	7
NMTAP	50	240	4
NMTAP	50	240	5
NMTAP	50	288	2
NMTAP	50	288	3
NMTAP	50	336	0
NMTAP	50	336	1
BXTAP	51	0	6
BXTAP	51	0	7
NMTAP	51	48	0
NMTAP	51	48	5
NMTAP	51	96	1
NMTAP	51	96	4
BXTAP	51	192	1
NMTAP	51	204	2
NMTAP	51	216	3
NMTAP	51	228	4
NMTAP	51	240	5
NMTAP	51	252	6
NMTAP	51	264	7
NMTAP	51	276	0
NMTAP	51	288	1
NMTAP	51	300	2
NMTAP	51	312	3
NMTAP	51	324	4
NMTAP	51	336	5
NMTAP	51	348	6
NMTAP	51	360	7
NMTAP	51	372	0
NMTAP	52	0	1
NMTAP	52	12	2
NMTAP	52	24	3
NMTAP	52	36	4
NMTAP	52	48	5
NMTAP	52	60	6
NMTAP	52	72	7
NMTAP	52	84	0
EXSTR	52	96	1
BRSF_	52	96	1	96	768	5
EXTAP	52	96	5
BRTAP	52	192	1
NMTAP	55	288	3
NMTAP	55	288	4
NMTAP	55	336	2
NMTAP	55	336	3
EXTAP	56	0	1
NMTAP	56	24	4
NMTAP	56	48	1
NMTAP	56	72	4
NMTAP	56	96	1
NMTAP	56	120	4
NMTAP	56	144	1
NMTAP	56	168	4
EXTAP	56	192	2
NMTAP	56	216	5
NMTAP	56	240	2
NMTAP	56	264	5
NMTAP	56	288	2
NMTAP	56	312	5
NMTAP	56	336	2
NMTAP	56	360	5
EXTAP	57	0	3
NMTAP	57	24	6
NMTAP	57	48	3
NMTAP	57	72	6
EXTAP	57	96	2
NMTAP	57	120	5
EXTAP	57	144	2
NMTAP	57	168	5
EXTAP	57	192	1
NMTAP	57	216	4
NMTAP	57	240	1
NMTAP	57	264	4
EXTAP	57	288	2
NMTAP	57	312	5
EXTAP	57	336	2
NMTAP	57	360	5
EXTAP	58	0	3
NMTAP	58	24	6
NMTAP	58	48	3
NMTAP	58	72	6
EXTAP	58	96	2
NMTAP	58	120	5
EXTAP	58	144	2
NMTAP	58	168	5
EXTAP	58	192	1
NMTAP	58	216	4
NMTAP	58	240	1
NMTAP	58	264	4
EXTAP	58	288	2
NMTAP	58	312	5
EXTAP	58	336	3
EXSTR	58	360	6
NMSLR	58	360	6	96	120	5
EXHLD	59	0	4	192
NMTAP	59	288	0
NMTAP	59	288	1
NMTAP	59	336	2
NMTAP	59	336	7
EXTAP	60	0	6
NMTAP	60	24	3
NMTAP	60	48	6
NMTAP	60	72	3
NMTAP	60	96	6
NMTAP	60	120	3
NMTAP	60	144	6
NMTAP	60	168	3
EXTAP	60	192	5
NMTAP	60	216	2
NMTAP	60	240	5
NMTAP	60	264	2
NMTAP	60	288	5
NMTAP	60	312	2
NMTAP	60	336	5
NMTAP	60	360	2
EXTAP	61	0	4
NMTAP	61	24	1
NMTAP	61	48	4
NMTAP	61	72	1
EXTAP	61	96	5
NMTAP	61	120	2
EXTAP	61	144	5
NMTAP	61	168	2
EXTAP	61	192	6
NMTAP	61	216	3
NMTAP	61	240	6
NMTAP	61	264	3
EXTAP	61	288	5
NMTAP	61	312	2
EXTAP	61	336	5
NMTAP	61	360	2
EXTAP	62	0	4
NMTAP	62	24	1
NMTAP	62	48	4
NMTAP	62	72	1
NMTAP	62	96	4
NMTAP	62	120	1
NMTAP	62	144	4
NMTAP	62	168	1
EXTAP	62	192	3
NMTAP	62	216	0
NMTAP	62	240	3
NMTAP	62	264	0
NMTAP	62	288	3
NMTAP	62	312	0
NMTAP	62	336	3
NMTAP	62	360	0
EXSTR	63	0	4
NMSCL	63	0	4	96	96	0
NMSCR	63	0	4	96	96	0
NMTAP	63	288	7
NMTAP	63	336	0
NMTAP	63	336	6
EXTAP	64	0	1
NMTAP	64	24	5
NMTAP	64	48	1
NMTAP	64	72	5
NMTAP	64	96	1
NMTAP	64	120	5
NMTAP	64	144	1
NMTAP	64	168	5
EXTAP	64	192	2
NMTAP	64	216	6
NMTAP	64	240	2
NMTAP	64	264	6
NMTAP	64	288	2
NMTAP	64	312	6
NMTAP	64	336	2
NMTAP	64	360	6
EXTAP	65	0	3
NMTAP	65	24	7
NMTAP	65	48	3
NMTAP	65	72	7
EXTAP	65	96	4
NMTAP	65	120	0
EXTAP	65	144	4
NMTAP	65	168	0
EXTAP	65	192	3
NMTAP	65	216	7
NMTAP	65	240	3
NMTAP	65	264	7
EXTAP	65	288	2
NMTAP	65	312	6
EXTAP	65	336	2
NMTAP	65	360	6
EXTAP	66	0	1
NMTAP	66	24	5
NMTAP	66	48	1
NMTAP	66	72	5
EXTAP	66	96	0
NMTAP	66	120	4
EXTAP	66	144	0
NMTAP	66	168	4
EXTAP	66	192	7
NMTAP	66	216	3
NMTAP	66	240	7
NMTAP	66	264	3
EXTAP	66	288	0
NMTAP	66	312	4
EXTAP	66	336	1
EXSTR	66	360	5
NMSLR	66	360	5	96	120	3
EXHLD	67	0	2	192
NMTAP	67	288	4
NMTAP	67	336	3
NMTAP	67	336	5
EXTAP	68	0	6
NMTAP	68	24	2
NMTAP	68	48	6
NMTAP	68	72	2
NMTAP	68	96	6
NMTAP	68	120	2
NMTAP	68	144	6
NMTAP	68	168	2
EXTAP	68	192	5
NMTAP	68	216	1
NMTAP	68	240	5
NMTAP	68	264	1
NMTAP	68	288	5
NMTAP	68	312	1
NMTAP	68	336	5
NMTAP	68	360	1
EXTAP	69	0	4
NMTAP	69	24	0
NMTAP	69	48	4
EXTAP	69	72	0
EXTAP	69	96	3
NMTAP	69	120	7
EXTAP	69	144	3
NMTAP	69	168	7
EXTAP	69	192	4
NMTAP	69	216	0
NMTAP	69	240	4
NMTAP	69	264	0
EXTAP	69	288	5
NMTAP	69	312	1
EXTAP	69	336	5
NMTAP	69	360	1
EXTAP	70	0	4
NMTAP	70	24	0
NMTAP	70	48	4
NMTAP	70	72	0
EXTAP	70	96	3
NMTAP	70	120	7
EXTAP	70	144	3
NMTAP	70	168	7
EXTAP	70	192	4
NMTAP	70	216	0
NMTAP	70	240	4
NMTAP	70	264	0
EXTAP	70	288	5
NMTAP	70	312	1
NMTAP	70	336	5
NMTAP	70	360	1
EXTAP	71	0	6
NMTAP	71	24	2
NMTAP	71	48	6
NMTAP	71	72	2
NMTAP	71	96	7
NMTAP	71	120	3
NMTAP	71	144	7
NMTAP	71	168	3
NMTAP	71	192	0
NMTAP	71	216	4
NMTAP	71	240	0
NMTAP	71	264	4
BXTAP	71	288	3
BXTAP	71	288	7
EXTAP	72	0	2
EXTAP	72	0	3
NMTAP	72	96	2
NMTAP	72	96	3
NMTAP	72	192	3
NMTAP	72	192	4
NMTAP	72	288	3
NMTAP	72	288	4
NMTAP	73	0	4
NMTAP	73	0	5
NMTAP	73	96	4
NMTAP	73	96	5
NMTAP	73	192	3
NMTAP	73	192	4
NMTAP	73	288	3
NMTAP	73	288	4
NMTAP	74	0	2
NMTAP	74	0	3
NMTAP	74	96	1
NMTAP	74	96	3
NMTAP	74	192	2
NMTAP	74	192	3
NMTAP	74	288	3
NMTAP	74	288	4
NMTAP	75	0	4
NMTAP	75	0	5
NMTAP	75	96	4
NMTAP	75	96	6
NMTAP	75	192	4
NMTAP	75	192	5
NMTAP	75	288	3
NMTAP	75	288	4
EXTAP	76	0	1
EXTAP	76	0	6
NMTAP	76	48	5
NMTAP	76	72	4
NMTAP	76	96	5
NMTAP	76	144	2
NMTAP	76	168	3
NMTAP	76	192	2
NMTAP	76	240	5
NMTAP	76	264	4
NMTAP	76	288	5
NMTAP	76	336	2
NMTAP	76	360	3
NMTAP	77	0	1
NMTAP	77	48	5
NMTAP	77	72	4
NMTAP	77	96	6
NMTAP	77	144	2
NMTAP	77	168	3
NMTAP	77	192	1
NMTAP	77	240	5
NMTAP	77	264	4
NMTAP	77	288	6
NMTAP	77	336	2
NMTAP	77	360	3
EXSTR	78	0	0
NMSSL	78	0	0	96	192	4
EXSTR	78	192	5
BRSI_	78	192	5	96	192	3
CNSI_	79	96	3	0	48	6
CNSI_	79	144	6	0	48	2
CNSI_	79	192	2	0	48	7
CNSI_	79	240	7	0	48	1
NMTTP	79	288	0	C	1	M1
EXSTR	80	0	7
NMSI_	80	0	7	96	48	3
NMSTR	80	96	2
NMSI_	80	96	2	96	48	7
NMTAP	80	192	6
NMTAP	80	240	6
NMTAP	80	288	0
NMTAP	80	336	0
NMSTR	81	0	1
NMSI_	81	0	1	96	48	5
NMTAP	81	0	4
NMTAP	81	48	4
NMTAP	81	72	5
NMTAP	81	96	6
NMHLD	81	144	6	240
NMTAP	81	192	4
NMTAP	81	288	4
NMTAP	81	312	3
NMTAP	81	336	2
NMTAP	81	360	1
EXSTR	82	0	0
NMSI_	82	0	0	96	48	4
NMSTR	82	96	5
NMSI_	82	96	5	96	48	0
NMTAP	82	192	1
NMTAP	82	240	1
NMTAP	82	288	7
NMTAP	82	336	7
NMTAP	83	0	3
NMSTR	83	0	6
NMSI_	83	0	6	96	48	2
NMTAP	83	48	3
NMTAP	83	72	2
NMTAP	83	96	1
NMHLD	83	144	1	48
NMTAP	83	192	3
NMTAP	83	216	4
NMTAP	83	240	5
NMTAP	83	264	6
NMTAP	83	288	3
NMTAP	83	288	7
NMTAP	83	312	2
NMTAP	83	336	1
NMTAP	83	360	0
EXTAP	84	0	4
EXSTR	84	0	7
NMSI_	84	0	7	96	48	2
NMSTR	84	96	6
NMSI_	84	96	6	96	48	3
NMTAP	84	192	1
NMTAP	84	240	1
NMTAP	84	288	4
NMTAP	84	336	4
NMTAP	85	0	0
NMSTR	85	0	5
NMSI_	85	0	5	96	48	1
NMTAP	85	48	0
NMTAP	85	72	1
NMTAP	85	96	2
NMHLD	85	144	2	240
NMTAP	85	192	0
NMTAP	85	288	0
NMTAP	85	312	7
NMTAP	85	336	6
NMTAP	85	360	5
NMSTR	86	0	4
NMSI_	86	0	4	96	48	0
NMSTR	86	96	1
NMSI_	86	96	1	96	48	4
NMTAP	86	192	5
NMTAP	86	240	5
NMTAP	86	288	3
NMTAP	86	336	3
NMSTR	87	0	2
NMSI_	87	0	2	96	48	6
NMTAP	87	0	7
NMTAP	87	48	7
NMTAP	87	72	6
NMTAP	87	96	5
NMHLD	87	144	5	48
BRTAP	87	192	7
BRTAP	87	240	0
BRTAP	87	240	4
BRTAP	87	288	1
BRTAP	87	288	3
EXSTR	88	0	0
NMSI_	88	0	0	96	48	4
NMSTR	88	96	5
NMSI_	88	96	5	96	48	0
NMTAP	88	192	1
NMTAP	88	240	1
NMTAP	88	288	7
NMTAP	88	336	7
NMTAP	89	0	3
NMSTR	89	0	6
NMSI_	89	0	6	96	48	2
NMTAP	89	48	3
NMTAP	89	72	2
NMTAP	89	96	1
NMTAP	89	144	1
NMSTR	89	192	0
NMSCR	89	192	0	96	48	3
NMTAP	89	192	3
NMTAP	89	288	3
NMTAP	89	312	4
NMTAP	89	336	5
NMTAP	89	360	6
EXSTR	90	0	7
NMSI_	90	0	7	96	48	3
NMSTR	90	96	2
NMSI_	90	96	2	96	48	7
NMTAP	90	192	6
NMTAP	90	240	6
NMTAP	90	288	0
NMTAP	90	336	0
NMSTR	91	0	1
NMSI_	91	0	1	96	48	5
NMTAP	91	0	4
NMTAP	91	48	4
NMTAP	91	72	5
NMTAP	91	96	6
NMTAP	91	144	6
NMTAP	91	192	4
NMTAP	91	192	7
NMTAP	91	216	3
NMTAP	91	240	2
NMTAP	91	264	1
NMTAP	91	288	0
NMTAP	91	288	4
NMTAP	91	312	5
NMTAP	91	336	6
NMTAP	91	360	7
EXSTR	92	0	0
NMSI_	92	0	0	96	48	5
EXTAP	92	0	3
NMSTR	92	96	1
NMSI_	92	96	1	96	48	4
NMTAP	92	192	6
NMTAP	92	240	6
NMTAP	92	288	3
NMTAP	92	336	3
NMSTR	93	0	2
NMSI_	93	0	2	96	48	6
NMTAP	93	0	7
NMTAP	93	48	7
NMTAP	93	72	6
NMTAP	93	96	5
NMTAP	93	144	5
NMSTR	93	192	4
NMSCR	93	192	4	96	48	7
NMTAP	93	192	7
NMTAP	93	288	7
NMTAP	93	312	0
NMTAP	93	336	1
NMTAP	93	360	2
NMSTR	94	0	3
NMSI_	94	0	3	96	48	7
NMSTR	94	96	6
NMSI_	94	96	6	96	48	3
NMTAP	94	192	2
NMTAP	94	240	2
NMTAP	94	288	4
NMTAP	94	336	4
NMTAP	95	0	0
NMTAP	95	0	5
NMTAP	95	48	1
NMTAP	95	48	4
NMTAP	95	96	2
NMTAP	95	96	3
NMTAP	95	144	4
NMTAP	95	144	5
NMTAP	95	192	6
NMTAP	95	192	7
BRTAP	95	288	1
BRTAP	95	288	5
EXSTR	96	0	0
NMSV_	96	0	0	96	48	3
EXTAP	96	0	6
NMTAP	96	96	0
NMSTR	96	96	5
NMSI_	96	96	5	96	48	1
NMTAP	96	192	2
NMTAP	96	192	5
NMTAP	96	240	2
NMTAP	96	288	0
NMTAP	96	336	0
NMTAP	97	0	3
NMSTR	97	0	7
NMSCL	97	0	7	96	48	4
NMTAP	97	48	3
NMTAP	97	72	2
NMTAP	97	96	1
NMHLD	97	144	1	240
NMTAP	97	192	3
NMTAP	97	288	3
NMTAP	97	312	4
NMTAP	97	336	5
NMTAP	97	360	6
EXSTR	98	0	7
NMSV_	98	0	7	96	48	4
NMSTR	98	96	2
NMSI_	98	96	2	96	48	6
NMTAP	98	96	7
NMTAP	98	192	2
NMTAP	98	192	5
NMTAP	98	240	5
NMTAP	98	288	7
NMTAP	98	336	7
NMSTR	99	0	0
NMSCR	99	0	0	96	48	3
NMTAP	99	0	4
NMTAP	99	48	4
NMTAP	99	72	5
NMTAP	99	96	6
NMHLD	99	144	6	48
NMTAP	99	192	4
NMTAP	99	216	3
NMTAP	99	240	2
NMTAP	99	264	1
NMTAP	99	288	0
NMTAP	99	288	3
NMTAP	99	312	4
NMTAP	99	336	5
NMTAP	99	360	6
EXSTR	100	0	3
NMSV_	100	0	3	96	48	0
EXTAP	100	0	7
NMTAP	100	96	3
NMSTR	100	96	6
NMSI_	100	96	6	96	48	2
NMTAP	100	192	1
NMTAP	100	192	6
NMTAP	100	240	1
NMTAP	100	288	3
NMTAP	100	336	3
NMTAP	101	0	0
NMSTR	101	0	4
NMSCR	101	0	4	96	48	7
NMTAP	101	48	0
NMTAP	101	72	1
NMTAP	101	96	2
NMHLD	101	144	2	240
NMTAP	101	192	0
NMTAP	101	288	0
NMTAP	101	312	7
NMTAP	101	336	6
NMTAP	101	360	5
NMSTR	102	0	4
NMSV_	102	0	4	96	48	7
NMSTR	102	96	1
NMSI_	102	96	1	96	48	5
NMTAP	102	96	4
NMTAP	102	192	1
NMTAP	102	192	6
NMTAP	102	240	6
NMTAP	102	288	4
NMTAP	102	336	4
NMSTR	103	0	3
NMSCL	103	0	3	96	48	0
NMTAP	103	0	7
NMTAP	103	48	7
NMTAP	103	72	6
NMTAP	103	96	5
NMHLD	103	144	5	48
BRTAP	103	192	7
BRTAP	103	240	3
BRTAP	103	240	4
BRTAP	103	288	0
BRTAP	103	288	2
EXTAP	104	0	0
EXSTR	104	0	7
NMSV_	104	0	7	96	48	4
NMSTR	104	96	2
NMSI_	104	96	2	96	48	6
NMTAP	104	96	7
NMTAP	104	192	2
NMTAP	104	192	5
NMTAP	104	240	5
NMTAP	104	288	7
NMTAP	104	336	7
NMSTR	105	0	0
NMSCR	105	0	0	96	48	3
NMTAP	105	0	3
NMTAP	105	48	3
NMTAP	105	72	4
NMTAP	105	96	5
NMTAP	105	120	6
NMTAP	105	144	7
NMTAP	105	192	4
NMSTR	105	192	7
NMSCL	105	192	7	96	48	4
NMTAP	105	288	4
NMTAP	105	312	3
NMTAP	105	336	2
NMTAP	105	360	1
NMSTR	106	0	0
NMSV_	106	0	0	96	48	3
NMTAP	106	96	0
NMSTR	106	96	5
NMSI_	106	96	5	96	48	1
NMTAP	106	192	2
NMTAP	106	192	5
NMTAP	106	240	2
NMTAP	106	288	0
NMTAP	106	336	0
NMTAP	107	0	4
NMSTR	107	0	7
NMSCL	107	0	7	96	48	4
NMTAP	107	48	4
NMTAP	107	72	3
NMTAP	107	96	2
NMTAP	107	120	1
NMTAP	107	144	0
NMTAP	107	192	0
NMTAP	107	192	3
NMTAP	107	216	4
NMTAP	107	240	5
NMTAP	107	264	6
NMTAP	107	288	4
NMTAP	107	288	7
NMTAP	107	312	3
NMTAP	107	336	2
NMTAP	107	360	1
BXTAP	108	0	0
BXTAP	108	0	4
NMTAP	108	48	0
NMTAP	108	48	4
NMTAP	108	96	1
NMTAP	108	96	5
NMTAP	108	144	1
NMTAP	108	144	5
NMTAP	108	192	2
NMTAP	108	192	6
NMTAP	108	240	2
NMTAP	108	240	6
NMTAP	108	288	3
NMTAP	108	288	7
NMTAP	108	336	3
NMTAP	108	336	7
BXTAP	109	0	0
BXTAP	109	0	4
NMTAP	109	48	0
NMTAP	109	48	4
NMTAP	109	96	3
NMTAP	109	96	7
NMTAP	109	144	3
NMTAP	109	144	7
NMTAP	109	192	2
NMTAP	109	192	6
NMTAP	109	240	2
NMTAP	109	240	6
NMTAP	109	288	1
NMTAP	109	288	5
NMTAP	109	336	1
NMTAP	109	336	5
BXTAP	110	0	0
NMTAP	110	24	4
NMTAP	110	48	1
NMTAP	110	72	5
NMTAP	110	96	2
NMTAP	110	120	6
NMTAP	110	144	3
NMTAP	110	168	7
BXTAP	110	192	4
NMTAP	110	216	0
NMTAP	110	240	3
NMTAP	110	264	7
NMTAP	110	288	2
NMTAP	110	312	6
NMTAP	110	336	1
NMTAP	110	360	5
BXTAP	111	0	0
BXTAP	111	0	4
NMTAP	111	48	1
NMTAP	111	48	3
NMTAP	111	96	0
NMTAP	111	96	7
NMTAP	111	144	4
NMTAP	111	144	6
NMTAP	111	192	3
NMTAP	111	192	4
NMTAP	111	240	0
NMTAP	111	240	2
NMTAP	111	288	3
NMTAP	111	288	4
NMTAP	111	336	5
NMTAP	111	336	7
BRTAP	112	0	1
BRTAP	112	0	6

T_REC_TAP	855
T_REC_BRK	29
T_REC_XTP	77
T_REC_BXX	19
T_REC_HLD	20
T_REC_XHO	3
T_REC_BHO	4
T_REC_BXH	1
T_REC_STR	59
T_REC_BST	0
T_REC_XST	16
T_REC_XBS	1
T_REC_TTP	11
T_REC_THO	0
T_REC_SLD	73
T_REC_BSL	5
T_REC_ALL	1173
T_NUM_TAP	1018
T_NUM_BRK	59
T_NUM_HLD	23
T_NUM_SLD	73
T_NUM_ALL	1173
T_JUDGE_TAP	1067
T_JUDGE_HLD	100
T_JUDGE_SLD	78
T_JUDGE_ALL	1245
TTM_EACHPAIRS	216
TTM_SCR_TAP	509000
TTM_SCR_BRK	153400
TTM_SCR_HLD	23000
TTM_SCR_SLD	109500
TTM_SCR_ALL	794900
TTM_SCR_S	765350
TTM_SCR_SS	789000
TTM_RAT_ACV	10074

