VERSION	0.00.00	1.04.00
FES_MODE	0
BPM_DEF	120.000	180.000	180.000	120.000
MET_DEF	4	4
RESOLUTION	384
CLK_DEF	384
COMPATIBLE_CODE	MA2

BPM	0	0	120.000
BPM	3	48	180.000
MET	0	0	4	4
MET	2	0	4	2
MET	4	192	4	4
MET	55	192	4	2
MET	56	0	4	4

NMTAP	1	288	3
NMTAP	1	288	4
NMTAP	1	336	3
NMTAP	1	336	4
NMHLD	2	0	2	480
NMHLD	2	0	5	480
NMTTP	4	192	6	E	0	M1
NMTTP	4	288	7	E	0	M1
NMTTP	5	0	0	E	0	M1
NMTTP	5	96	1	E	0	M1
NMTTP	5	192	2	E	0	M1
NMTTP	5	288	3	E	0	M1
NMTTP	6	0	4	E	0	M1
NMTTP	6	96	5	E	0	M1
NMTTP	6	192	6	E	0	M1
NMTTP	6	288	7	E	0	M1
NMTTP	7	0	0	E	0	M1
NMTTP	7	96	1	E	0	M1
NMTTP	7	192	2	E	0	M1
NMTTP	7	288	3	E	0	M1
NMTTP	8	0	0	C	1	M1
NMTTP	8	0	4	E	0	M1
NMTTP	8	192	2	E	0	M1
NMTTP	8	192	2	A	0	M1
NMTTP	8	288	1	E	0	M1
NMTTP	9	0	0	E	0	M1
NMTTP	9	0	0	A	0	M1
NMTTP	9	96	7	E	0	M1
NMTTP	9	192	6	E	0	M1
NMTTP	9	192	6	A	0	M1
NMTTP	9	288	5	E	0	M1
NMTTP	10	0	4	E	0	M1
NMTTP	10	0	4	A	0	M1
NMTTP	10	96	3	E	0	M1
NMTTP	10	192	2	E	0	M1
NMTTP	10	192	2	A	0	M1
NMTTP	10	288	1	E	0	M1
NMTTP	11	0	0	E	0	M1
NMTTP	11	0	0	A	0	M1
NMTTP	11	96	7	E	0	M1
NMTTP	11	192	6	E	0	M1
NMTTP	11	192	6	A	0	M1
NMTTP	11	288	5	E	0	M1
NMTTP	12	0	0	C	1	M1
NMTTP	12	0	4	E	0	M1
NMTAP	12	192	7
NMTAP	12	288	6
NMTAP	13	0	5
NMTAP	13	96	4
NMTAP	13	192	3
NMTAP	13	288	2
NMTAP	14	0	1
NMTAP	14	96	0
NMTAP	14	192	7
NMTAP	14	288	6
NMTAP	15	0	5
NMTAP	15	96	4
NMTAP	15	192	3
NMTAP	15	288	2
NMTTP	16	0	0	C	1	M1
NMTAP	16	192	0
NMTAP	16	192	7
NMTAP	16	288	1
NMTAP	17	0	0
NMTAP	17	0	2
NMTAP	17	96	3
NMTAP	17	192	2
NMTAP	17	192	4
NMTAP	17	288	5
NMTAP	18	0	4
NMTAP	18	0	6
NMTAP	18	96	7
NMTAP	18	192	0
NMTAP	18	192	6
NMTAP	18	288	1
NMTAP	19	0	2
NMTAP	19	0	4
NMTAP	19	96	3
NMTAP	19	192	2
NMTAP	19	192	4
NMTAP	19	288	5
NMTAP	20	0	6
BRTAP	20	96	0
BRTAP	20	96	7
NMSTR	20	192	0
NMSUR	20	192	0	96	96	5
NMSTR	20	192	1
NMSCR	20	192	1	96	96	4
NMTAP	21	96	4
NMTAP	21	96	5
NMHLD	21	192	6	96
NMTAP	21	288	5
BRHLD	22	0	4	96
BRHLD	22	0	7	96
NMHLD	22	192	6	96
NMTAP	22	288	4
NMTAP	23	0	3
NMTAP	23	48	3
NMTAP	23	96	2
NMTAP	23	96	4
NMHLD	23	192	1	96
NMSTR	23	288	3
NMSCL	23	288	3	96	96	0
NMSCR	23	288	3	96	96	6
NMSTR	24	192	6
NMSCL	24	192	6	96	96	3
NMSTR	24	192	7
NMSUL	24	192	7	96	96	2
NMTAP	25	96	2
NMTAP	25	96	3
NMHLD	25	192	1	96
NMTAP	25	288	2
BRHLD	26	0	0	96
BRHLD	26	0	3	96
NMHLD	26	192	1	96
NMTAP	26	288	3
NMTAP	27	0	4
NMTAP	27	48	4
NMSTR	27	96	3
NMSCL	27	96	3	96	96	0
NMSCR	27	96	3	96	96	6
NMTAP	27	96	5
EXTAP	28	0	0
EXTAP	28	0	6
BRTAP	28	96	1
BRTAP	28	96	5
NMTAP	28	192	6
NMHLD	28	240	6	48
NMTAP	28	288	4
NMHLD	28	336	4	48
NMTAP	29	0	2
NMHLD	29	48	2	48
NMTAP	29	96	4
NMHLD	29	144	4	48
NMTAP	29	192	6
NMHLD	29	240	6	48
NMTAP	29	288	4
NMHLD	29	336	4	48
NMTAP	30	0	2
NMHLD	30	48	2	48
BRTAP	30	96	0
NMTAP	30	192	1
NMHLD	30	240	1	48
NMTAP	30	288	3
NMHLD	30	336	3	48
NMTAP	31	0	5
NMHLD	31	48	5	48
NMTAP	31	96	3
NMHLD	31	144	3	48
NMTAP	31	192	1
NMHLD	31	240	1	48
NMTAP	31	288	3
NMHLD	31	336	3	48
BRTAP	32	0	5
BRTAP	32	48	5
BRTAP	32	96	5
NMTAP	32	192	6
NMTAP	32	240	4
NMTAP	32	288	2
NMTAP	32	336	4
NMTAP	33	0	6
NMTAP	33	48	4
NMTAP	33	96	2
NMTAP	33	144	4
NMTAP	33	192	6
NMTAP	33	240	4
NMTAP	33	288	2
NMTAP	33	336	4
NMSTR	34	0	6
NMSI_	34	0	6	96	48	3
NMTAP	34	192	1
NMTAP	34	240	3
NMTAP	34	288	5
NMTAP	34	336	3
NMTAP	35	0	1
NMTAP	35	48	3
NMTAP	35	96	5
NMTAP	35	144	3
NMHLD	35	192	1	240
NMTAP	35	240	2
NMTAP	35	288	2
NMTAP	35	336	2
NMTAP	36	0	2
NMTAP	36	48	2
BRTAP	36	96	0
BRTAP	36	96	3
NMTAP	36	192	2
NMTAP	36	192	4
NMTAP	36	240	2
NMTAP	36	240	4
NMTAP	36	336	6
NMTAP	36	336	7
NMTAP	37	48	1
NMTAP	37	48	2
NMTAP	37	144	5
NMTAP	37	192	5
NMTAP	37	240	3
NMTAP	37	336	0
NMTAP	37	336	1
NMTAP	38	48	5
NMTAP	38	48	6
NMTAP	38	144	2
NMTAP	38	192	2
NMTAP	38	240	4
NMTAP	38	336	6
NMTAP	38	336	7
NMTAP	39	48	1
NMTAP	39	48	2
NMTAP	39	144	5
NMTAP	39	192	5
NMTAP	39	240	3
NMTAP	39	336	1
NMTAP	39	336	7
NMTAP	40	48	2
NMTAP	40	48	3
NMTAP	40	144	6
NMTAP	40	192	6
NMTAP	40	240	0
NMTAP	40	336	2
NMTAP	40	336	3
NMTAP	41	48	5
NMTAP	41	48	6
NMTAP	41	144	1
NMTAP	41	192	1
NMTAP	41	240	7
NMTAP	41	336	4
NMTAP	41	336	5
NMTAP	42	48	1
NMTAP	42	48	2
NMTAP	42	144	6
NMTAP	42	192	6
NMTAP	42	240	0
NMTAP	42	336	2
NMTAP	42	336	3
NMTAP	43	48	5
NMTAP	43	48	6
NMTAP	43	144	1
NMTAP	43	192	1
NMTAP	43	240	7
NMTAP	43	336	3
NMTAP	43	336	5
NMHLD	44	0	3	96
NMHLD	44	0	5	96
EXTAP	44	192	6
NMTAP	44	240	5
NMTAP	44	288	4
NMTAP	44	336	3
EXTAP	45	0	5
NMTAP	45	48	4
NMTAP	45	96	3
NMTAP	45	144	2
EXTAP	45	192	4
NMTAP	45	240	3
NMTAP	45	288	2
NMTAP	45	336	1
EXTAP	46	0	3
NMTAP	46	48	2
NMTAP	46	96	1
NMTAP	46	144	0
EXTAP	46	192	2
NMTAP	46	240	1
NMTAP	46	288	0
NMTAP	46	336	7
EXTAP	47	0	1
NMTAP	47	48	0
NMTAP	47	96	7
NMTAP	47	144	6
EXTAP	47	192	0
NMTAP	47	240	7
NMTAP	47	288	6
NMTAP	47	336	5
EXTAP	48	0	7
NMTAP	48	96	0
NMTAP	48	96	6
EXTAP	48	192	1
NMTAP	48	240	2
NMTAP	48	288	3
NMTAP	48	336	4
EXTAP	49	0	2
NMTAP	49	48	3
NMTAP	49	96	4
NMTAP	49	144	5
EXTAP	49	192	3
NMTAP	49	240	4
NMTAP	49	288	5
NMTAP	49	336	6
EXTAP	50	0	4
NMTAP	50	48	5
NMTAP	50	96	6
NMTAP	50	144	7
EXTAP	50	192	5
NMTAP	50	240	6
NMTAP	50	288	7
NMTAP	50	336	0
EXTAP	51	0	6
NMTAP	51	48	7
NMTAP	51	96	0
NMTAP	51	144	1
EXTAP	51	192	7
NMTAP	51	240	0
NMTAP	51	288	1
NMTAP	51	336	2
EXTAP	52	0	0
BRSTR	52	96	2
NMSUR	52	96	2	96	384	5
BRTAP	52	96	6
NMTAP	55	288	4
NMTAP	55	336	3
NMHLD	56	0	2	192
NMHLD	56	192	0	192
NMHLD	57	0	7	96
NMTAP	57	96	5
NMTAP	57	144	5
NMTAP	57	192	5
NMTAP	57	288	3
NMTAP	57	288	4
NMHLD	58	0	2	96
NMHLD	58	96	0	96
NMHLD	58	192	7	96
NMSTR	58	288	5
NMSUL	58	288	5	96	192	2
NMTAP	59	288	0
NMHLD	60	0	6	192
NMHLD	60	192	4	192
NMHLD	61	0	3	96
NMTAP	61	96	1
NMTAP	61	144	1
NMTAP	61	192	1
NMTAP	61	288	0
NMTAP	61	288	7
NMHLD	62	0	6	192
NMHLD	62	192	4	384
NMHLD	63	0	2	192
NMTAP	63	288	3
NMTAP	63	336	4
NMHLD	64	0	5	192
NMHLD	64	192	7	192
NMHLD	65	0	0	96
NMTAP	65	96	2
NMTAP	65	144	2
NMTAP	65	192	2
NMTAP	65	288	3
NMTAP	65	288	4
NMHLD	66	0	5	96
NMHLD	66	96	7	96
NMHLD	66	192	0	96
NMSTR	66	288	2
NMSUR	66	288	2	96	192	5
NMTAP	67	288	7
NMHLD	68	0	1	192
NMHLD	68	192	3	192
BRHLD	69	0	4	96
NMTAP	69	96	6
NMTAP	69	144	6
NMTAP	69	192	6
NMTAP	69	288	0
NMTAP	69	288	7
NMHLD	70	0	1	96
NMHLD	70	96	3	96
NMHLD	70	192	4	96
NMHLD	70	288	6	96
BRSTR	71	0	0
NMSF_	71	0	0	96	96	4
NMTTP	71	288	3	A	0	M1
NMTTP	71	288	4	B	0	M1
NMTTP	71	288	4	E	0	M1
NMTTP	71	288	5	E	0	M1
NMTTP	71	288	5	A	0	M1
NMHLD	72	0	2	384
NMTAP	72	96	3
NMTAP	72	192	3
NMTAP	72	288	3
NMHLD	73	0	5	384
NMTAP	73	96	4
NMTAP	73	192	4
NMTAP	73	288	4
NMHLD	74	0	1	384
NMTAP	74	96	3
NMTAP	74	192	3
NMTAP	74	288	3
NMHLD	75	0	6	384
NMTAP	75	96	4
NMTAP	75	192	4
NMTAP	75	288	4
NMTAP	76	0	0
NMTAP	76	48	0
NMTAP	76	96	1
NMTAP	76	144	1
NMTAP	76	192	2
NMTAP	76	240	2
NMTAP	76	288	3
NMTAP	76	336	3
NMTAP	77	0	4
NMTAP	77	48	4
NMTAP	77	96	5
NMTAP	77	144	5
NMTAP	77	192	6
NMTAP	77	240	6
NMTAP	77	288	7
NMTAP	77	336	7
BRSTR	78	0	0
NMSSL	78	0	0	96	288	4
NMTAP	79	192	3
NMTAP	79	192	4
BRTAP	79	288	1
BRTAP	79	288	6
NMTAP	80	0	0
NMTAP	80	0	1
NMTAP	80	96	3
NMTAP	80	96	4
NMTAP	80	192	6
NMTAP	80	192	7
NMSTR	80	240	6
NMSI_	80	240	6	96	48	4
NMSTR	80	240	7
NMSI_	80	240	7	96	48	3
NMTAP	81	48	1
NMHLD	81	96	1	96
NMTAP	81	192	3
NMTAP	81	288	4
NMTAP	81	288	6
NMTAP	82	0	6
NMTAP	82	0	7
NMTAP	82	96	3
NMTAP	82	96	4
NMTAP	82	192	0
NMTAP	82	192	1
NMSTR	82	240	0
NMSI_	82	240	0	96	48	4
NMSTR	82	240	1
NMSI_	82	240	1	96	48	3
NMTAP	83	48	7
NMHLD	83	96	7	96
NMTAP	83	192	0
NMTAP	83	240	0
NMTAP	83	288	1
NMTAP	83	288	5
NMTAP	84	0	6
NMTAP	84	0	7
NMTAP	84	96	3
NMTAP	84	96	4
NMTAP	84	192	0
NMTAP	84	192	1
NMSTR	84	240	0
NMSI_	84	240	0	96	48	4
NMSTR	84	240	1
NMSI_	84	240	1	96	48	3
NMTAP	85	48	6
NMHLD	85	96	6	96
NMTAP	85	192	4
NMTAP	85	288	1
NMTAP	85	288	3
NMTAP	86	0	0
NMTAP	86	0	1
NMTAP	86	96	2
NMTAP	86	96	3
NMTAP	86	192	4
NMTAP	86	192	5
NMSTR	86	240	4
NMSI_	86	240	4	96	48	0
NMSTR	86	240	5
NMSI_	86	240	5	96	48	7
EXTAP	87	48	7
EXHLD	87	96	7	96
NMTAP	87	192	0
NMTAP	87	240	0
NMTAP	87	288	1
NMTAP	87	288	6
NMTAP	88	0	6
NMTAP	88	0	7
NMTAP	88	96	3
NMTAP	88	96	4
NMTAP	88	192	0
NMTAP	88	192	1
NMSTR	88	240	0
NMSI_	88	240	0	96	48	3
NMSTR	88	240	1
NMSI_	88	240	1	96	48	4
NMTAP	89	48	6
NMTAP	89	96	6
NMTAP	89	144	4
NMTAP	89	144	5
NMTAP	89	192	4
NMTAP	89	192	5
NMTAP	89	288	1
NMTAP	89	336	1
NMTAP	90	0	0
NMTAP	90	96	3
NMTAP	90	96	4
NMTAP	90	192	6
NMTAP	90	192	7
NMSTR	90	240	6
NMSI_	90	240	6	96	48	4
NMSTR	90	240	7
NMSI_	90	240	7	96	48	3
NMTAP	91	48	0
NMHLD	91	96	0	96
NMTAP	91	192	7
NMTAP	91	240	7
NMTAP	91	288	2
NMTAP	91	288	6
NMTAP	92	0	0
NMTAP	92	0	1
NMTAP	92	96	3
NMTAP	92	96	4
NMTAP	92	192	6
NMTAP	92	192	7
NMSTR	92	240	6
NMSI_	92	240	6	96	48	3
NMSTR	92	240	7
NMSI_	92	240	7	96	48	4
NMTAP	93	48	1
NMTAP	93	96	1
NMTAP	93	144	2
NMTAP	93	144	3
NMTAP	93	192	2
NMTAP	93	192	3
NMTAP	93	288	6
NMTAP	93	336	6
NMTAP	94	0	7
NMTAP	94	96	4
NMTAP	94	96	5
NMSTR	94	192	2
NMSI_	94	192	2	96	48	0
NMSTR	94	192	3
NMSI_	94	192	3	96	48	7
NMTAP	95	48	0
NMTAP	95	96	0
NMTAP	95	144	0
NMTAP	95	144	7
NMTAP	95	192	0
NMTAP	95	192	7
BRTAP	95	288	1
BRTAP	95	288	6
NMSTR	96	0	2
NMSI_	96	0	2	96	48	7
NMSTR	96	96	6
NMSI_	96	96	6	96	48	3
NMTAP	96	192	0
NMTAP	96	240	0
NMTAP	96	288	0
NMSTR	97	0	1
NMSCR	97	0	1	96	96	4
NMSTR	97	0	5
NMSCR	97	0	5	96	96	0
NMTAP	97	288	3
NMTAP	97	288	7
NMSTR	98	0	6
NMSI_	98	0	6	96	48	3
NMSTR	98	96	2
NMSI_	98	96	2	96	48	7
NMTAP	98	192	4
NMTAP	98	240	4
NMTAP	98	288	4
NMSTR	99	0	1
NMSCR	99	0	1	96	96	4
NMSTR	99	0	5
NMSCR	99	0	5	96	96	0
NMTAP	99	288	3
NMTAP	99	288	7
NMSTR	100	0	6
NMSI_	100	0	6	96	48	1
NMSTR	100	96	2
NMSI_	100	96	2	96	48	5
NMTAP	100	192	0
NMTAP	100	240	0
NMTAP	100	288	7
NMSTR	101	0	2
NMSCR	101	0	2	96	96	5
NMSTR	101	0	6
NMSCR	101	0	6	96	96	1
NMTAP	101	288	3
NMTAP	101	288	7
NMSTR	102	0	5
NMSI_	102	0	5	96	48	2
NMSTR	102	96	1
NMSI_	102	96	1	96	48	6
NMTAP	102	192	3
NMTAP	102	240	3
NMTAP	102	288	4
NMTAP	103	0	1
NMTAP	103	0	5
NMTAP	103	96	3
NMTAP	103	96	7
NMTAP	103	192	2
NMTAP	103	240	2
NMTAP	103	288	4
NMTAP	103	336	4
NMSTR	104	0	0
NMSI_	104	0	0	96	48	4
NMTAP	104	96	5
NMTAP	104	192	6
NMTAP	104	240	6
NMTAP	104	288	4
NMTAP	104	336	4
NMTAP	105	0	2
NMTAP	105	48	4
NMTAP	105	96	6
NMTAP	105	144	4
NMTAP	105	192	2
NMTAP	105	288	1
NMTAP	105	288	5
NMSTR	106	0	7
NMSI_	106	0	7	96	48	3
NMTAP	106	96	2
NMTAP	106	192	1
NMTAP	106	240	1
NMTAP	106	288	3
NMTAP	106	336	3
NMTAP	107	0	5
NMTAP	107	48	3
NMTAP	107	96	1
NMTAP	107	144	3
NMTAP	107	192	5
NMTAP	107	288	2
NMTAP	107	288	6
NMTAP	108	0	1
NMTAP	108	48	7
NMTAP	108	96	5
NMTAP	108	144	7
NMTAP	108	192	1
NMTAP	108	240	7
NMTAP	108	288	5
NMTAP	108	336	7
NMTAP	109	0	1
NMTAP	109	48	7
NMTAP	109	96	5
NMTAP	109	144	7
NMHLD	109	192	1	96
NMTAP	109	288	7
NMTAP	110	0	6
NMTAP	110	48	0
NMTAP	110	96	2
NMTAP	110	144	0
NMTAP	110	192	6
NMTAP	110	240	0
NMTAP	110	288	2
NMTAP	110	336	0
NMTAP	111	0	6
NMTAP	111	48	0
NMTAP	111	96	2
NMTAP	111	144	0
NMTAP	111	192	0
NMTAP	111	192	7
NMTAP	111	240	0
NMTAP	111	240	7
NMSTR	111	288	0
BRSI_	111	288	0	96	48	4
NMSTR	111	288	7
BRSI_	111	288	7	96	48	3

T_REC_TAP	415
T_REC_BRK	15
T_REC_XTP	19
T_REC_BXX	0
T_REC_HLD	56
T_REC_XHO	1
T_REC_BHO	5
T_REC_BXH	0
T_REC_STR	43
T_REC_BST	3
T_REC_XST	0
T_REC_XBS	0
T_REC_TTP	45
T_REC_THO	0
T_REC_SLD	46
T_REC_BSL	2
T_REC_ALL	650
T_NUM_TAP	522
T_NUM_BRK	25
T_NUM_HLD	57
T_NUM_SLD	46
T_NUM_ALL	650
T_JUDGE_TAP	540
T_JUDGE_HLD	180
T_JUDGE_SLD	48
T_JUDGE_ALL	768
TTM_EACHPAIRS	102
TTM_SCR_TAP	261000
TTM_SCR_BRK	65000
TTM_SCR_HLD	57000
TTM_SCR_SLD	69000
TTM_SCR_ALL	452000
TTM_SCR_S	436050
TTM_SCR_SS	449500
TTM_RAT_ACV	10055

