VERSION	0.00.00	1.04.00
FES_MODE	0
BPM_DEF	120.000	180.000	180.000	120.000
MET_DEF	4	4
RESOLUTION	384
CLK_DEF	384
COMPATIBLE_CODE	MA2

BPM	0	0	120.000
BPM	3	48	180.000
MET	0	0	4	4
MET	2	0	4	2
MET	4	192	4	4
MET	55	192	4	2
MET	56	0	4	4

NMTHO	2	0	0	576	C	0	L1
NMTAP	4	192	1
NMTAP	4	288	1
NMTAP	5	0	1
NMTAP	5	192	2
NMTAP	5	288	2
NMTAP	6	0	2
NMTAP	6	192	3
NMTAP	6	288	3
NMTAP	7	0	3
NMTAP	7	192	4
NMTAP	7	288	4
EXTAP	8	0	4
EXTAP	8	0	5
NMTAP	8	192	6
NMTAP	8	288	6
NMTAP	9	0	6
NMTAP	9	192	5
NMTAP	9	288	5
NMTAP	10	0	5
NMTAP	10	192	4
NMTAP	10	288	4
NMTAP	11	0	4
NMTAP	11	192	3
NMTAP	11	288	3
EXTAP	12	0	2
EXTAP	12	0	3
NMTAP	12	192	2
NMTAP	12	288	2
NMTAP	13	0	2
NMTAP	13	96	2
NMTAP	13	192	1
NMTAP	13	288	1
NMTAP	14	0	1
NMTAP	14	96	1
NMTAP	14	192	0
NMTAP	14	288	0
NMTAP	15	0	0
NMTAP	15	96	0
NMTAP	15	192	7
NMTAP	15	288	7
EXTAP	16	0	6
EXTAP	16	0	7
NMTAP	16	192	5
NMTAP	16	288	5
NMTAP	17	0	5
NMTAP	17	96	5
NMTAP	17	192	6
NMTAP	17	288	6
NMTAP	18	0	6
NMTAP	18	96	6
NMTAP	18	192	7
NMTAP	18	288	7
NMTAP	19	0	7
NMTAP	19	96	7
NMTAP	19	192	0
NMTAP	19	288	0
BRTAP	20	0	0
BRTAP	20	0	1
NMSTR	20	192	1
NMSI_	20	192	1	96	192	4
NMTAP	21	192	5
NMTAP	21	288	5
EXTAP	22	0	4
EXTAP	22	0	5
NMSTR	22	192	6
NMSI_	22	192	6	96	192	3
NMTAP	23	192	2
NMTAP	23	288	2
NMTAP	24	0	2
NMTAP	24	0	3
NMSTR	24	192	2
NMSI_	24	192	2	96	192	7
NMTAP	25	192	6
NMTAP	25	288	6
EXTAP	26	0	6
EXTAP	26	0	7
NMSTR	26	192	5
NMSI_	26	192	5	96	192	0
NMTAP	27	192	1
NMTAP	27	288	1
NMTAP	28	0	0
NMTAP	28	0	1
NMSTR	28	192	1
NMSCR	28	192	1	96	192	4
NMSTR	29	192	6
NMSCL	29	192	6	96	192	3
NMSTR	30	192	1
NMSI_	30	192	1	96	192	5
NMTAP	31	192	6
NMTAP	31	288	6
NMTAP	32	0	6
NMTAP	32	0	7
NMSTR	32	192	6
NMSCL	32	192	6	96	192	3
NMSTR	33	192	1
NMSCR	33	192	1	96	192	4
NMSTR	34	192	6
NMSI_	34	192	6	96	192	2
NMTAP	35	192	1
NMTAP	35	288	1
NMTAP	36	0	0
NMTAP	36	0	1
NMTAP	36	192	1
NMTAP	36	288	1
NMTAP	37	0	2
NMTAP	37	96	2
NMTAP	37	192	3
NMTAP	37	288	3
NMTAP	38	0	4
NMTAP	38	0	5
NMTAP	38	192	6
NMTAP	38	288	6
NMTAP	39	0	5
NMTAP	39	96	5
NMTAP	39	192	4
NMTAP	39	288	4
NMTAP	40	0	2
NMTAP	40	0	3
NMTAP	40	192	2
NMTAP	40	288	2
NMTAP	41	0	1
NMTAP	41	96	1
NMTAP	41	192	0
NMTAP	41	288	0
NMTAP	42	0	6
NMTAP	42	0	7
NMTAP	42	192	5
NMTAP	42	288	5
NMTAP	43	0	6
NMTAP	43	96	6
NMTAP	43	192	7
NMTAP	43	288	7
NMTAP	44	0	0
NMTAP	44	0	7
NMTTP	44	192	1	B	0	L1
NMTTP	44	288	2	B	0	L1
NMTTP	45	0	3	B	0	L1
NMTTP	45	192	6	B	0	L1
NMTTP	45	288	5	B	0	L1
NMTTP	46	0	4	B	0	L1
NMTTP	46	192	1	E	0	L1
NMTTP	46	288	2	E	0	L1
NMTTP	47	0	3	E	0	L1
NMTTP	47	192	7	E	0	L1
NMTTP	47	288	6	E	0	L1
NMTTP	48	0	5	E	0	L1
NMTTP	48	192	0	B	0	L1
NMTTP	48	288	1	B	0	L1
NMTTP	49	0	2	B	0	L1
NMTTP	49	0	3	B	0	L1
NMTTP	49	192	7	B	0	L1
NMTTP	49	288	6	B	0	L1
NMTTP	50	0	4	B	0	L1
NMTTP	50	0	5	B	0	L1
NMTTP	50	192	2	B	0	L1
NMTTP	50	288	1	B	0	L1
NMTTP	51	0	0	B	0	L1
NMTTP	51	96	7	B	0	L1
NMTTP	51	192	6	B	0	L1
NMTTP	51	288	5	B	0	L1
NMTTP	52	0	3	B	0	L1
NMTTP	52	0	4	B	0	L1
NMTHO	52	192	0	768	C	1	L1
NMHLD	56	0	1	384
NMHLD	57	0	2	384
NMHLD	58	0	3	384
NMTAP	59	0	4
NMHLD	60	0	6	384
NMHLD	61	0	5	384
NMHLD	62	0	4	384
NMTAP	63	0	3
NMHLD	64	0	2	192
NMHLD	64	192	1	192
NMHLD	65	0	0	192
NMHLD	65	192	7	192
NMHLD	66	0	6	192
NMHLD	66	192	5	192
NMHLD	67	0	4	192
NMTAP	67	192	3
NMHLD	68	0	5	192
NMHLD	68	192	6	192
NMHLD	69	0	7	192
NMHLD	69	192	0	192
NMHLD	70	0	1	192
NMHLD	70	192	2	192
NMHLD	71	0	3	192
NMTAP	71	192	4
NMTAP	72	0	2
NMTAP	72	96	2
NMTAP	72	192	2
NMTAP	72	192	3
NMTAP	73	0	1
NMTAP	73	96	1
NMTAP	73	192	0
NMTAP	73	192	1
NMTAP	74	0	6
NMTAP	74	96	6
NMTAP	74	192	6
NMTAP	74	192	7
NMTAP	75	0	5
NMTAP	75	96	5
NMTAP	75	192	4
NMTAP	75	192	5
NMTAP	76	0	4
NMTAP	76	96	5
NMTAP	76	192	6
NMTAP	76	288	7
NMTAP	77	0	0
NMTAP	77	96	1
NMTAP	77	192	2
NMTAP	77	288	3
NMHLD	78	0	3	384
NMHLD	78	0	4	384
BRTAP	79	192	3
BRTAP	79	192	4
NMTAP	80	0	1
NMTAP	80	96	1
NMTAP	80	192	2
NMTAP	80	192	3
NMTAP	80	288	2
NMTAP	80	288	3
NMTAP	81	0	4
NMTAP	81	96	4
NMTAP	81	192	4
NMTAP	81	192	5
NMTAP	82	0	6
NMTAP	82	96	6
NMTAP	82	192	4
NMTAP	82	192	5
NMTAP	82	288	4
NMTAP	82	288	5
NMTAP	83	0	3
NMTAP	83	96	3
NMTAP	83	192	2
NMTAP	83	192	3
NMTAP	84	0	2
NMTAP	84	96	2
NMTAP	84	192	0
NMTAP	84	192	1
NMTAP	84	288	0
NMTAP	84	288	1
NMTAP	85	0	7
NMTAP	85	96	7
NMTAP	85	192	6
NMTAP	85	192	7
NMTAP	86	0	5
NMTAP	86	96	5
NMTAP	86	192	6
NMTAP	86	192	7
NMTAP	86	288	6
NMTAP	86	288	7
NMTAP	87	0	0
NMTAP	87	96	0
NMTAP	87	192	0
NMTAP	87	192	1
NMTAP	88	0	7
NMTAP	88	96	7
NMTAP	88	192	6
NMTAP	88	192	7
NMTAP	88	288	6
NMTAP	88	288	7
NMTAP	89	0	5
NMTAP	89	96	5
NMTAP	89	192	4
NMTAP	89	192	5
NMTAP	89	288	4
NMTAP	89	288	5
NMTAP	90	0	3
NMTAP	90	96	3
NMTAP	90	192	2
NMTAP	90	192	3
NMTAP	90	288	2
NMTAP	90	288	3
NMTAP	91	0	0
NMTAP	91	0	1
NMTAP	91	96	0
NMTAP	91	96	1
NMTAP	91	192	0
NMTAP	91	192	1
NMTAP	92	0	0
NMTAP	92	96	0
NMTAP	92	192	0
NMTAP	92	192	1
NMTAP	92	288	0
NMTAP	92	288	1
NMTAP	93	0	2
NMTAP	93	96	2
NMTAP	93	192	2
NMTAP	93	192	3
NMTAP	93	288	2
NMTAP	93	288	3
NMTAP	94	0	4
NMTAP	94	96	4
NMTAP	94	192	4
NMTAP	94	192	5
NMTAP	94	288	4
NMTAP	94	288	5
NMTAP	95	0	6
NMTAP	95	0	7
NMTAP	95	96	6
NMTAP	95	96	7
NMTAP	95	192	6
NMTAP	95	192	7
NMTAP	96	0	4
NMTAP	96	0	5
NMTAP	96	96	4
NMTAP	96	96	5
NMTAP	96	192	6
NMTAP	96	240	6
NMTAP	96	288	6
NMTAP	97	0	6
NMTAP	97	0	7
NMTAP	97	96	6
NMTAP	97	96	7
NMTAP	97	192	0
NMTAP	97	240	0
NMTAP	97	288	0
NMTAP	98	0	0
NMTAP	98	0	1
NMTAP	98	96	0
NMTAP	98	96	1
NMTAP	98	192	2
NMTAP	98	240	2
NMTAP	98	288	2
NMTAP	99	0	2
NMTAP	99	0	3
NMTAP	99	96	2
NMTAP	99	96	3
NMTAP	99	192	1
NMTAP	99	192	4
NMTAP	100	0	2
NMTAP	100	0	3
NMTAP	100	96	2
NMTAP	100	96	3
NMTAP	100	192	1
NMTAP	100	240	1
NMTAP	100	288	1
NMTAP	101	0	0
NMTAP	101	0	1
NMTAP	101	96	0
NMTAP	101	96	1
NMTAP	101	192	7
NMTAP	101	240	7
NMTAP	101	288	7
NMTAP	102	0	6
NMTAP	102	0	7
NMTAP	102	96	6
NMTAP	102	96	7
NMTAP	102	192	5
NMTAP	102	240	5
NMTAP	102	288	5
NMTAP	103	0	4
NMTAP	103	0	5
NMTAP	103	96	4
NMTAP	103	96	5
NMTAP	103	192	3
NMTAP	103	192	6
NMTAP	104	0	6
NMTAP	104	48	6
NMTAP	104	96	6
NMTAP	104	192	5
NMTAP	104	240	5
NMTAP	104	288	5
NMTAP	105	0	4
NMTAP	105	48	4
NMTAP	105	96	4
NMTAP	105	192	2
NMTAP	105	192	3
NMTAP	106	0	1
NMTAP	106	48	1
NMTAP	106	96	1
NMTAP	106	192	2
NMTAP	106	240	2
NMTAP	106	288	2
NMTAP	107	0	3
NMTAP	107	48	3
NMTAP	107	96	3
NMTAP	107	192	4
NMTAP	107	192	5
NMTAP	108	0	5
NMTAP	108	48	5
NMTAP	108	96	5
NMTAP	108	192	6
NMTAP	108	240	6
NMTAP	108	288	6
NMTAP	109	0	7
NMTAP	109	48	7
NMTAP	109	96	7
NMTAP	109	192	0
NMTAP	109	192	1
NMTAP	110	0	2
NMTAP	110	48	2
NMTAP	110	96	2
NMTAP	110	192	1
NMTAP	110	240	1
NMTAP	110	288	1
NMTAP	111	0	0
NMTAP	111	48	0
NMTAP	111	96	0
NMTAP	111	192	6
NMTAP	111	192	7
BXTAP	112	0	0
BXTAP	112	0	7

T_REC_TAP	316
T_REC_BRK	4
T_REC_XTP	10
T_REC_BXX	2
T_REC_HLD	22
T_REC_XHO	0
T_REC_BHO	0
T_REC_BXH	0
T_REC_STR	10
T_REC_BST	0
T_REC_XST	0
T_REC_XBS	0
T_REC_TTP	28
T_REC_THO	2
T_REC_SLD	10
T_REC_BSL	0
T_REC_ALL	404
T_NUM_TAP	364
T_NUM_BRK	6
T_NUM_HLD	24
T_NUM_SLD	10
T_NUM_ALL	404
T_JUDGE_TAP	370
T_JUDGE_HLD	148
T_JUDGE_SLD	10
T_JUDGE_ALL	528
TTM_EACHPAIRS	73
TTM_SCR_TAP	182000
TTM_SCR_BRK	15600
TTM_SCR_HLD	24000
TTM_SCR_SLD	15000
TTM_SCR_ALL	236600
TTM_SCR_S	228950
TTM_SCR_SS	236000
TTM_RAT_ACV	10025

