VERSION	0.00.00	1.04.00
FES_MODE	0
BPM_DEF	128.000	128.000	128.000	128.000
MET_DEF	4	4
RESOLUTION	384
CLK_DEF	384
COMPATIBLE_CODE	MA2

BPM	0	0	128.000
MET	0	0	4	4
MET	55	0	4	1
MET	55	96	4	4

NMTAP	1	336	1
NMTAP	1	336	4
BXHLD	2	0	2	672
BXTAP	2	0	3
NMTAP	2	96	3
NMTAP	2	192	1
NMTAP	2	288	1
NMTAP	3	0	0
NMTAP	3	96	0
NMTAP	3	192	7
NMTAP	3	288	7
NMTAP	3	336	3
NMTAP	3	336	6
BXTAP	4	0	4
BXHLD	4	0	5	288
NMTAP	4	96	6
NMTAP	4	192	7
NMTAP	4	288	0
NMSTR	5	0	1
NMSI_	5	0	1	96	48	6
NMTAP	5	48	1
NMSTR	5	96	4
NMSCR	5	96	4	96	48	7
NMTAP	5	144	4
NMSTR	5	192	3
BRSI_	5	192	3	96	48	0
NMTAP	5	240	3
BXTAP	5	288	4
NMTAP	6	0	5
NMTAP	6	24	4
NMTAP	6	48	5
NMTAP	6	72	4
NMTAP	6	96	5
NMHLD	6	120	4	48
NMHLD	6	168	6	48
NMTAP	6	216	7
NMHLD	6	240	7	48
NMTAP	6	288	5
NMTAP	6	312	4
NMTAP	6	336	5
NMHLD	7	0	3	48
NMTAP	7	48	5
NMTAP	7	72	5
NMTAP	7	96	4
NMTAP	7	120	4
NMHLD	7	168	6	48
NMTAP	7	216	7
NMTAP	7	240	6
NMTAP	7	264	7
NMHLD	7	288	5	48
NMTAP	7	336	4
NMTAP	8	0	4
NMTAP	8	0	5
NMTAP	8	48	3
NMTAP	8	48	4
NMTAP	8	96	2
NMTAP	8	96	3
NMTAP	8	144	1
NMTAP	8	144	4
NMTAP	8	168	1
NMTAP	8	168	4
NMTAP	8	216	6
NMTAP	8	240	0
NMTAP	8	264	6
NMSTR	8	288	0
NMSCR	8	288	0	96	48	4
NMSTR	9	0	4
NMSCL	9	0	4	96	48	0
NMTAP	9	96	7
NMTAP	9	192	6
NMTAP	9	192	7
NMTAP	9	240	3
NMTAP	9	240	4
BRTAP	9	288	0
BRTAP	9	288	2
NMSTR	10	0	6
NMSI_	10	0	6	96	48	3
NMSTR	10	96	3
NMSI_	10	96	3	96	48	6
NMTAP	10	192	1
NMTAP	10	240	0
EXTAP	10	288	0
EXTAP	10	336	1
NMHLD	11	0	2	96
NMTAP	11	48	3
NMHLD	11	96	4	96
NMTAP	11	144	3
NMHLD	11	192	2	96
NMSTR	11	240	3
NMSI_	11	240	3	96	24	6
NMSTR	11	288	3
NMSI_	11	288	3	96	24	0
NMTAP	12	96	1
NMTAP	12	96	5
NMTAP	12	192	2
NMTAP	12	240	3
NMSTR	12	288	4
NMSUL	12	288	4	96	120	3
NMTAP	12	288	6
NMTAP	12	336	5
NMTAP	13	0	2
NMTAP	13	96	1
NMTAP	13	144	2
NMTAP	13	192	3
NMHLD	13	288	2	48
NMHLD	13	288	3	48
BRTAP	14	0	0
BRTAP	14	0	1
NMTAP	14	96	7
NMTAP	14	144	6
NMTAP	14	192	5
NMTAP	14	288	1
NMTAP	14	288	4
NMHLD	14	336	2	288
NMSTR	14	336	3
NMSI_	14	336	3	96	24	5
EXSTR	15	48	3
NMSI_	15	48	3	96	24	1
EXSTR	15	144	3
NMSI_	15	144	3	96	24	5
EXTAP	15	240	3
CNSI_	15	264	5	0	48	1
NMTAP	15	336	0
NMSTR	16	0	0
NMSI_	16	0	0	96	24	3
EXTAP	16	96	0
EXTAP	16	96	4
NMTAP	16	192	5
NMTAP	16	240	6
NMSTR	16	288	1
NMSUL	16	288	1	96	96	0
NMTAP	16	288	7
NMSTR	17	0	0
NMSCL	17	0	0	96	120	1
BRTAP	17	288	0
BRTAP	17	288	7
NMHLD	18	0	3	48
NMTAP	18	0	5
NMTAP	18	48	7
NMTAP	18	96	2
NMHLD	18	96	4	48
NMTAP	18	144	0
NMHLD	18	192	3	48
NMTAP	18	192	5
NMTAP	18	240	7
NMTAP	18	288	2
NMHLD	18	288	4	48
NMTAP	18	336	0
NMSTR	19	0	2
NMSCL	19	0	2	96	48	7
NMTAP	19	0	5
NMSTR	19	48	6
NMSCL	19	48	6	96	48	3
NMTAP	19	96	2
NMTAP	19	144	6
NMTTP	19	192	0	C	0	M1
EXTAP	19	288	4
EXTAP	19	288	7
NMHLD	20	0	3	48
NMTAP	20	0	5
NMTAP	20	48	7
NMTAP	20	96	2
NMHLD	20	96	4	48
NMTAP	20	144	0
NMHLD	20	192	3	48
NMTAP	20	192	5
NMTAP	20	240	7
NMTAP	20	288	2
NMTAP	20	288	4
NMSTR	20	336	1
NMSI_	20	336	1	96	48	3
NMTAP	20	336	5
NMHLD	21	48	6	192
CNSI_	21	96	3	0	48	0
CNSI_	21	144	0	0	48	4
NMTAP	21	240	7
NMSTR	21	288	0
NMSI_	21	288	0	96	24	4
NMTAP	21	336	1
NMTAP	21	336	7
EXTAP	22	0	0
NMTAP	22	96	2
NMHLD	22	96	4	48
NMTAP	22	144	0
NMHLD	22	192	3	48
NMTAP	22	192	5
NMTAP	22	240	7
NMSTR	22	288	2
NMSCR	22	288	2	96	48	6
NMHLD	22	288	4	48
NMTAP	22	336	0
BXTAP	23	0	2
NMHLD	23	96	7	48
NMHLD	23	144	0	48
NMHLD	23	192	1	48
NMHLD	23	240	2	48
NMHLD	23	288	3	48
NMHLD	23	336	4	48
NMSTR	24	0	5
NMSI_	24	0	5	96	48	2
NMHLD	24	48	1	96
NMTAP	24	96	5
NMSTR	24	192	6
NMSI_	24	192	6	96	48	1
NMHLD	24	240	2	96
NMTAP	24	288	6
NMTAP	25	0	4
NMTAP	25	24	3
NMTAP	25	48	4
NMTAP	25	72	3
NMTAP	25	96	6
NMHLD	25	120	7	48
NMHLD	25	168	3	48
NMTAP	25	216	2
NMTAP	25	240	3
NMTAP	25	264	2
NMTAP	25	288	4
NMTAP	25	336	1
NMTAP	25	336	6
BRTAP	26	0	0
BRSTR	26	0	7
NMSCR	26	0	7	96	960	6
NMTTP	26	288	2	B	0	M1
NMTTP	27	96	3	B	0	M1
NMTTP	27	288	4	B	0	M1
NMTTP	28	96	5	B	0	M1
NMTTP	28	288	6	B	0	M1
NMTAP	29	0	0
NMTAP	29	24	0
NMTAP	29	48	0
NMTAP	29	96	1
NMTAP	29	96	7
NMTAP	29	144	2
NMTAP	29	144	6
NMTAP	29	168	2
NMTAP	29	168	6
NMTAP	29	216	3
NMTAP	29	240	5
BXTAP	29	288	2
BXTAP	29	288	6
NMSTR	30	0	0
NMSI_	30	0	0	96	48	3
NMTAP	30	0	7
NMTAP	30	96	0
NMTAP	30	96	1
NMTAP	30	144	2
NMSTR	30	192	3
NMSI_	30	192	3	96	48	0
NMTAP	30	288	5
NMSTR	31	0	7
NMSI_	31	0	7	96	48	4
NMTAP	31	96	6
NMTAP	31	96	7
NMTAP	31	144	5
NMTAP	31	192	3
NMTAP	31	288	0
NMTAP	31	288	7
NMTAP	32	0	3
NMTAP	32	24	3
NMTAP	32	48	4
NMTAP	32	72	4
NMTAP	32	96	5
NMTAP	32	120	5
NMTAP	32	144	6
NMTAP	32	168	6
EXTAP	32	192	7
EXTAP	32	204	0
EXTAP	32	216	1
EXTAP	32	228	2
EXTAP	32	240	3
EXTAP	32	252	4
EXTAP	32	264	5
EXTAP	32	276	6
BXTAP	32	288	7
BRTAP	33	0	2
NMTAP	33	24	7
NMTAP	33	48	2
NMTAP	33	72	6
BRSTR	33	96	3
NMSI_	33	96	3	96	48	0
NMTAP	33	120	5
NMTAP	33	144	3
NMTAP	33	168	4
EXTAP	33	192	3
NMTAP	33	288	1
NMTAP	33	288	6
NMTAP	34	0	3
NMTAP	34	0	4
NMSTR	34	48	1
NMSCL	34	48	1	96	48	6
NMTAP	34	48	3
NMTAP	34	144	1
NMSTR	34	144	6
NMSCR	34	144	6	96	48	1
NMTAP	34	192	5
NMHLD	34	240	4	96
NMTAP	34	336	2
NMTAP	35	0	1
NMSTR	35	0	6
NMSI_	35	0	6	96	48	3
NMTAP	35	48	3
NMSTR	35	96	2
NMSI_	35	96	2	96	48	5
NMTAP	35	96	6
NMTAP	35	144	1
NMTAP	35	192	2
NMSTR	35	192	7
NMSI_	35	192	7	96	48	3
NMTAP	35	240	6
NMSTR	35	288	1
NMSCR	35	288	1	96	48	5
NMTAP	35	336	0
NMTAP	36	0	1
NMHLD	36	0	6	96
BRTAP	36	96	7
NMTAP	36	144	1
NMTAP	36	168	0
NMTAP	36	168	1
NMTAP	36	216	2
NMTAP	36	216	3
NMTAP	36	264	0
NMTAP	36	264	5
BXHLD	36	288	0	48
BXHLD	36	288	5	48
NMTAP	37	0	2
NMTAP	37	24	4
NMTAP	37	48	1
NMTAP	37	72	4
NMSTR	37	96	2
NMSUR	37	96	2	96	48	7
NMTAP	37	120	4
NMTAP	37	144	0
NMTAP	37	168	4
NMTAP	37	192	2
BRTAP	37	288	6
BRTAP	37	336	6
NMTAP	38	0	4
NMTAP	38	0	5
NMTAP	38	48	3
NMSTR	38	48	6
NMSCR	38	48	6	96	48	1
NMSTR	38	144	1
NMSCL	38	144	1	96	48	6
NMTAP	38	144	6
NMTAP	38	192	2
NMHLD	38	240	3	96
NMTAP	38	336	4
NMSTR	39	0	1
NMSI_	39	0	1	96	48	4
NMTAP	39	0	6
NMTAP	39	48	4
NMTAP	39	96	1
NMSTR	39	96	5
NMSI_	39	96	5	96	48	2
NMTAP	39	144	6
NMTAP	39	192	0
NMTAP	39	192	5
NMTAP	39	240	1
NMHLD	39	288	2	48
NMHLD	39	288	3	48
NMTAP	40	0	1
NMTAP	40	0	4
NMTAP	40	48	0
NMTAP	40	48	5
NMTAP	40	96	6
NMTAP	40	96	7
NMTAP	40	144	6
NMTAP	40	144	7
NMTAP	40	192	4
NMTAP	40	192	5
NMTAP	40	216	4
NMTAP	40	216	5
EXHLD	40	264	2	72
EXHLD	40	264	7	72
NMTAP	41	0	5
NMTAP	41	24	2
NMTAP	41	48	5
NMTAP	41	72	1
NMSTR	41	96	5
BRSI_	41	96	5	96	48	2
NMTAP	41	120	0
NMTAP	41	144	5
NMTAP	41	168	7
BXTAP	41	192	5
NMTAP	41	288	0
NMTAP	41	288	7
NMTAP	42	0	6
NMTAP	42	24	0
NMTAP	42	48	7
NMTAP	42	72	1
NMTAP	42	96	0
NMHLD	42	120	2	48
NMHLD	42	168	3	48
NMTAP	42	216	4
NMTAP	42	240	4
NMTAP	42	288	6
NMTAP	42	312	7
NMTAP	42	336	6
NMTAP	43	0	3
NMTAP	43	0	4
NMTAP	43	48	1
NMTAP	43	72	1
NMTAP	43	96	0
NMTAP	43	120	0
NMHLD	43	168	3	48
NMTAP	43	216	4
BRTAP	43	240	4
BRTAP	43	288	0
BRTAP	43	288	7
NMTAP	44	0	1
NMTAP	44	24	7
NMTAP	44	48	0
NMTAP	44	72	6
NMTAP	44	96	7
NMHLD	44	120	5	48
NMHLD	44	168	4	48
NMTAP	44	216	3
NMTAP	44	240	3
NMTAP	44	288	1
NMTAP	44	312	0
NMTAP	44	336	1
NMTAP	45	0	3
NMTAP	45	0	4
NMTAP	45	48	6
NMTAP	45	72	6
NMTAP	45	96	7
NMTAP	45	120	7
NMSTR	45	168	5
BRSI_	45	168	5	96	48	2
NMTAP	45	216	2
NMTAP	45	240	2
BRTAP	45	288	0
NMTAP	46	0	1
NMTAP	46	24	3
NMTAP	46	48	2
NMTAP	46	72	4
NMTAP	46	96	3
NMHLD	46	120	5	48
NMHLD	46	168	6	48
NMTAP	46	216	7
NMTAP	46	240	7
NMSTR	46	288	4
NMSCL	46	288	4	96	48	1
NMTAP	46	312	5
NMTAP	46	336	3
NMTAP	47	0	4
NMTAP	47	0	6
NMTAP	47	48	7
NMTAP	47	72	7
NMTAP	47	96	0
NMTAP	47	120	0
NMHLD	47	168	5	48
NMTAP	47	216	4
BRTAP	47	240	4
BRTAP	47	288	6
BRTAP	47	288	7
NMTAP	48	0	6
NMTAP	48	24	4
NMTAP	48	48	5
NMTAP	48	72	3
NMTAP	48	96	4
NMHLD	48	120	2	48
NMHLD	48	168	0	48
NMTAP	48	216	1
NMTAP	48	240	1
NMSTR	48	288	3
NMSCR	48	288	3	96	48	6
NMTAP	48	312	2
NMTAP	48	336	4
NMTAP	49	0	1
NMTAP	49	0	3
NMTAP	49	48	0
NMTAP	49	72	0
NMTAP	49	96	7
NMTAP	49	120	7
NMTAP	49	168	2
NMTAP	49	216	3
NMTAP	49	216	4
NMTAP	49	240	3
NMTAP	49	240	4
BRTAP	49	288	1
BRTAP	49	288	6
NMTAP	50	0	0
NMTAP	50	0	7
NMTAP	50	48	6
NMTAP	50	48	7
NMSTR	50	96	5
NMSSR	50	96	5	96	72	1
NMSTR	50	96	6
NMSSL	50	96	6	96	72	2
NMTAP	50	144	5
NMTAP	50	144	6
NMTAP	51	0	0
NMTAP	51	0	7
NMTAP	51	48	0
NMTAP	51	48	1
NMSTR	51	96	1
NMSSR	51	96	1	96	72	5
NMSTR	51	96	2
NMSSL	51	96	2	96	72	6
NMTAP	51	144	1
NMTAP	51	144	2
NMTAP	52	0	4
NMTAP	52	24	4
NMTAP	52	48	3
NMTAP	52	72	3
NMTAP	52	96	2
NMTAP	52	120	2
NMTAP	52	144	1
NMTAP	52	168	1
EXSTR	52	192	0
NMSI_	52	192	0	96	48	4
EXTAP	52	204	7
EXTAP	52	216	6
EXTAP	52	228	5
EXTAP	52	240	4
EXTAP	52	252	3
EXTAP	52	264	2
EXTAP	52	276	1
BXSTR	52	288	0
NMSUR	52	288	0	96	96	1
CNSUL	53	96	1	0	96	0
BXTAP	53	288	0
BXTAP	53	288	7
BXTAP	53	336	0
BXTAP	53	336	7
BXTAP	54	0	1
BXTAP	54	0	6
NMSTR	54	96	3
NMSCL	54	96	3	96	72	7
NMTAP	54	192	3
CNSXR	54	264	7	0	120	0
NMTHO	55	96	0	384	C	0	M1
NMTTP	56	96	1	B	0	M1
NMTTP	56	144	1	A	0	M1
NMTTP	56	192	5	B	0	M1
NMTTP	56	240	5	A	0	M1
NMTTP	56	288	2	B	0	M1
NMTTP	56	288	6	B	0	M1
BXTAP	57	0	1
BXTAP	57	0	6
BXTAP	57	48	1
BXTAP	57	48	6
NMTAP	57	96	0
NMSTR	57	96	5
NMSI_	57	96	5	96	24	3
NMTAP	57	144	7
NMSTR	57	192	1
NMSI_	57	192	1	96	24	3
NMTAP	57	240	7
NMSTR	57	288	5
NMSI_	57	288	5	96	24	3
NMTAP	57	336	7
NMSTR	58	0	1
NMSI_	58	0	1	96	24	3
NMTAP	58	48	7
NMSTR	58	96	6
NMSI_	58	96	6	96	24	4
NMTAP	58	144	0
NMSTR	58	192	2
NMSI_	58	192	2	96	24	4
NMTAP	58	240	0
NMSTR	58	288	6
NMSI_	58	288	6	96	24	4
NMTAP	58	336	0
BXTAP	59	0	1
BXTAP	59	48	0
BXTAP	59	48	1
NMSTR	59	96	6
NMSI_	59	96	6	96	24	0
NMTAP	59	144	4
NMSTR	59	192	2
NMSI_	59	192	2	96	24	0
NMTAP	59	240	4
NMSTR	59	288	6
NMSI_	59	288	6	96	24	0
NMTAP	59	336	4
NMSTR	60	0	1
NMSUR	60	0	1	96	96	3
NMTAP	60	48	4
NMSTR	60	96	3
NMSCR	60	96	3	96	120	2
BRTAP	61	0	1
BRTAP	61	0	6
NMSTR	61	96	4
NMSCL	61	96	4	96	48	1
NMTAP	61	96	6
NMTAP	61	144	5
NMTAP	61	192	2
NMTAP	61	192	4
NMTAP	61	240	0
NMHLD	61	264	0	48
NMTAP	61	312	3
NMTAP	61	336	2
NMTAP	61	360	3
NMTAP	62	0	1
NMTAP	62	48	0
NMTAP	62	96	1
NMSTR	62	96	3
NMSCR	62	96	3	96	48	6
NMTAP	62	144	2
NMTAP	62	192	3
NMTAP	62	192	5
NMTAP	62	240	7
NMHLD	62	264	7	48
NMTAP	62	312	4
NMSTR	62	336	4
NMSI_	62	336	4	96	24	1
NMSTR	63	0	4
NMSI_	63	0	4	96	24	7
NMTAP	63	192	0
NMTAP	63	192	1
NMTAP	63	240	2
NMHLD	63	264	2	48
NMTAP	63	312	3
NMHLD	63	336	3	48
NMTAP	64	0	4
NMTAP	64	48	4
NMTAP	64	48	5
NMTAP	64	96	7
NMTAP	64	144	4
NMTAP	64	144	5
NMTAP	64	192	0
NMTAP	64	192	2
NMTAP	64	240	3
NMHLD	64	264	3	48
NMTAP	64	312	7
NMTAP	64	336	7
BRTAP	65	0	1
BRTAP	65	0	5
NMTAP	65	96	1
NMSTR	65	96	3
NMSCR	65	96	3	96	48	6
NMTAP	65	144	2
NMTAP	65	192	3
NMTAP	65	192	5
NMTAP	65	240	7
NMHLD	65	264	7	48
NMTAP	65	312	4
NMTAP	65	336	5
NMTAP	65	360	4
NMTAP	66	0	6
NMTAP	66	48	7
NMSTR	66	96	4
NMSCL	66	96	4	96	48	1
NMTAP	66	96	6
NMTAP	66	144	5
NMTAP	66	192	2
NMTAP	66	192	4
NMTAP	66	240	0
NMHLD	66	264	0	48
NMTAP	66	312	3
NMSTR	66	336	3
NMSI_	66	336	3	96	24	6
NMSTR	67	0	3
NMSI_	67	0	3	96	24	0
NMTAP	67	144	7
NMTAP	67	192	7
NMTAP	67	240	0
NMTAP	67	240	6
NMTAP	67	264	0
NMTAP	67	264	6
NMTAP	67	312	2
NMTAP	67	312	4
NMTAP	67	336	2
NMTAP	67	336	4
BXTAP	68	0	1
BXTAP	68	0	5
NMSTR	68	96	2
NMSI_	68	96	2	96	48	5
NMSTR	68	96	6
NMSI_	68	96	6	96	48	1
NMTAP	68	144	1
NMTAP	68	144	5
EXTAP	68	192	2
EXTAP	68	192	6
NMSTR	68	288	3
BRSI_	68	288	3	96	48	0
NMSTR	68	288	7
BRSI_	68	288	7	96	48	4
NMTAP	68	336	2
NMTAP	68	336	6
BXTAP	69	0	3
BXTAP	69	0	7
NMTAP	69	96	1
NMTAP	69	144	6
NMTAP	69	168	4
NMTAP	69	192	5
NMTAP	69	216	3
NMTAP	69	240	4
NMTAP	69	264	2
NMTAP	69	288	3
NMTAP	69	312	1
NMSTR	69	360	2
BRSI_	69	360	2	96	24	7
NMSTR	69	360	4
BRSI_	69	360	4	96	24	0
BRTAP	70	48	2
BRTAP	70	48	4

T_REC_TAP	391
T_REC_BRK	26
T_REC_XTP	26
T_REC_BXX	25
T_REC_HLD	55
T_REC_XHO	2
T_REC_BHO	0
T_REC_BXH	4
T_REC_STR	70
T_REC_BST	2
T_REC_XST	3
T_REC_XBS	1
T_REC_TTP	12
T_REC_THO	1
T_REC_SLD	69
T_REC_BSL	7
T_REC_ALL	694
T_NUM_TAP	502
T_NUM_BRK	65
T_NUM_HLD	58
T_NUM_SLD	69
T_NUM_ALL	694
T_JUDGE_TAP	556
T_JUDGE_HLD	105
T_JUDGE_SLD	76
T_JUDGE_ALL	737
TTM_EACHPAIRS	124
TTM_SCR_TAP	251000
TTM_SCR_BRK	169000
TTM_SCR_HLD	58000
TTM_SCR_SLD	103500
TTM_SCR_ALL	581500
TTM_SCR_S	557750
TTM_SCR_SS	575000
TTM_RAT_ACV	10113

