VERSION	0.00.00	1.04.00
FES_MODE	0
BPM_DEF	128.000	128.000	128.000	128.000
MET_DEF	4	4
RESOLUTION	384
CLK_DEF	384
COMPATIBLE_CODE	MA2

BPM	0	0	128.000
MET	0	0	4	4
MET	55	0	4	1
MET	55	96	4	4

EXTAP	1	336	2
EXTAP	1	336	4
EXHLD	2	0	2	576
EXTAP	2	0	4
NMTAP	2	336	3
NMHLD	3	0	3	192
NMTAP	3	288	3
NMTAP	3	288	4
EXTAP	3	336	3
EXTAP	3	336	4
EXTAP	4	0	2
EXHLD	4	0	5	336
NMTAP	4	336	4
NMTAP	5	0	4
NMHLD	5	96	2	72
NMHLD	5	96	6	72
EXTAP	5	240	1
EXTAP	5	240	7
BXTAP	5	288	1
BXTAP	5	288	7
NMTAP	6	0	2
NMTAP	6	48	2
NMTAP	6	96	3
NMTAP	6	192	1
NMTAP	6	192	4
NMTAP	6	288	3
NMTAP	6	288	6
NMTAP	7	0	5
NMTAP	7	48	5
NMTAP	7	96	4
NMTAP	7	192	3
NMTAP	7	192	6
NMTAP	7	288	1
NMTAP	7	288	4
NMTAP	8	0	0
NMTAP	8	48	0
NMTAP	8	96	7
NMTAP	8	144	7
NMTAP	8	192	1
NMTAP	8	240	1
NMSTR	8	288	6
NMSI_	8	288	6	96	96	2
NMTAP	9	192	1
NMTAP	9	240	1
EXTAP	9	288	1
EXTAP	9	288	3
BRTAP	10	0	3
BRTAP	10	0	4
NMHLD	10	96	6	48
NMHLD	10	96	7	48
NMHLD	10	192	4	48
NMHLD	10	192	5	48
NMHLD	10	288	6	48
NMHLD	10	288	7	48
NMHLD	11	0	3	48
NMHLD	11	0	4	48
NMHLD	11	96	0	48
NMHLD	11	96	1	48
NMHLD	11	192	3	48
NMHLD	11	192	4	48
NMTAP	11	288	5
NMTAP	11	336	5
BRTAP	12	0	4
BRTAP	12	0	6
NMHLD	12	96	3	48
NMHLD	12	96	5	48
NMHLD	12	192	2	48
NMHLD	12	192	4	48
NMHLD	12	288	3	48
NMHLD	12	288	5	48
NMSTR	13	0	2
NMSI_	13	0	2	96	48	4
NMSTR	13	0	6
NMSI_	13	0	6	96	48	0
NMTAP	13	192	1
NMTAP	13	192	5
NMTAP	13	288	1
NMTAP	13	288	5
BRTAP	14	0	2
BRTAP	14	0	6
NMHLD	14	96	0	48
NMHLD	14	96	1	48
NMHLD	14	192	2	48
NMHLD	14	192	3	48
NMHLD	14	288	0	48
NMHLD	14	288	1	48
NMHLD	15	0	3	48
NMHLD	15	0	4	48
NMHLD	15	96	6	48
NMHLD	15	96	7	48
NMHLD	15	192	3	48
NMHLD	15	192	4	48
NMTAP	15	288	5
NMTAP	15	336	5
EXTAP	16	0	4
EXTAP	16	0	6
BRTAP	16	96	0
BRTAP	16	96	7
NMTAP	16	192	2
NMTAP	16	240	2
NMSTR	16	288	1
NMSCL	16	288	1	96	192	4
NMTAP	16	288	3
EXTAP	17	288	3
EXTAP	17	288	4
NMTAP	18	0	2
NMTAP	18	48	2
NMTAP	18	96	3
NMTAP	18	144	1
NMTAP	18	192	2
NMTAP	18	192	3
NMTAP	18	240	2
NMTAP	18	240	3
NMTAP	18	288	1
NMTAP	18	288	4
NMTAP	19	0	5
NMTAP	19	48	5
NMTAP	19	96	4
NMTAP	19	144	6
NMTAP	19	192	4
NMTAP	19	192	5
NMTAP	19	240	4
NMTAP	19	240	5
NMTAP	19	288	3
NMTAP	19	288	6
NMSTR	20	0	7
NMSCL	20	0	7	96	96	4
NMSTR	20	192	3
NMSCL	20	192	3	96	96	0
NMHLD	21	0	6	96
NMTAP	21	96	7
NMTAP	21	144	7
NMTAP	21	192	5
NMTAP	21	240	5
NMTAP	21	288	4
NMTAP	21	288	6
NMTAP	22	0	2
NMTAP	22	0	3
BRTAP	22	96	0
NMTAP	22	192	0
NMTAP	22	192	1
NMTAP	22	240	0
NMTAP	22	240	1
NMTAP	22	288	2
NMTAP	22	288	7
NMTAP	23	0	6
NMTAP	23	48	6
NMTAP	23	96	7
NMTAP	23	144	5
NMTAP	23	192	6
NMTAP	23	192	7
NMTAP	23	240	6
NMTAP	23	240	7
NMTAP	23	288	0
NMTAP	23	288	5
NMSTR	24	0	1
NMSCR	24	0	1	96	96	4
NMSTR	24	192	5
NMSCR	24	192	5	96	96	0
NMTAP	25	0	1
EXHLD	25	96	2	72
EXHLD	25	96	6	72
NMTAP	25	240	3
NMTAP	25	240	5
NMTAP	25	288	3
NMSTR	25	288	5
BRSCR	25	288	5	96	576	3
NMTTP	26	0	0	C	1	M1
NMTTP	28	0	2	B	0	M1
NMTTP	28	0	4	B	0	M1
NMTTP	28	96	3	B	0	M1
NMTTP	28	192	0	C	0	M1
NMTTP	28	288	7	B	0	M1
NMTTP	29	0	0	B	0	M1
NMTTP	29	0	6	B	0	M1
NMTTP	29	96	7	B	0	M1
NMTTP	29	192	0	C	0	M1
NMTTP	29	288	3	B	0	M1
NMTAP	30	0	2
NMHLD	30	96	2	192
NMHLD	30	288	3	192
NMHLD	31	96	4	192
NMTAP	31	288	5
NMTAP	32	0	6
NMTAP	32	48	6
NMTAP	32	96	3
NMTAP	32	144	3
NMTAP	32	192	4
NMTAP	32	240	4
NMTAP	32	288	3
NMHLD	32	288	4	192
EXTAP	33	0	2
EXTAP	33	96	1
EXTAP	33	192	0
EXTAP	33	240	0
EXTAP	33	240	7
BXTAP	33	288	1
BXTAP	33	288	6
NMTAP	34	0	2
NMTAP	34	0	3
NMTAP	34	48	2
NMSTR	34	48	3
NMSI_	34	48	3	96	48	6
NMSTR	34	144	1
NMSI_	34	144	1	96	48	4
NMSTR	34	240	0
NMSI_	34	240	0	96	48	5
NMSTR	34	336	2
NMSI_	34	336	2	96	48	7
NMSTR	35	48	6
NMSI_	35	48	6	96	48	2
EXTAP	35	144	0
EXTAP	35	192	0
EXTAP	35	288	1
EXTAP	35	288	3
NMTAP	35	336	4
NMTAP	36	0	3
NMSTR	36	0	5
NMSI_	36	0	5	96	48	0
BRTAP	36	96	0
NMTAP	36	192	1
NMTAP	36	192	7
NMTAP	36	240	2
NMTAP	36	240	6
NMTAP	36	288	3
NMTAP	36	288	5
NMTAP	37	0	2
NMTAP	37	24	3
NMTAP	37	48	2
NMTAP	37	96	5
NMTAP	37	120	4
NMTAP	37	144	5
NMTAP	37	192	1
NMTAP	37	216	0
NMTAP	37	240	1
BRTAP	37	288	2
BRTAP	37	288	7
NMTAP	38	0	4
NMTAP	38	0	5
NMSTR	38	48	4
NMSI_	38	48	4	96	48	1
NMTAP	38	48	5
NMSTR	38	144	6
NMSI_	38	144	6	96	48	3
NMSTR	38	240	7
NMSI_	38	240	7	96	48	2
NMSTR	38	336	5
NMSI_	38	336	5	96	48	0
NMSTR	39	48	1
NMSI_	39	48	1	96	48	5
EXTAP	39	144	7
EXTAP	39	192	7
EXTAP	39	288	0
EXTAP	39	288	6
NMSTR	40	0	1
NMSI_	40	0	1	96	48	4
NMSTR	40	0	5
NMSI_	40	0	5	96	48	0
EXTAP	40	192	3
EXTAP	40	192	7
NMTAP	40	240	2
NMTAP	40	240	6
NMTAP	40	288	1
NMTAP	40	288	5
NMTAP	41	0	6
NMTAP	41	24	7
NMTAP	41	48	6
NMTAP	41	96	1
NMTAP	41	120	0
NMTAP	41	144	1
NMTAP	41	192	4
NMTAP	41	216	3
NMTAP	41	240	4
BRTAP	41	288	1
BRTAP	41	288	6
NMTAP	42	0	2
NMTAP	42	0	3
NMTAP	42	48	1
NMTAP	42	96	0
NMTAP	42	96	7
NMTAP	42	144	6
NMTAP	42	192	4
NMTAP	42	192	5
NMTAP	42	240	6
NMTAP	42	288	0
NMTAP	42	288	7
NMTAP	42	336	1
NMHLD	43	0	2	48
NMTAP	43	48	3
NMHLD	43	96	5	48
NMTAP	43	144	4
NMTAP	43	192	2
BRTAP	43	240	1
BRTAP	43	240	7
BRTAP	43	288	1
BRTAP	43	288	7
NMTAP	44	0	4
NMTAP	44	0	5
NMTAP	44	48	6
NMTAP	44	96	0
NMTAP	44	96	7
NMTAP	44	144	1
NMTAP	44	192	2
NMTAP	44	192	3
NMTAP	44	240	1
NMTAP	44	288	0
NMTAP	44	288	6
NMTAP	44	336	5
BXTAP	45	0	2
BXTAP	45	0	4
NMTAP	45	48	2
NMTAP	45	48	4
NMHLD	45	96	1	48
NMHLD	45	96	5	48
NMHLD	45	168	2	48
NMHLD	45	168	6	48
NMTAP	45	240	3
NMTAP	45	240	7
BXTAP	45	288	3
BXTAP	45	288	7
NMTAP	46	0	0
NMTAP	46	0	1
NMTAP	46	48	2
NMTAP	46	96	3
NMTAP	46	96	4
NMTAP	46	144	5
NMTAP	46	192	6
NMTAP	46	192	7
NMTAP	46	240	5
NMTAP	46	288	3
NMTAP	46	288	4
NMTAP	46	336	2
NMHLD	47	0	1	48
NMTAP	47	48	3
NMHLD	47	96	5	48
NMTAP	47	144	4
NMTAP	47	192	2
BRTAP	47	240	1
BRTAP	47	240	7
BRTAP	47	288	1
BRTAP	47	288	7
NMTAP	48	0	6
NMTAP	48	0	7
NMTAP	48	48	5
NMTAP	48	96	3
NMTAP	48	96	4
NMTAP	48	144	2
NMTAP	48	192	0
NMTAP	48	192	1
NMTAP	48	240	2
NMTAP	48	288	3
NMTAP	48	288	4
NMTAP	48	336	3
NMTAP	48	336	4
NMTAP	49	0	2
NMTAP	49	0	5
NMTAP	49	48	6
NMTAP	49	72	7
NMTAP	49	96	6
NMTAP	49	144	1
NMTAP	49	168	0
NMTAP	49	192	1
NMTAP	49	240	2
NMTAP	49	240	7
BRTAP	49	288	3
BRTAP	49	288	6
NMHLD	50	0	6	96
NMTAP	50	96	7
BXHLD	50	168	6	72
BXHLD	50	168	7	72
BXTAP	50	288	0
BXTAP	50	288	5
NMHLD	51	0	1	96
NMTAP	51	96	0
BXHLD	51	168	0	72
BXHLD	51	168	1	72
BXTAP	51	288	2
BXTAP	51	288	7
NMTAP	52	0	1
NMTAP	52	48	1
NMTAP	52	96	6
NMTAP	52	144	6
NMTAP	52	192	0
NMTAP	52	216	7
NMTAP	52	240	0
NMTAP	52	264	7
NMSTR	52	288	0
NMSXL	52	288	0	96	192	4
NMSXR	52	288	0	96	192	4
NMTAP	52	312	7
NMTAP	52	336	0
NMTAP	52	360	7
BRSTR	53	288	7
NMSI_	53	288	7	96	48	3
NMHLD	54	96	1	48
NMHLD	54	96	5	48
NMHLD	54	192	4	48
NMHLD	54	192	6	48
NMTHO	54	288	0	192	C	1	M1
NMTAP	56	96	2
NMHLD	56	96	3	96
NMHLD	56	192	4	96
NMTAP	56	288	5
NMTAP	57	0	0
NMSTR	57	0	7
BRSI_	57	0	7	96	48	3
NMTAP	57	48	0
BRTAP	57	96	0
NMHLD	57	192	1	48
NMHLD	57	192	5	48
NMHLD	57	288	4	48
NMHLD	57	288	6	48
NMHLD	58	0	3	48
EXTAP	58	48	7
NMHLD	58	96	0	48
NMHLD	58	96	6	48
NMHLD	58	192	5	48
NMHLD	58	288	4	48
NMHLD	58	288	6	48
NMSTR	59	0	1
NMSI_	59	0	1	96	48	7
NMSTR	59	0	5
NMSI_	59	0	5	96	48	3
BRTAP	59	192	2
BRTAP	59	192	6
NMHLD	59	288	1	48
NMHLD	59	288	3	48
NMHLD	60	0	2	48
NMHLD	60	0	6	48
NMSTR	60	96	7
NMSCL	60	96	7	96	48	4
NMSTR	60	192	1
NMSCR	60	192	1	96	48	3
NMTAP	60	288	0
EXTAP	61	0	1
EXTAP	61	0	7
NMSTR	61	96	2
NMSI_	61	96	2	96	48	7
NMTAP	61	144	2
NMSTR	61	192	6
NMSI_	61	192	6	96	48	3
NMTAP	61	240	6
NMTAP	61	288	1
NMTAP	61	336	1
NMTAP	62	0	0
NMTAP	62	0	4
NMSTR	62	96	1
NMSI_	62	96	1	96	48	4
NMTAP	62	144	1
NMSTR	62	192	5
NMSI_	62	192	5	96	48	0
NMTAP	62	240	5
NMTAP	62	288	2
NMTAP	62	336	2
NMTAP	63	0	1
NMTAP	63	0	7
EXTAP	63	48	1
EXTAP	63	48	7
NMSTR	63	96	0
NMSI_	63	96	0	96	48	2
NMTAP	63	144	0
NMSTR	63	192	6
NMSI_	63	192	6	96	48	4
NMTAP	63	240	6
NMSTR	63	288	0
NMSI_	63	288	0	96	48	4
NMTAP	63	336	0
NMTAP	64	0	7
NMTAP	64	48	7
NMSTR	64	96	6
NMSI_	64	96	6	96	48	2
NMTAP	64	144	6
NMSTR	64	192	1
NMSCL	64	192	1	96	96	4
NMTAP	64	240	1
EXTAP	64	288	3
NMSTR	65	96	2
NMSI_	65	96	2	96	48	7
NMTAP	65	144	2
NMSTR	65	192	6
NMSI_	65	192	6	96	48	3
NMTAP	65	240	6
NMTAP	65	288	1
NMTAP	65	336	1
NMTAP	66	0	0
NMTAP	66	0	4
NMSTR	66	96	1
NMSI_	66	96	1	96	48	4
NMTAP	66	144	1
NMSTR	66	192	5
NMSI_	66	192	5	96	48	0
NMTAP	66	240	5
NMTAP	66	288	2
NMTAP	66	336	2
NMTAP	67	0	1
NMTAP	67	0	7
NMTAP	67	96	6
NMTAP	67	144	6
NMTAP	67	192	1
NMTAP	67	240	1
NMTAP	67	288	7
NMTAP	67	312	0
NMTAP	67	336	7
NMTAP	67	360	0
NMSTR	68	0	7
NMSSR	68	0	7	96	192	3
NMTAP	68	24	0
NMTAP	68	48	7
NMTAP	68	72	0
BXTAP	68	336	0
BXTAP	69	0	0
NMTTP	69	96	1	B	0	M1
NMTTP	69	96	2	E	0	M1
NMTTP	69	96	5	B	0	M1
NMTTP	69	96	5	E	0	M1
NMTTP	69	192	3	B	0	M1
NMTTP	69	192	4	E	0	M1
NMTTP	69	192	6	B	0	M1
NMTTP	69	192	6	E	0	M1
BXHLD	69	288	0	48
BXHLD	69	288	1	48
BXHLD	69	360	2	48
BXHLD	69	360	7	48
NMTTP	70	48	0	C	1	M1
NMTTP	70	48	4	B	0	M1
NMTTP	70	48	5	B	0	M1

T_REC_TAP	260
T_REC_BRK	27
T_REC_XTP	35
T_REC_BXX	14
T_REC_HLD	68
T_REC_XHO	4
T_REC_BHO	0
T_REC_BXH	8
T_REC_STR	42
T_REC_BST	1
T_REC_XST	0
T_REC_XBS	0
T_REC_TTP	22
T_REC_THO	1
T_REC_SLD	42
T_REC_BSL	2
T_REC_ALL	526
T_NUM_TAP	359
T_NUM_BRK	52
T_NUM_HLD	73
T_NUM_SLD	42
T_NUM_ALL	526
T_JUDGE_TAP	401
T_JUDGE_HLD	129
T_JUDGE_SLD	44
T_JUDGE_ALL	574
TTM_EACHPAIRS	128
TTM_SCR_TAP	179500
TTM_SCR_BRK	135200
TTM_SCR_HLD	73000
TTM_SCR_SLD	63000
TTM_SCR_ALL	450700
TTM_SCR_S	432150
TTM_SCR_SS	445500
TTM_RAT_ACV	10116

